  0
SECTION
  2
HEADER
  9
$ACADVER
  1
AC1027
  9
$ACADMAINTVER
 70
     8
  9
$DWGCODEPAGE
  3
ANSI_1252
  9
$LASTSAVEDBY
  1
Randy
  9
$REQUIREDVERSIONS
160
                 0
  9
$INSBASE
 10
0.0
 20
0.0
 30
0.0
  9
$EXTMIN
 10
0.522179800674607
 20
0.5402791922345817
 30
0.0
  9
$EXTMAX
 10
34.52217980067461
 20
22.54962738535821
 30
0.0
  9
$LIMMIN
 10
0.0
 20
0.0
  9
$LIMMAX
 10
12.0
 20
9.0
  9
$ORTHOMODE
 70
     0
  9
$REGENMODE
 70
     1
  9
$FILLMODE
 70
     1
  9
$QTEXTMODE
 70
     0
  9
$MIRRTEXT
 70
     0
  9
$LTSCALE
 40
1.0
  9
$ATTMODE
 70
     1
  9
$TEXTSIZE
 40
0.2
  9
$TRACEWID
 40
0.05
  9
$TEXTSTYLE
  7
Standard
  9
$CLAYER
  8
Construction
  9
$CELTYPE
  6
ByLayer
  9
$CECOLOR
 62
   256
  9
$CELTSCALE
 40
1.0
  9
$DISPSILH
 70
     0
  9
$DIMSCALE
 40
1.0
  9
$DIMASZ
 40
0.1
  9
$DIMEXO
 40
0.0625
  9
$DIMDLI
 40
0.15
  9
$DIMRND
 40
0.0
  9
$DIMDLE
 40
0.0
  9
$DIMEXE
 40
0.15
  9
$DIMTP
 40
0.0
  9
$DIMTM
 40
0.0
  9
$DIMTXT
 40
0.12
  9
$DIMCEN
 40
0.09
  9
$DIMTSZ
 40
0.0
  9
$DIMTOL
 70
     0
  9
$DIMLIM
 70
     0
  9
$DIMTIH
 70
     1
  9
$DIMTOH
 70
     1
  9
$DIMSE1
 70
     0
  9
$DIMSE2
 70
     0
  9
$DIMTAD
 70
     0
  9
$DIMZIN
 70
     0
  9
$DIMBLK
  1

  9
$DIMASO
 70
     1
  9
$DIMSHO
 70
     1
  9
$DIMPOST
  1

  9
$DIMAPOST
  1

  9
$DIMALT
 70
     1
  9
$DIMALTD
 70
     2
  9
$DIMALTF
 40
25.4
  9
$DIMLFAC
 40
1.0
  9
$DIMTOFL
 70
     0
  9
$DIMTVP
 40
0.0
  9
$DIMTIX
 70
     0
  9
$DIMSOXD
 70
     0
  9
$DIMSAH
 70
     0
  9
$DIMBLK1
  1

  9
$DIMBLK2
  1

  9
$DIMSTYLE
  2
Standard
  9
$DIMCLRD
 70
     0
  9
$DIMCLRE
 70
     0
  9
$DIMCLRT
 70
     0
  9
$DIMTFAC
 40
1.0
  9
$DIMGAP
 40
0.05
  9
$DIMJUST
 70
     0
  9
$DIMSD1
 70
     0
  9
$DIMSD2
 70
     0
  9
$DIMTOLJ
 70
     1
  9
$DIMTZIN
 70
     0
  9
$DIMALTZ
 70
     0
  9
$DIMALTTZ
 70
     0
  9
$DIMUPT
 70
     0
  9
$DIMDEC
 70
     2
  9
$DIMTDEC
 70
     2
  9
$DIMALTU
 70
     2
  9
$DIMALTTD
 70
     2
  9
$DIMTXSTY
  7
Standard
  9
$DIMAUNIT
 70
     0
  9
$DIMADEC
 70
     0
  9
$DIMALTRND
 40
0.0
  9
$DIMAZIN
 70
     0
  9
$DIMDSEP
 70
    46
  9
$DIMATFIT
 70
     3
  9
$DIMFRAC
 70
     0
  9
$DIMLDRBLK
  1

  9
$DIMLUNIT
 70
     2
  9
$DIMLWD
 70
    -2
  9
$DIMLWE
 70
    -2
  9
$DIMTMOVE
 70
     0
  9
$DIMFXL
 40
1.0
  9
$DIMFXLON
 70
     0
  9
$DIMJOGANG
 40
0.7853981633974483
  9
$DIMTFILL
 70
     0
  9
$DIMTFILLCLR
 70
     0
  9
$DIMARCSYM
 70
     0
  9
$DIMLTYPE
  6

  9
$DIMLTEX1
  6

  9
$DIMLTEX2
  6

  9
$DIMTXTDIRECTION
 70
     0
  9
$LUNITS
 70
     2
  9
$LUPREC
 70
     4
  9
$SKETCHINC
 40
0.1
  9
$FILLETRAD
 40
0.0707106781186547
  9
$AUNITS
 70
     0
  9
$AUPREC
 70
     0
  9
$MENU
  1
.
  9
$ELEVATION
 40
0.0
  9
$PELEVATION
 40
0.0
  9
$THICKNESS
 40
0.0
  9
$LIMCHECK
 70
     0
  9
$CHAMFERA
 40
0.0
  9
$CHAMFERB
 40
0.0
  9
$CHAMFERC
 40
0.0
  9
$CHAMFERD
 40
0.0
  9
$SKPOLY
 70
     0
  9
$TDCREATE
 40
2452642.896717604
  9
$TDUCREATE
 40
2452643.063384271
  9
$TDUPDATE
 40
2458415.663117188
  9
$TDUUPDATE
 40
2458415.829783854
  9
$TDINDWG
 40
0.3035556713
  9
$TDUSRTIMER
 40
2457621.150453855
  9
$USRTIMER
 70
     1
  9
$ANGBASE
 50
0.0
  9
$ANGDIR
 70
     0
  9
$PDMODE
 70
     0
  9
$PDSIZE
 40
0.0
  9
$PLINEWID
 40
0.0
  9
$SPLFRAME
 70
     0
  9
$SPLINETYPE
 70
     6
  9
$SPLINESEGS
 70
     8
  9
$HANDSEED
  5
29D4
  9
$SURFTAB1
 70
     6
  9
$SURFTAB2
 70
     6
  9
$SURFTYPE
 70
     6
  9
$SURFU
 70
     6
  9
$SURFV
 70
     6
  9
$UCSBASE
  2

  9
$UCSNAME
  2

  9
$UCSORG
 10
0.0
 20
0.0
 30
0.0
  9
$UCSXDIR
 10
1.0
 20
0.0
 30
0.0
  9
$UCSYDIR
 10
0.0
 20
1.0
 30
0.0
  9
$UCSORTHOREF
  2

  9
$UCSORTHOVIEW
 70
     0
  9
$UCSORGTOP
 10
0.0
 20
0.0
 30
0.0
  9
$UCSORGBOTTOM
 10
0.0
 20
0.0
 30
0.0
  9
$UCSORGLEFT
 10
0.0
 20
0.0
 30
0.0
  9
$UCSORGRIGHT
 10
0.0
 20
0.0
 30
0.0
  9
$UCSORGFRONT
 10
0.0
 20
0.0
 30
0.0
  9
$UCSORGBACK
 10
0.0
 20
0.0
 30
0.0
  9
$PUCSBASE
  2

  9
$PUCSNAME
  2

  9
$PUCSORG
 10
0.0
 20
0.0
 30
0.0
  9
$PUCSXDIR
 10
1.0
 20
0.0
 30
0.0
  9
$PUCSYDIR
 10
0.0
 20
1.0
 30
0.0
  9
$PUCSORTHOREF
  2

  9
$PUCSORTHOVIEW
 70
     0
  9
$PUCSORGTOP
 10
0.0
 20
0.0
 30
0.0
  9
$PUCSORGBOTTOM
 10
0.0
 20
0.0
 30
0.0
  9
$PUCSORGLEFT
 10
0.0
 20
0.0
 30
0.0
  9
$PUCSORGRIGHT
 10
0.0
 20
0.0
 30
0.0
  9
$PUCSORGFRONT
 10
0.0
 20
0.0
 30
0.0
  9
$PUCSORGBACK
 10
0.0
 20
0.0
 30
0.0
  9
$USERI1
 70
     0
  9
$USERI2
 70
     0
  9
$USERI3
 70
     0
  9
$USERI4
 70
     0
  9
$USERI5
 70
     0
  9
$USERR1
 40
0.0
  9
$USERR2
 40
0.0
  9
$USERR3
 40
0.0
  9
$USERR4
 40
0.0
  9
$USERR5
 40
0.0
  9
$WORLDVIEW
 70
     1
  9
$SHADEDGE
 70
     3
  9
$SHADEDIF
 70
    70
  9
$TILEMODE
 70
     1
  9
$MAXACTVP
 70
    64
  9
$PINSBASE
 10
0.0
 20
0.0
 30
0.0
  9
$PLIMCHECK
 70
     0
  9
$PEXTMIN
 10
0.0
 20
0.0
 30
0.0
  9
$PEXTMAX
 10
0.0
 20
0.0
 30
0.0
  9
$PLIMMIN
 10
0.0
 20
0.0
  9
$PLIMMAX
 10
12.0
 20
9.0
  9
$UNITMODE
 70
     0
  9
$VISRETAIN
 70
     1
  9
$PLINEGEN
 70
     0
  9
$PSLTSCALE
 70
     1
  9
$TREEDEPTH
 70
  3020
  9
$CMLSTYLE
  2
Standard
  9
$CMLJUST
 70
     0
  9
$CMLSCALE
 40
1.0
  9
$PROXYGRAPHICS
 70
     1
  9
$MEASUREMENT
 70
     0
  9
$CELWEIGHT
370
    -1
  9
$ENDCAPS
280
     0
  9
$JOINSTYLE
280
     0
  9
$LWDISPLAY
290
     0
  9
$INSUNITS
 70
     1
  9
$HYPERLINKBASE
  1

  9
$STYLESHEET
  1
monochrome.ctb
  9
$XEDIT
290
     1
  9
$CEPSNTYPE
380
     0
  9
$PSTYLEMODE
290
     1
  9
$FINGERPRINTGUID
  2
{FDEAD576-A652-11D2-9A35-0060089B3A3F}
  9
$VERSIONGUID
  2
{0EC5A09C-C6A0-4C9D-975F-7BD4EB4F5DEF}
  9
$EXTNAMES
290
     1
  9
$PSVPSCALE
 40
0.0
  9
$OLESTARTUP
290
     0
  9
$SORTENTS
280
   127
  9
$INDEXCTL
280
     0
  9
$HIDETEXT
280
     1
  9
$XCLIPFRAME
280
     0
  9
$HALOGAP
280
     0
  9
$OBSCOLOR
 70
   257
  9
$OBSLTYPE
280
     0
  9
$INTERSECTIONDISPLAY
280
     0
  9
$INTERSECTIONCOLOR
 70
   257
  9
$DIMASSOC
280
     2
  9
$PROJECTNAME
  1

  9
$CAMERADISPLAY
290
     0
  9
$LENSLENGTH
 40
50.0
  9
$CAMERAHEIGHT
 40
0.0
  9
$STEPSPERSEC
 40
2.0
  9
$STEPSIZE
 40
6.0
  9
$3DDWFPREC
 40
2.0
  9
$PSOLWIDTH
 40
0.25
  9
$PSOLHEIGHT
 40
4.0
  9
$LOFTANG1
 40
1.570796326794896
  9
$LOFTANG2
 40
1.570796326794896
  9
$LOFTMAG1
 40
0.0
  9
$LOFTMAG2
 40
0.0
  9
$LOFTPARAM
 70
     7
  9
$LOFTNORMALS
280
     1
  9
$LATITUDE
 40
37.795
  9
$LONGITUDE
 40
-122.394
  9
$NORTHDIRECTION
 40
0.0
  9
$TIMEZONE
 70
 -8000
  9
$LIGHTGLYPHDISPLAY
280
     1
  9
$TILEMODELIGHTSYNCH
280
     1
  9
$CMATERIAL
347
96
  9
$SOLIDHIST
280
     1
  9
$SHOWHIST
280
     1
  9
$DWFFRAME
280
     2
  9
$DGNFRAME
280
     0
  9
$REALWORLDSCALE
290
     1
  9
$INTERFERECOLOR
 62
     1
  9
$INTERFEREOBJVS
345
A3
  9
$INTERFEREVPVS
346
FF
  9
$CSHADOW
280
     0
  9
$SHADOWPLANELOCATION
 40
0.0
  0
ENDSEC
  0
SECTION
  2
CLASSES
  0
CLASS
  1
ACDBDICTIONARYWDFLT
  2
AcDbDictionaryWithDefault
  3
ObjectDBX Classes
 90
        0
 91
        1
280
     0
281
     0
  0
CLASS
  1
DICTIONARYVAR
  2
AcDbDictionaryVar
  3
ObjectDBX Classes
 90
        0
 91
        9
280
     0
281
     0
  0
CLASS
  1
TABLESTYLE
  2
AcDbTableStyle
  3
ObjectDBX Classes
 90
     4095
 91
        1
280
     0
281
     0
  0
CLASS
  1
MATERIAL
  2
AcDbMaterial
  3
ObjectDBX Classes
 90
     1153
 91
        3
280
     0
281
     0
  0
CLASS
  1
VISUALSTYLE
  2
AcDbVisualStyle
  3
ObjectDBX Classes
 90
     4095
 91
       26
280
     0
281
     0
  0
CLASS
  1
SCALE
  2
AcDbScale
  3
ObjectDBX Classes
 90
     1153
 91
       33
280
     0
281
     0
  0
CLASS
  1
CELLSTYLEMAP
  2
AcDbCellStyleMap
  3
ObjectDBX Classes
 90
     1152
 91
        1
280
     0
281
     0
  0
CLASS
  1
RASTERVARIABLES
  2
AcDbRasterVariables
  3
ISM
 90
        0
 91
        1
280
     0
281
     0
  0
CLASS
  1
SORTENTSTABLE
  2
AcDbSortentsTable
  3
ObjectDBX Classes
 90
        0
 91
        2
280
     0
281
     0
  0
CLASS
  1
DIMASSOC
  2
AcDbDimAssoc
  3
"AcDbDimAssoc|Product Desc:     AcDim ARX App For Dimension|Company:          Autodesk, Inc.|WEB Address:      www.autodesk.com"
 90
        0
 91
       38
280
     0
281
     0
  0
CLASS
  1
MLEADERSTYLE
  2
AcDbMLeaderStyle
  3
ACDB_MLEADERSTYLE_CLASS
 90
     4095
 91
        1
280
     0
281
     0
  0
CLASS
  1
ACDBSECTIONVIEWSTYLE
  2
AcDbSectionViewStyle
  3
ObjectDBX Classes
 90
     1025
 91
        1
280
     0
281
     0
  0
CLASS
  1
ACDBDETAILVIEWSTYLE
  2
AcDbDetailViewStyle
  3
ObjectDBX Classes
 90
     1025
 91
        1
280
     0
281
     0
  0
CLASS
  1
MULTILEADER
  2
AcDbMLeader
  3
ACDB_MLEADER_CLASS
 90
     1025
 91
        0
280
     0
281
     1
  0
ENDSEC
  0
SECTION
  2
TABLES
  0
TABLE
  2
VPORT
  5
8
330
0
100
AcDbSymbolTable
 70
     1
  0
VPORT
  5
94
330
8
100
AcDbSymbolTableRecord
100
AcDbViewportTableRecord
  2
*Active
 70
     0
 10
0.0
 20
0.0
 11
1.0
 21
1.0
 12
30.30442462542369
 22
19.10153025499769
 13
0.0
 23
0.0
 14
0.5
 24
0.5
 15
0.5
 25
0.5
 16
0.0
 26
0.0
 36
1.0
 17
-27.66959356597983
 27
-19.53870295786203
 37
0.0
 40
44.04698178812252
 41
2.238323353293413
 42
50.0
 43
0.0
 44
0.0
 50
0.0
 51
0.0
 71
    16
 72
  1000
 73
     1
 74
     3
 75
     0
 76
     0
 77
     0
 78
     0
281
     0
 65
     1
110
0.0
120
0.0
130
0.0
111
1.0
121
0.0
131
0.0
112
0.0
122
1.0
132
0.0
 79
     0
146
0.0
348
9F
 60
     2
 61
     5
292
     1
282
     1
141
0.0
142
0.0
 63
   250
421
  3355443
1001
ACAD_NAV_VCDISPLAY
1070
     3
  0
ENDTAB
  0
TABLE
  2
LTYPE
  5
5
330
0
100
AcDbSymbolTable
 70
     2
  0
LTYPE
  5
14
330
5
100
AcDbSymbolTableRecord
100
AcDbLinetypeTableRecord
  2
ByBlock
 70
     0
  3

 72
    65
 73
     0
 40
0.0
  0
LTYPE
  5
15
330
5
100
AcDbSymbolTableRecord
100
AcDbLinetypeTableRecord
  2
ByLayer
 70
     0
  3

 72
    65
 73
     0
 40
0.0
  0
LTYPE
  5
16
330
5
100
AcDbSymbolTableRecord
100
AcDbLinetypeTableRecord
  2
Continuous
 70
     0
  3
Solid line
 72
    65
 73
     0
 40
0.0
  0
LTYPE
  5
329
330
5
100
AcDbSymbolTableRecord
100
AcDbLinetypeTableRecord
  2
PHANTOM2
 70
     0
  3
___ _ _ ___ _ _ ___ _ _ ___ _ _
 72
    65
 73
     6
 40
1.25
 49
0.625
 74
     0
 49
-0.125
 74
     0
 49
0.125
 74
     0
 49
-0.125
 74
     0
 49
0.125
 74
     0
 49
-0.125
 74
     0
  0
ENDTAB
  0
TABLE
  2
LAYER
  5
2
102
{ACAD_XDICTIONARY
360
3C6
102
}
330
0
100
AcDbSymbolTable
 70
    10
  0
LAYER
  5
10
330
2
100
AcDbSymbolTableRecord
100
AcDbLayerTableRecord
  2
0
 70
     0
 62
     7
  6
Continuous
370
    -3
390
F
347
98
348
0
  0
LAYER
  5
E4
330
2
100
AcDbSymbolTableRecord
100
AcDbLayerTableRecord
  2
Defpoints
 70
     0
 62
     7
  6
Continuous
290
     0
370
    -3
390
F
347
98
348
0
  0
LAYER
  5
E5
102
{ACAD_XDICTIONARY
360
E6
102
}
330
2
100
AcDbSymbolTableRecord
100
AcDbLayerTableRecord
  2
Dimensions
 70
     0
 62
     1
  6
Continuous
370
    -3
390
F
347
98
348
0
  0
LAYER
  5
E9
102
{ACAD_XDICTIONARY
360
EA
102
}
330
2
100
AcDbSymbolTableRecord
100
AcDbLayerTableRecord
  2
Converter
 70
     0
 62
     7
  6
Continuous
370
    -3
390
F
347
98
348
0
  0
LAYER
  5
EC
102
{ACAD_XDICTIONARY
360
ED
102
}
330
2
100
AcDbSymbolTableRecord
100
AcDbLayerTableRecord
  2
Construction
 70
     0
 62
   141
  6
Continuous
370
    -3
390
F
347
98
348
0
1001
AcAecLayerStandard
1000

1000

1001
AcCmTransparency
1071
        0
  0
LAYER
  5
F1
102
{ACAD_XDICTIONARY
360
F2
102
}
330
2
100
AcDbSymbolTableRecord
100
AcDbLayerTableRecord
  2
TopSilk
 70
     0
 62
     7
  6
Continuous
370
    -3
390
F
347
98
348
0
  0
LAYER
  5
221C
102
{ACAD_XDICTIONARY
360
221D
102
}
330
2
100
AcDbSymbolTableRecord
100
AcDbLayerTableRecord
  2
Frame
 70
     0
 62
     7
  6
Continuous
370
    -3
390
F
347
98
348
0
  0
LAYER
  5
221E
102
{ACAD_XDICTIONARY
360
221F
102
}
330
2
100
AcDbSymbolTableRecord
100
AcDbLayerTableRecord
  2
Frame Text
 70
     0
 62
     1
  6
Continuous
370
    -3
390
F
347
98
348
0
  0
LAYER
  5
2220
102
{ACAD_XDICTIONARY
360
2221
102
}
330
2
100
AcDbSymbolTableRecord
100
AcDbLayerTableRecord
  2
Grid
 70
     0
 62
     7
  6
Continuous
370
    -3
390
F
347
98
348
0
  0
LAYER
  5
2222
102
{ACAD_XDICTIONARY
360
2223
102
}
330
2
100
AcDbSymbolTableRecord
100
AcDbLayerTableRecord
  2
PinOut
 70
     0
 62
     1
  6
Continuous
370
    -3
390
F
347
98
348
0
  0
ENDTAB
  0
TABLE
  2
STYLE
  5
3
330
0
100
AcDbSymbolTable
 70
     1
  0
STYLE
  5
11
330
3
100
AcDbSymbolTableRecord
100
AcDbTextStyleTableRecord
  2
Standard
 70
     0
 40
0.0
 41
1.0
 50
0.0
 71
     0
 42
0.2
  3
arial.ttf
  4

1001
ACAD
1000
Arial
1071
        0
  0
ENDTAB
  0
TABLE
  2
VIEW
  5
6
330
0
100
AcDbSymbolTable
 70
     0
  0
ENDTAB
  0
TABLE
  2
UCS
  5
7
330
0
100
AcDbSymbolTable
 70
     0
  0
ENDTAB
  0
TABLE
  2
APPID
  5
9
330
0
100
AcDbSymbolTable
 70
    11
  0
APPID
  5
12
330
9
100
AcDbSymbolTableRecord
100
AcDbRegAppTableRecord
  2
ACAD
 70
     0
  0
APPID
  5
EF
330
9
100
AcDbSymbolTableRecord
100
AcDbRegAppTableRecord
  2
AcAecLayerStandard
 70
     0
  0
APPID
  5
F0
330
9
100
AcDbSymbolTableRecord
100
AcDbRegAppTableRecord
  2
AcCmTransparency
 70
     0
  0
APPID
  5
F6
330
9
100
AcDbSymbolTableRecord
100
AcDbRegAppTableRecord
  2
ACAD_DSTYLE_DIMJAG
 70
     0
  0
APPID
  5
F7
330
9
100
AcDbSymbolTableRecord
100
AcDbRegAppTableRecord
  2
ACAD_DSTYLE_DIMTALN
 70
     0
  0
APPID
  5
F8
330
9
100
AcDbSymbolTableRecord
100
AcDbRegAppTableRecord
  2
ACAD_NAV_VCDISPLAY
 70
     0
  0
APPID
  5
3C1
330
9
100
AcDbSymbolTableRecord
100
AcDbRegAppTableRecord
  2
ACAD_EXEMPT_FROM_CAD_STANDARDS
 70
     0
  0
APPID
  5
3E7
330
9
100
AcDbSymbolTableRecord
100
AcDbRegAppTableRecord
  2
ACAD_DSTYLE_DIMRADIAL_EXTENSION
 70
     0
  0
APPID
  5
548
330
9
100
AcDbSymbolTableRecord
100
AcDbRegAppTableRecord
  2
AcadAnnoMonitorAlertIconDisabled
 70
     0
  0
APPID
  5
553
330
9
100
AcDbSymbolTableRecord
100
AcDbRegAppTableRecord
  2
ACAD_DSTYLE_DIMBREAK
 70
     0
  0
APPID
  5
2224
330
9
100
AcDbSymbolTableRecord
100
AcDbRegAppTableRecord
  2
AcadAnnotative
 70
     0
  0
ENDTAB
  0
TABLE
  2
DIMSTYLE
  5
A
330
0
100
AcDbSymbolTable
 70
     1
100
AcDbDimStyleTable
 71
     1
340
27
  0
DIMSTYLE
105
27
102
{ACAD_REACTORS
330
2485
330
2488
330
248B
330
248E
330
2491
330
2494
330
2497
330
249A
330
249D
330
24A0
330
24A4
330
24A5
330
24A8
330
24AB
330
2501
330
2504
330
2507
330
250A
330
250D
330
2510
330
2513
330
2516
330
2519
330
251C
330
2520
330
2523
330
2526
330
2529
330
259F
330
25A2
330
25A3
330
25A4
330
25A6
330
25A9
330
25AC
330
25AF
330
25B2
330
25B5
330
25B6
330
25B7
330
25B8
330
25B9
330
25BC
330
25BF
330
25C4
330
25D8
102
}
330
A
100
AcDbSymbolTableRecord
100
AcDbDimStyleTableRecord
  2
Standard
 70
     0
 41
0.1
 43
0.15
 44
0.15
140
0.12
147
0.05
170
     1
271
     2
272
     2
340
11
1001
ACAD_DSTYLE_DIMBREAK
1070
   391
1040
0.7
1001
ACAD_DSTYLE_DIMJAG
1070
   388
1040
1.5
1001
ACAD_DSTYLE_DIMTALN
1070
   392
1070
     0
  0
ENDTAB
  0
TABLE
  2
BLOCK_RECORD
  5
1
330
0
100
AcDbSymbolTable
 70
    48
  0
BLOCK_RECORD
  5
1F
102
{ACAD_XDICTIONARY
360
504
102
}
330
1
100
AcDbSymbolTableRecord
100
AcDbBlockTableRecord
  2
*Model_Space
340
22
 70
     0
280
     1
281
     0
  0
BLOCK_RECORD
  5
58
330
1
100
AcDbSymbolTableRecord
100
AcDbBlockTableRecord
  2
*Paper_Space
340
59
 70
     0
280
     1
281
     0
  0
BLOCK_RECORD
  5
5D
330
1
100
AcDbSymbolTableRecord
100
AcDbBlockTableRecord
  2
*Paper_Space0
340
5E
 70
     0
280
     1
281
     0
  0
BLOCK_RECORD
  5
10BC
102
{ACAD_XDICTIONARY
360
10BF
102
}
330
1
100
AcDbSymbolTableRecord
100
AcDbBlockTableRecord
  2
A$C29074998
340
0
 70
     1
280
     1
281
     0
  0
BLOCK_RECORD
  5
269A
330
1
100
AcDbSymbolTableRecord
100
AcDbBlockTableRecord
  2
*D2
340
0
 70
     0
280
     1
281
     0
  0
BLOCK_RECORD
  5
26A7
330
1
100
AcDbSymbolTableRecord
100
AcDbBlockTableRecord
  2
*D3
340
0
 70
     0
280
     1
281
     0
  0
BLOCK_RECORD
  5
26B4
330
1
100
AcDbSymbolTableRecord
100
AcDbBlockTableRecord
  2
*D4
340
0
 70
     0
280
     1
281
     0
  0
BLOCK_RECORD
  5
26C1
330
1
100
AcDbSymbolTableRecord
100
AcDbBlockTableRecord
  2
*D5
340
0
 70
     0
280
     1
281
     0
  0
BLOCK_RECORD
  5
26CF
330
1
100
AcDbSymbolTableRecord
100
AcDbBlockTableRecord
  2
*D6
340
0
 70
     0
280
     1
281
     0
  0
BLOCK_RECORD
  5
26DC
330
1
100
AcDbSymbolTableRecord
100
AcDbBlockTableRecord
  2
*D7
340
0
 70
     0
280
     1
281
     0
  0
BLOCK_RECORD
  5
26E9
330
1
100
AcDbSymbolTableRecord
100
AcDbBlockTableRecord
  2
*D8
340
0
 70
     0
280
     1
281
     0
  0
BLOCK_RECORD
  5
26F7
330
1
100
AcDbSymbolTableRecord
100
AcDbBlockTableRecord
  2
*D9
340
0
 70
     0
280
     1
281
     0
  0
BLOCK_RECORD
  5
2705
330
1
100
AcDbSymbolTableRecord
100
AcDbBlockTableRecord
  2
*D10
340
0
 70
     0
280
     1
281
     0
  0
BLOCK_RECORD
  5
2712
330
1
100
AcDbSymbolTableRecord
100
AcDbBlockTableRecord
  2
*D11
340
0
 70
     0
280
     1
281
     0
  0
BLOCK_RECORD
  5
271F
330
1
100
AcDbSymbolTableRecord
100
AcDbBlockTableRecord
  2
*D12
340
0
 70
     0
280
     1
281
     0
  0
BLOCK_RECORD
  5
272C
330
1
100
AcDbSymbolTableRecord
100
AcDbBlockTableRecord
  2
*D13
340
0
 70
     0
280
     1
281
     0
  0
BLOCK_RECORD
  5
2739
330
1
100
AcDbSymbolTableRecord
100
AcDbBlockTableRecord
  2
*D14
340
0
 70
     0
280
     1
281
     0
  0
BLOCK_RECORD
  5
2746
330
1
100
AcDbSymbolTableRecord
100
AcDbBlockTableRecord
  2
*D15
340
0
 70
     0
280
     1
281
     0
  0
BLOCK_RECORD
  5
2754
330
1
100
AcDbSymbolTableRecord
100
AcDbBlockTableRecord
  2
*D16
340
0
 70
     0
280
     1
281
     0
  0
BLOCK_RECORD
  5
2762
330
1
100
AcDbSymbolTableRecord
100
AcDbBlockTableRecord
  2
*D17
340
0
 70
     0
280
     1
281
     0
  0
BLOCK_RECORD
  5
2770
330
1
100
AcDbSymbolTableRecord
100
AcDbBlockTableRecord
  2
*D18
340
0
 70
     0
280
     1
281
     0
  0
BLOCK_RECORD
  5
277E
330
1
100
AcDbSymbolTableRecord
100
AcDbBlockTableRecord
  2
*D19
340
0
 70
     0
280
     1
281
     0
  0
BLOCK_RECORD
  5
2796
330
1
100
AcDbSymbolTableRecord
100
AcDbBlockTableRecord
  2
*D20
340
0
 70
     0
280
     1
281
     0
  0
BLOCK_RECORD
  5
27A3
330
1
100
AcDbSymbolTableRecord
100
AcDbBlockTableRecord
  2
*D21
340
0
 70
     0
280
     1
281
     0
  0
BLOCK_RECORD
  5
27B1
330
1
100
AcDbSymbolTableRecord
100
AcDbBlockTableRecord
  2
*D22
340
0
 70
     0
280
     1
281
     0
  0
BLOCK_RECORD
  5
27BF
330
1
100
AcDbSymbolTableRecord
100
AcDbBlockTableRecord
  2
*D23
340
0
 70
     0
280
     1
281
     0
  0
BLOCK_RECORD
  5
27CC
330
1
100
AcDbSymbolTableRecord
100
AcDbBlockTableRecord
  2
*D24
340
0
 70
     0
280
     1
281
     0
  0
BLOCK_RECORD
  5
27D9
330
1
100
AcDbSymbolTableRecord
100
AcDbBlockTableRecord
  2
*D25
340
0
 70
     0
280
     1
281
     0
  0
BLOCK_RECORD
  5
27E6
330
1
100
AcDbSymbolTableRecord
100
AcDbBlockTableRecord
  2
*D26
340
0
 70
     0
280
     1
281
     0
  0
BLOCK_RECORD
  5
27F3
330
1
100
AcDbSymbolTableRecord
100
AcDbBlockTableRecord
  2
*D27
340
0
 70
     0
280
     1
281
     0
  0
BLOCK_RECORD
  5
2800
330
1
100
AcDbSymbolTableRecord
100
AcDbBlockTableRecord
  2
*D28
340
0
 70
     0
280
     1
281
     0
  0
BLOCK_RECORD
  5
280E
330
1
100
AcDbSymbolTableRecord
100
AcDbBlockTableRecord
  2
*D29
340
0
 70
     0
280
     1
281
     0
  0
BLOCK_RECORD
  5
281C
330
1
100
AcDbSymbolTableRecord
100
AcDbBlockTableRecord
  2
*D30
340
0
 70
     0
280
     1
281
     0
  0
BLOCK_RECORD
  5
282A
330
1
100
AcDbSymbolTableRecord
100
AcDbBlockTableRecord
  2
*D31
340
0
 70
     0
280
     1
281
     0
  0
BLOCK_RECORD
  5
2838
330
1
100
AcDbSymbolTableRecord
100
AcDbBlockTableRecord
  2
*D32
340
0
 70
     0
280
     1
281
     0
  0
BLOCK_RECORD
  5
2846
330
1
100
AcDbSymbolTableRecord
100
AcDbBlockTableRecord
  2
*D33
340
0
 70
     0
280
     1
281
     0
  0
BLOCK_RECORD
  5
2853
330
1
100
AcDbSymbolTableRecord
100
AcDbBlockTableRecord
  2
*D34
340
0
 70
     0
280
     1
281
     0
  0
BLOCK_RECORD
  5
2860
330
1
100
AcDbSymbolTableRecord
100
AcDbBlockTableRecord
  2
*D35
340
0
 70
     0
280
     1
281
     0
  0
BLOCK_RECORD
  5
286E
330
1
100
AcDbSymbolTableRecord
100
AcDbBlockTableRecord
  2
*D36
340
0
 70
     0
280
     1
281
     0
  0
BLOCK_RECORD
  5
287C
330
1
100
AcDbSymbolTableRecord
100
AcDbBlockTableRecord
  2
*D37
340
0
 70
     0
280
     1
281
     0
  0
BLOCK_RECORD
  5
28A8
330
1
100
AcDbSymbolTableRecord
100
AcDbBlockTableRecord
  2
*D38
340
0
 70
     0
280
     1
281
     0
  0
BLOCK_RECORD
  5
28B5
330
1
100
AcDbSymbolTableRecord
100
AcDbBlockTableRecord
  2
*D39
340
0
 70
     0
280
     1
281
     0
  0
BLOCK_RECORD
  5
28C2
330
1
100
AcDbSymbolTableRecord
100
AcDbBlockTableRecord
  2
*D40
340
0
 70
     0
280
     1
281
     0
  0
BLOCK_RECORD
  5
28D0
330
1
100
AcDbSymbolTableRecord
100
AcDbBlockTableRecord
  2
*D41
340
0
 70
     0
280
     1
281
     0
  0
BLOCK_RECORD
  5
28DD
330
1
100
AcDbSymbolTableRecord
100
AcDbBlockTableRecord
  2
*D42
340
0
 70
     0
280
     1
281
     0
  0
BLOCK_RECORD
  5
2914
330
1
100
AcDbSymbolTableRecord
100
AcDbBlockTableRecord
  2
*D43
340
0
 70
     0
280
     1
281
     0
  0
BLOCK_RECORD
  5
2922
330
1
100
AcDbSymbolTableRecord
100
AcDbBlockTableRecord
  2
*D44
340
0
 70
     0
280
     1
281
     0
  0
BLOCK_RECORD
  5
2931
330
1
100
AcDbSymbolTableRecord
100
AcDbBlockTableRecord
  2
*D45
340
0
 70
     0
280
     1
281
     0
  0
BLOCK_RECORD
  5
2940
330
1
100
AcDbSymbolTableRecord
100
AcDbBlockTableRecord
  2
*D46
340
0
 70
     0
280
     1
281
     0
  0
BLOCK_RECORD
  5
294E
330
1
100
AcDbSymbolTableRecord
100
AcDbBlockTableRecord
  2
*D47
340
0
 70
     0
280
     1
281
     0
  0
ENDTAB
  0
ENDSEC
  0
SECTION
  2
BLOCKS
  0
BLOCK
  5
20
330
1F
100
AcDbEntity
  8
0
100
AcDbBlockBegin
  2
*Model_Space
 70
     0
 10
0.0
 20
0.0
 30
0.0
  3
*Model_Space
  1

  0
ENDBLK
  5
21
330
1F
100
AcDbEntity
  8
0
100
AcDbBlockEnd
  0
BLOCK
  5
5A
330
58
100
AcDbEntity
 67
     1
  8
0
100
AcDbBlockBegin
  2
*Paper_Space
 70
     0
 10
0.0
 20
0.0
 30
0.0
  3
*Paper_Space
  1

  0
ENDBLK
  5
5B
330
58
100
AcDbEntity
 67
     1
  8
0
100
AcDbBlockEnd
  0
BLOCK
  5
5F
330
5D
100
AcDbEntity
 67
     1
  8
0
100
AcDbBlockBegin
  2
*Paper_Space0
 70
     0
 10
0.0
 20
0.0
 30
0.0
  3
*Paper_Space0
  1

  0
ENDBLK
  5
60
330
5D
100
AcDbEntity
 67
     1
  8
0
100
AcDbBlockEnd
  0
BLOCK
  5
10C1
330
10BC
100
AcDbEntity
  8
0
100
AcDbBlockBegin
  2
A$C29074998
 70
     0
 10
0.0
 20
0.0
 30
0.0
  3
A$C29074998
  1

  0
LINE
  5
10BD
330
10BC
100
AcDbEntity
  8
Converter
100
AcDbLine
 10
-0.0000000206564188
 20
0.0000000059450396
 30
0.0
 11
2.599159783373498
 21
0.00000000594504
 31
0.0
  0
LINE
  5
10BE
330
10BC
100
AcDbEntity
  8
Converter
100
AcDbLine
 10
1.649999979343577
 20
0.2510000059450386
 30
0.0
 11
1.689999979343583
 21
0.2510000059450386
 31
0.0
  0
ENDBLK
  5
10C2
330
10BC
100
AcDbEntity
  8
0
100
AcDbBlockEnd
  0
BLOCK
  5
269B
330
269A
100
AcDbEntity
  8
0
100
AcDbBlockBegin
  2
*D2
 70
     1
 10
0.0
 20
0.0
 30
0.0
  3
*D2
  1

  0
LINE
  5
278C
330
269A
100
AcDbEntity
  8
Dimensions
 62
     0
440
 16777216
370
    -2
100
AcDbLine
 10
16.5846798006746
 20
16.32502002312898
 30
0.0
 11
15.48453852605227
 21
16.32502002312898
 31
0.0
  0
LINE
  5
278D
330
269A
100
AcDbEntity
  8
Dimensions
 62
     0
440
 16777216
370
    -2
100
AcDbLine
 10
16.5846798006746
 20
17.42502002312898
 30
0.0
 11
15.48453852605227
 21
17.42502002312898
 31
0.0
  0
LINE
  5
278E
330
269A
100
AcDbEntity
  8
Dimensions
 62
     0
440
 16777216
370
    -2
100
AcDbLine
 10
15.63453852605227
 20
16.42502002312898
 30
0.0
 11
15.63453852605227
 21
16.74811688533907
 31
0.0
  0
LINE
  5
278F
330
269A
100
AcDbEntity
  8
Dimensions
 62
     0
440
 16777216
370
    -2
100
AcDbLine
 10
15.63453852605227
 20
17.32502002312898
 30
0.0
 11
15.63453852605227
 21
17.00192316091888
 31
0.0
  0
SOLID
  5
2790
330
269A
100
AcDbEntity
  8
Dimensions
 62
     0
440
 16777216
100
AcDbTrace
 10
15.61787185938561
 20
16.42502002312898
 30
0.0
 11
15.65120519271894
 21
16.42502002312898
 31
0.0
 12
15.63453852605227
 22
16.32502002312898
 32
0.0
 13
15.63453852605227
 23
16.32502002312898
 33
0.0
  0
SOLID
  5
2791
330
269A
100
AcDbEntity
  8
Dimensions
 62
     0
440
 16777216
100
AcDbTrace
 10
15.61787185938561
 20
17.32502002312898
 30
0.0
 11
15.65120519271894
 21
17.32502002312898
 31
0.0
 12
15.63453852605227
 22
17.42502002312898
 32
0.0
 13
15.63453852605227
 23
17.42502002312898
 33
0.0
  0
MTEXT
  5
2792
330
269A
100
AcDbEntity
  8
Dimensions
 62
     0
440
 16777216
100
AcDbMText
 10
15.63453852605227
 20
16.87502002312898
 30
0.0
 40
0.12
 41
0.0
 46
0.0
 71
     5
 72
     1
  1
\A1;1.10 [27.94]
 73
     1
 44
1.0
  0
POINT
  5
2793
330
269A
100
AcDbEntity
  8
Defpoints
 62
     0
440
 16777216
100
AcDbPoint
 10
16.6471798006746
 20
16.32502002312898
 30
0.0
  0
POINT
  5
2794
330
269A
100
AcDbEntity
  8
Defpoints
 62
     0
440
 16777216
100
AcDbPoint
 10
16.6471798006746
 20
17.42502002312898
 30
0.0
  0
POINT
  5
2795
330
269A
100
AcDbEntity
  8
Defpoints
 62
     0
440
 16777216
100
AcDbPoint
 10
15.63453852605227
 20
17.42502002312898
 30
0.0
  0
ENDBLK
  5
269C
330
269A
100
AcDbEntity
  8
0
100
AcDbBlockEnd
  0
BLOCK
  5
26A8
330
26A7
100
AcDbEntity
  8
0
100
AcDbBlockBegin
  2
*D3
 70
     1
 10
0.0
 20
0.0
 30
0.0
  3
*D3
  1

  0
LINE
  5
2889
330
26A7
100
AcDbEntity
  8
Dimensions
 62
     0
440
 16777216
370
    -2
100
AcDbLine
 10
26.78028447816098
 20
16.93752002312897
 30
0.0
 11
26.78028447816098
 21
17.89293181630888
 31
0.0
  0
LINE
  5
288A
330
26A7
100
AcDbEntity
  8
Dimensions
 62
     0
440
 16777216
370
    -2
100
AcDbLine
 10
28.48028447816098
 20
17.33752002312897
 30
0.0
 11
28.48028447816098
 21
17.89293181630888
 31
0.0
  0
LINE
  5
288B
330
26A7
100
AcDbEntity
  8
Dimensions
 62
     0
440
 16777216
370
    -2
100
AcDbLine
 10
26.88028447816098
 20
17.74293181630888
 30
0.0
 11
27.20366577217125
 21
17.74293181630888
 31
0.0
  0
LINE
  5
288C
330
26A7
100
AcDbEntity
  8
Dimensions
 62
     0
440
 16777216
370
    -2
100
AcDbLine
 10
28.38028447816098
 20
17.74293181630888
 30
0.0
 11
28.16003684993387
 21
17.74293181630888
 31
0.0
  0
SOLID
  5
288D
330
26A7
100
AcDbEntity
  8
Dimensions
 62
     0
440
 16777216
100
AcDbTrace
 10
26.88028447816098
 20
17.75959848297555
 30
0.0
 11
26.88028447816098
 21
17.72626514964222
 31
0.0
 12
26.78028447816098
 22
17.74293181630888
 32
0.0
 13
26.78028447816098
 23
17.74293181630888
 33
0.0
  0
SOLID
  5
288E
330
26A7
100
AcDbEntity
  8
Dimensions
 62
     0
440
 16777216
100
AcDbTrace
 10
28.38028447816098
 20
17.75959848297555
 30
0.0
 11
28.38028447816098
 21
17.72626514964222
 31
0.0
 12
28.48028447816098
 22
17.74293181630888
 32
0.0
 13
28.48028447816098
 23
17.74293181630888
 33
0.0
  0
MTEXT
  5
288F
330
26A7
100
AcDbEntity
  8
Dimensions
 62
     0
440
 16777216
100
AcDbMText
 10
27.68185131105255
 20
17.74293181630888
 30
0.0
 40
0.12
 41
0.0
 46
0.0
 71
     5
 72
     1
  1
\A1;1.70 [43.18]
 73
     1
 44
1.0
  0
POINT
  5
2890
330
26A7
100
AcDbEntity
  8
Defpoints
 62
     0
440
 16777216
100
AcDbPoint
 10
26.78028447816098
 20
16.87502002312897
 30
0.0
  0
POINT
  5
2891
330
26A7
100
AcDbEntity
  8
Defpoints
 62
     0
440
 16777216
100
AcDbPoint
 10
28.48028447816098
 20
17.27502002312897
 30
0.0
  0
POINT
  5
2892
330
26A7
100
AcDbEntity
  8
Defpoints
 62
     0
440
 16777216
100
AcDbPoint
 10
28.48028447816098
 20
17.74293181630888
 30
0.0
  0
ENDBLK
  5
26A9
330
26A7
100
AcDbEntity
  8
0
100
AcDbBlockEnd
  0
BLOCK
  5
26B5
330
26B4
100
AcDbEntity
  8
0
100
AcDbBlockBegin
  2
*D4
 70
     1
 10
0.0
 20
0.0
 30
0.0
  3
*D4
  1

  0
LINE
  5
2893
330
26B4
100
AcDbEntity
  8
Dimensions
 62
     0
440
 16777216
370
    -2
100
AcDbLine
 10
26.78028447816098
 20
16.93752002312897
 30
0.0
 11
26.78028447816098
 21
18.14293181630888
 31
0.0
  0
LINE
  5
2894
330
26B4
100
AcDbEntity
  8
Dimensions
 62
     0
440
 16777216
370
    -2
100
AcDbLine
 10
28.83028447816098
 20
16.93752002312897
 30
0.0
 11
28.83028447816098
 21
18.14293181630888
 31
0.0
  0
LINE
  5
2895
330
26B4
100
AcDbEntity
  8
Dimensions
 62
     0
440
 16777216
370
    -2
100
AcDbLine
 10
26.88028447816098
 20
17.99293181630888
 30
0.0
 11
27.38042772509141
 21
17.99293181630888
 31
0.0
  0
LINE
  5
2896
330
26B4
100
AcDbEntity
  8
Dimensions
 62
     0
440
 16777216
370
    -2
100
AcDbLine
 10
28.73028447816098
 20
17.99293181630888
 30
0.0
 11
28.35014123123056
 21
17.99293181630888
 31
0.0
  0
SOLID
  5
2897
330
26B4
100
AcDbEntity
  8
Dimensions
 62
     0
440
 16777216
100
AcDbTrace
 10
26.88028447816098
 20
18.00959848297555
 30
0.0
 11
26.88028447816098
 21
17.97626514964221
 31
0.0
 12
26.78028447816098
 22
17.99293181630888
 32
0.0
 13
26.78028447816098
 23
17.99293181630888
 33
0.0
  0
SOLID
  5
2898
330
26B4
100
AcDbEntity
  8
Dimensions
 62
     0
440
 16777216
100
AcDbTrace
 10
28.73028447816098
 20
18.00959848297555
 30
0.0
 11
28.73028447816098
 21
17.97626514964221
 31
0.0
 12
28.83028447816098
 22
17.99293181630888
 32
0.0
 13
28.83028447816098
 23
17.99293181630888
 33
0.0
  0
MTEXT
  5
2899
330
26B4
100
AcDbEntity
  8
Dimensions
 62
     0
440
 16777216
100
AcDbMText
 10
27.86528447816098
 20
17.99293181630888
 30
0.0
 40
0.12
 41
0.0
 46
0.0
 71
     5
 72
     1
  1
\A1;2.05 [52.07]
 73
     1
 44
1.0
  0
POINT
  5
289A
330
26B4
100
AcDbEntity
  8
Defpoints
 62
     0
440
 16777216
100
AcDbPoint
 10
26.78028447816098
 20
16.87502002312897
 30
0.0
  0
POINT
  5
289B
330
26B4
100
AcDbEntity
  8
Defpoints
 62
     0
440
 16777216
100
AcDbPoint
 10
28.83028447816098
 20
16.87502002312897
 30
0.0
  0
POINT
  5
289C
330
26B4
100
AcDbEntity
  8
Defpoints
 62
     0
440
 16777216
100
AcDbPoint
 10
28.83028447816098
 20
17.99293181630888
 30
0.0
  0
ENDBLK
  5
26B6
330
26B4
100
AcDbEntity
  8
0
100
AcDbBlockEnd
  0
BLOCK
  5
26C2
330
26C1
100
AcDbEntity
  8
0
100
AcDbBlockBegin
  2
*D5
 70
     1
 10
0.0
 20
0.0
 30
0.0
  3
*D5
  1

  0
LINE
  5
289D
330
26C1
100
AcDbEntity
  8
Dimensions
 62
     0
440
 16777216
370
    -2
100
AcDbLine
 10
29.19236438017594
 20
16.87502002312897
 30
0.0
 11
30.39517853440178
 21
16.87502002312897
 31
0.0
  0
LINE
  5
289E
330
26C1
100
AcDbEntity
  8
Dimensions
 62
     0
440
 16777216
370
    -2
100
AcDbLine
 10
28.54278447816098
 20
17.27502002312897
 30
0.0
 11
30.39517853440178
 21
17.27502002312897
 31
0.0
  0
LINE
  5
289F
330
26C1
100
AcDbEntity
  8
Dimensions
 62
     0
440
 16777216
370
    -2
100
AcDbLine
 10
30.24517853440178
 20
16.97502002312897
 30
0.0
 11
30.24517853440178
 21
17.17502002312897
 31
0.0
  0
LINE
  5
28A0
330
26C1
100
AcDbEntity
  8
Dimensions
 62
     0
440
 16777216
370
    -2
100
AcDbLine
 10
30.14517853440178
 20
17.57106696900979
 30
0.0
 11
30.24517853440178
 21
17.57106696900979
 31
0.0
  0
LINE
  5
28A1
330
26C1
100
AcDbEntity
  8
Dimensions
 62
     0
440
 16777216
370
    -2
100
AcDbLine
 10
30.24517853440178
 20
17.57106696900979
 30
0.0
 11
30.24517853440178
 21
17.27502002312897
 31
0.0
  0
MTEXT
  5
28A2
330
26C1
100
AcDbEntity
  8
Dimensions
 62
     0
440
 16777216
100
AcDbMText
 10
29.66134497369237
 20
17.57106696900979
 30
0.0
 40
0.12
 41
0.0
 46
0.0
 71
     5
 72
     1
  1
\A1;0.40 [10.16]
 73
     1
 44
1.0
  0
SOLID
  5
28A3
330
26C1
100
AcDbEntity
  8
Dimensions
 62
     0
440
 16777216
100
AcDbTrace
 10
30.22851186773511
 20
16.97502002312897
 30
0.0
 11
30.26184520106845
 21
16.97502002312897
 31
0.0
 12
30.24517853440178
 22
16.87502002312897
 32
0.0
 13
30.24517853440178
 23
16.87502002312897
 33
0.0
  0
SOLID
  5
28A4
330
26C1
100
AcDbEntity
  8
Dimensions
 62
     0
440
 16777216
100
AcDbTrace
 10
30.22851186773511
 20
17.17502002312897
 30
0.0
 11
30.26184520106845
 21
17.17502002312897
 31
0.0
 12
30.24517853440178
 22
17.27502002312897
 32
0.0
 13
30.24517853440178
 23
17.27502002312897
 33
0.0
  0
POINT
  5
28A5
330
26C1
100
AcDbEntity
  8
Defpoints
 62
     0
440
 16777216
100
AcDbPoint
 10
29.12986438017594
 20
16.87502002312897
 30
0.0
  0
POINT
  5
28A6
330
26C1
100
AcDbEntity
  8
Defpoints
 62
     0
440
 16777216
100
AcDbPoint
 10
28.48028447816098
 20
17.27502002312897
 30
0.0
  0
POINT
  5
28A7
330
26C1
100
AcDbEntity
  8
Defpoints
 62
     0
440
 16777216
100
AcDbPoint
 10
30.24517853440178
 20
17.27502002312897
 30
0.0
  0
ENDBLK
  5
26C3
330
26C1
100
AcDbEntity
  8
0
100
AcDbBlockEnd
  0
BLOCK
  5
26D0
330
26CF
100
AcDbEntity
  8
0
100
AcDbBlockBegin
  2
*D6
 70
     1
 10
0.0
 20
0.0
 30
0.0
  3
*D6
  1

  0
LINE
  5
28EA
330
26CF
100
AcDbEntity
  8
Dimensions
 62
     0
440
 16777216
370
    -2
100
AcDbLine
 10
26.78028447816098
 20
16.81252002312897
 30
0.0
 11
26.78028447816098
 21
15.48348120423323
 31
0.0
  0
LINE
  5
28EB
330
26CF
100
AcDbEntity
  8
Dimensions
 62
     0
440
 16777216
370
    -2
100
AcDbLine
 10
28.33028447816099
 20
16.46252002312897
 30
0.0
 11
28.33028447816099
 21
15.48348120423323
 31
0.0
  0
LINE
  5
28EC
330
26CF
100
AcDbEntity
  8
Dimensions
 62
     0
440
 16777216
370
    -2
100
AcDbLine
 10
28.23028447816098
 20
15.63348120423323
 30
0.0
 11
26.88028447816098
 21
15.63348120423323
 31
0.0
  0
LINE
  5
28ED
330
26CF
100
AcDbEntity
  8
Dimensions
 62
     0
440
 16777216
370
    -2
100
AcDbLine
 10
26.78028447816098
 20
15.63348120423323
 30
0.0
 11
26.58705119030287
 21
15.63348120423323
 31
0.0
  0
SOLID
  5
28EE
330
26CF
100
AcDbEntity
  8
Dimensions
 62
     0
440
 16777216
100
AcDbTrace
 10
28.23028447816098
 20
15.6501478708999
 30
0.0
 11
28.23028447816098
 21
15.61681453756657
 31
0.0
 12
28.33028447816099
 22
15.63348120423323
 32
0.0
 13
28.33028447816099
 23
15.63348120423323
 33
0.0
  0
SOLID
  5
28EF
330
26CF
100
AcDbEntity
  8
Dimensions
 62
     0
440
 16777216
100
AcDbTrace
 10
26.88028447816098
 20
15.6501478708999
 30
0.0
 11
26.88028447816098
 21
15.61681453756657
 31
0.0
 12
26.78028447816098
 22
15.63348120423323
 32
0.0
 13
26.78028447816098
 23
15.63348120423323
 33
0.0
  0
MTEXT
  5
28F0
330
26CF
100
AcDbEntity
  8
Dimensions
 62
     0
440
 16777216
100
AcDbMText
 10
26.10886565142156
 20
15.63348120423323
 30
0.0
 40
0.12
 41
0.0
 46
0.0
 71
     5
 72
     1
  1
\A1;1.55 [39.37]
 73
     1
 44
1.0
  0
POINT
  5
28F1
330
26CF
100
AcDbEntity
  8
Defpoints
 62
     0
440
 16777216
100
AcDbPoint
 10
26.78028447816098
 20
16.87502002312897
 30
0.0
  0
POINT
  5
28F2
330
26CF
100
AcDbEntity
  8
Defpoints
 62
     0
440
 16777216
100
AcDbPoint
 10
28.33028447816099
 20
16.52502002312897
 30
0.0
  0
POINT
  5
28F3
330
26CF
100
AcDbEntity
  8
Defpoints
 62
     0
440
 16777216
100
AcDbPoint
 10
28.33028447816099
 20
15.63348120423323
 30
0.0
  0
ENDBLK
  5
26D1
330
26CF
100
AcDbEntity
  8
0
100
AcDbBlockEnd
  0
BLOCK
  5
26DD
330
26DC
100
AcDbEntity
  8
0
100
AcDbBlockBegin
  2
*D7
 70
     1
 10
0.0
 20
0.0
 30
0.0
  3
*D7
  1

  0
LINE
  5
28F4
330
26DC
100
AcDbEntity
  8
Dimensions
 62
     0
440
 16777216
370
    -2
100
AcDbLine
 10
26.78028447816098
 20
16.81252002312897
 30
0.0
 11
26.78028447816098
 21
15.23348120423323
 31
0.0
  0
LINE
  5
28F5
330
26DC
100
AcDbEntity
  8
Dimensions
 62
     0
440
 16777216
370
    -2
100
AcDbLine
 10
28.48028447816098
 20
16.71252002312897
 30
0.0
 11
28.48028447816098
 21
15.23348120423323
 31
0.0
  0
LINE
  5
28F6
330
26DC
100
AcDbEntity
  8
Dimensions
 62
     0
440
 16777216
370
    -2
100
AcDbLine
 10
28.38028447816098
 20
15.38348120423323
 30
0.0
 11
26.88028447816098
 21
15.38348120423323
 31
0.0
  0
LINE
  5
28F7
330
26DC
100
AcDbEntity
  8
Dimensions
 62
     0
440
 16777216
370
    -2
100
AcDbLine
 10
26.78028447816098
 20
15.38348120423323
 30
0.0
 11
26.58705119030287
 21
15.38348120423323
 31
0.0
  0
SOLID
  5
28F8
330
26DC
100
AcDbEntity
  8
Dimensions
 62
     0
440
 16777216
100
AcDbTrace
 10
28.38028447816098
 20
15.4001478708999
 30
0.0
 11
28.38028447816098
 21
15.36681453756657
 31
0.0
 12
28.48028447816098
 22
15.38348120423323
 32
0.0
 13
28.48028447816098
 23
15.38348120423323
 33
0.0
  0
SOLID
  5
28F9
330
26DC
100
AcDbEntity
  8
Dimensions
 62
     0
440
 16777216
100
AcDbTrace
 10
26.88028447816098
 20
15.4001478708999
 30
0.0
 11
26.88028447816098
 21
15.36681453756657
 31
0.0
 12
26.78028447816098
 22
15.38348120423323
 32
0.0
 13
26.78028447816098
 23
15.38348120423323
 33
0.0
  0
MTEXT
  5
28FA
330
26DC
100
AcDbEntity
  8
Dimensions
 62
     0
440
 16777216
100
AcDbMText
 10
26.10886565142156
 20
15.38348120423323
 30
0.0
 40
0.12
 41
0.0
 46
0.0
 71
     5
 72
     1
  1
\A1;1.70 [43.18]
 73
     1
 44
1.0
  0
POINT
  5
28FB
330
26DC
100
AcDbEntity
  8
Defpoints
 62
     0
440
 16777216
100
AcDbPoint
 10
26.78028447816098
 20
16.87502002312897
 30
0.0
  0
POINT
  5
28FC
330
26DC
100
AcDbEntity
  8
Defpoints
 62
     0
440
 16777216
100
AcDbPoint
 10
28.48028447816098
 20
16.77502002312897
 30
0.0
  0
POINT
  5
28FD
330
26DC
100
AcDbEntity
  8
Defpoints
 62
     0
440
 16777216
100
AcDbPoint
 10
28.48028447816098
 20
15.38348120423323
 30
0.0
  0
ENDBLK
  5
26DE
330
26DC
100
AcDbEntity
  8
0
100
AcDbBlockEnd
  0
BLOCK
  5
26EA
330
26E9
100
AcDbEntity
  8
0
100
AcDbBlockBegin
  2
*D8
 70
     1
 10
0.0
 20
0.0
 30
0.0
  3
*D8
  1

  0
LINE
  5
28FE
330
26E9
100
AcDbEntity
  8
Dimensions
 62
     0
440
 16777216
370
    -2
100
AcDbLine
 10
29.19236438017594
 20
16.87502002312897
 30
0.0
 11
29.84583474998893
 21
16.87502002312897
 31
0.0
  0
LINE
  5
28FF
330
26E9
100
AcDbEntity
  8
Dimensions
 62
     0
440
 16777216
370
    -2
100
AcDbLine
 10
28.39278447816099
 20
16.52502002312897
 30
0.0
 11
29.84583474998893
 21
16.52502002312897
 31
0.0
  0
LINE
  5
2900
330
26E9
100
AcDbEntity
  8
Dimensions
 62
     0
440
 16777216
370
    -2
100
AcDbLine
 10
29.69583474998893
 20
16.77502002312897
 30
0.0
 11
29.69583474998893
 21
16.62502002312897
 31
0.0
  0
LINE
  5
2901
330
26E9
100
AcDbEntity
  8
Dimensions
 62
     0
440
 16777216
370
    -2
100
AcDbLine
 10
29.69583474998893
 20
16.52502002312897
 30
0.0
 11
29.69583474998893
 21
15.89606310300405
 31
0.0
  0
LINE
  5
2902
330
26E9
100
AcDbEntity
  8
Dimensions
 62
     0
440
 16777216
370
    -2
100
AcDbLine
 10
29.69583474998893
 20
15.89606310300405
 30
0.0
 11
29.59583474998893
 21
15.89606310300405
 31
0.0
  0
SOLID
  5
2903
330
26E9
100
AcDbEntity
  8
Dimensions
 62
     0
440
 16777216
100
AcDbTrace
 10
29.67916808332227
 20
16.77502002312897
 30
0.0
 11
29.7125014166556
 21
16.77502002312897
 31
0.0
 12
29.69583474998893
 22
16.87502002312897
 32
0.0
 13
29.69583474998893
 23
16.87502002312897
 33
0.0
  0
SOLID
  5
2904
330
26E9
100
AcDbEntity
  8
Dimensions
 62
     0
440
 16777216
100
AcDbTrace
 10
29.67916808332227
 20
16.62502002312897
 30
0.0
 11
29.7125014166556
 21
16.62502002312897
 31
0.0
 12
29.69583474998893
 22
16.52502002312897
 32
0.0
 13
29.69583474998893
 23
16.52502002312897
 33
0.0
  0
MTEXT
  5
2905
330
26E9
100
AcDbEntity
  8
Dimensions
 62
     0
440
 16777216
100
AcDbMText
 10
29.15861783320858
 20
15.89606310300406
 30
0.0
 40
0.12
 41
0.0
 46
0.0
 71
     5
 72
     1
  1
\A1;0.35 [8.89]
 73
     1
 44
1.0
  0
POINT
  5
2906
330
26E9
100
AcDbEntity
  8
Defpoints
 62
     0
440
 16777216
100
AcDbPoint
 10
29.12986438017594
 20
16.87502002312897
 30
0.0
  0
POINT
  5
2907
330
26E9
100
AcDbEntity
  8
Defpoints
 62
     0
440
 16777216
100
AcDbPoint
 10
28.33028447816099
 20
16.52502002312897
 30
0.0
  0
POINT
  5
2908
330
26E9
100
AcDbEntity
  8
Defpoints
 62
     0
440
 16777216
100
AcDbPoint
 10
29.69583474998893
 20
16.52502002312897
 30
0.0
  0
ENDBLK
  5
26EB
330
26E9
100
AcDbEntity
  8
0
100
AcDbBlockEnd
  0
BLOCK
  5
26F8
330
26F7
100
AcDbEntity
  8
0
100
AcDbBlockBegin
  2
*D9
 70
     1
 10
0.0
 20
0.0
 30
0.0
  3
*D9
  1

  0
LINE
  5
2909
330
26F7
100
AcDbEntity
  8
Dimensions
 62
     0
440
 16777216
370
    -2
100
AcDbLine
 10
28.54278447816098
 20
16.77502002312897
 30
0.0
 11
29.61667053829502
 21
16.77502002312897
 31
0.0
  0
LINE
  5
290A
330
26F7
100
AcDbEntity
  8
Dimensions
 62
     0
440
 16777216
370
    -2
100
AcDbLine
 10
29.19236438017594
 20
16.87502002312897
 30
0.0
 11
29.61667053829502
 21
16.87502002312897
 31
0.0
  0
LINE
  5
290B
330
26F7
100
AcDbEntity
  8
Dimensions
 62
     0
440
 16777216
370
    -2
100
AcDbLine
 10
29.46667053829502
 20
16.97502002312897
 30
0.0
 11
29.46667053829502
 21
17.07502002312897
 31
0.0
  0
LINE
  5
290C
330
26F7
100
AcDbEntity
  8
Dimensions
 62
     0
440
 16777216
370
    -2
100
AcDbLine
 10
29.46667053829502
 20
16.67502002312897
 30
0.0
 11
29.46667053829502
 21
16.10226215689665
 31
0.0
  0
LINE
  5
290D
330
26F7
100
AcDbEntity
  8
Dimensions
 62
     0
440
 16777216
370
    -2
100
AcDbLine
 10
29.46667053829502
 20
16.10226215689665
 30
0.0
 11
29.36667053829502
 21
16.10226215689665
 31
0.0
  0
SOLID
  5
290E
330
26F7
100
AcDbEntity
  8
Dimensions
 62
     0
440
 16777216
100
AcDbTrace
 10
29.45000387162835
 20
16.97502002312897
 30
0.0
 11
29.48333720496169
 21
16.97502002312897
 31
0.0
 12
29.46667053829502
 22
16.87502002312897
 32
0.0
 13
29.46667053829502
 23
16.87502002312897
 33
0.0
  0
SOLID
  5
290F
330
26F7
100
AcDbEntity
  8
Dimensions
 62
     0
440
 16777216
100
AcDbTrace
 10
29.45000387162835
 20
16.67502002312897
 30
0.0
 11
29.48333720496169
 21
16.67502002312897
 31
0.0
 12
29.46667053829502
 22
16.77502002312897
 32
0.0
 13
29.46667053829502
 23
16.77502002312897
 33
0.0
  0
MTEXT
  5
2910
330
26F7
100
AcDbEntity
  8
Dimensions
 62
     0
440
 16777216
100
AcDbMText
 10
28.92945362151466
 20
16.10226215689666
 30
0.0
 40
0.12
 41
0.0
 46
0.0
 71
     5
 72
     1
  1
\A1;0.10 [2.54]
 73
     1
 44
1.0
  0
POINT
  5
2911
330
26F7
100
AcDbEntity
  8
Defpoints
 62
     0
440
 16777216
100
AcDbPoint
 10
28.48028447816098
 20
16.77502002312897
 30
0.0
  0
POINT
  5
2912
330
26F7
100
AcDbEntity
  8
Defpoints
 62
     0
440
 16777216
100
AcDbPoint
 10
29.12986438017594
 20
16.87502002312897
 30
0.0
  0
POINT
  5
2913
330
26F7
100
AcDbEntity
  8
Defpoints
 62
     0
440
 16777216
100
AcDbPoint
 10
29.46667053829502
 20
16.87502002312897
 30
0.0
  0
ENDBLK
  5
26F9
330
26F7
100
AcDbEntity
  8
0
100
AcDbBlockEnd
  0
BLOCK
  5
2706
330
2705
100
AcDbEntity
  8
0
100
AcDbBlockBegin
  2
*D10
 70
     1
 10
0.0
 20
0.0
 30
0.0
  3
*D10
  1

  0
LINE
  5
2708
330
2705
100
AcDbEntity
  8
Dimensions
 62
     0
440
 16777216
370
    -2
100
AcDbLine
 10
16.6471798006746
 20
16.26252002312898
 30
0.0
 11
16.6471798006746
 21
16.00976628794985
 31
0.0
  0
LINE
  5
2709
330
2705
100
AcDbEntity
  8
Dimensions
 62
     0
440
 16777216
370
    -2
100
AcDbLine
 10
16.9471798006746
 20
16.46252002312897
 30
0.0
 11
16.9471798006746
 21
16.00976628794985
 31
0.0
  0
LINE
  5
270A
330
2705
100
AcDbEntity
  8
Dimensions
 62
     0
440
 16777216
370
    -2
100
AcDbLine
 10
16.8471798006746
 20
16.15976628794985
 30
0.0
 11
16.7471798006746
 21
16.15976628794985
 31
0.0
  0
LINE
  5
270B
330
2705
100
AcDbEntity
  8
Dimensions
 62
     0
440
 16777216
370
    -2
100
AcDbLine
 10
16.6471798006746
 20
16.15976628794985
 30
0.0
 11
16.34104576247542
 21
16.15976628794985
 31
0.0
  0
SOLID
  5
270C
330
2705
100
AcDbEntity
  8
Dimensions
 62
     0
440
 16777216
100
AcDbTrace
 10
16.8471798006746
 20
16.17643295461651
 30
0.0
 11
16.8471798006746
 21
16.14309962128318
 31
0.0
 12
16.9471798006746
 22
16.15976628794985
 32
0.0
 13
16.9471798006746
 23
16.15976628794985
 33
0.0
  0
SOLID
  5
270D
330
2705
100
AcDbEntity
  8
Dimensions
 62
     0
440
 16777216
100
AcDbTrace
 10
16.7471798006746
 20
16.17643295461651
 30
0.0
 11
16.7471798006746
 21
16.14309962128318
 31
0.0
 12
16.6471798006746
 22
16.15976628794985
 32
0.0
 13
16.6471798006746
 23
16.15976628794985
 33
0.0
  0
MTEXT
  5
270E
330
2705
100
AcDbEntity
  8
Dimensions
 62
     0
440
 16777216
100
AcDbMText
 10
15.90382884569506
 20
16.15976628794985
 30
0.0
 40
0.12
 41
0.0
 46
0.0
 71
     5
 72
     1
  1
\A1;0.30 [7.62]
 73
     1
 44
1.0
  0
POINT
  5
270F
330
2705
100
AcDbEntity
  8
Defpoints
 62
     0
440
 16777216
100
AcDbPoint
 10
16.6471798006746
 20
16.32502002312898
 30
0.0
  0
POINT
  5
2710
330
2705
100
AcDbEntity
  8
Defpoints
 62
     0
440
 16777216
100
AcDbPoint
 10
16.9471798006746
 20
16.52502002312897
 30
0.0
  0
POINT
  5
2711
330
2705
100
AcDbEntity
  8
Defpoints
 62
     0
440
 16777216
100
AcDbPoint
 10
16.9471798006746
 20
16.15976628794985
 30
0.0
  0
ENDBLK
  5
2707
330
2705
100
AcDbEntity
  8
0
100
AcDbBlockEnd
  0
BLOCK
  5
2713
330
2712
100
AcDbEntity
  8
0
100
AcDbBlockBegin
  2
*D11
 70
     1
 10
0.0
 20
0.0
 30
0.0
  3
*D11
  1

  0
LINE
  5
2715
330
2712
100
AcDbEntity
  8
Dimensions
 62
     0
440
 16777216
370
    -2
100
AcDbLine
 10
16.6471798006746
 20
16.26252002312898
 30
0.0
 11
16.6471798006746
 21
15.50976628794985
 31
0.0
  0
LINE
  5
2716
330
2712
100
AcDbEntity
  8
Dimensions
 62
     0
440
 16777216
370
    -2
100
AcDbLine
 10
17.7971798006746
 20
16.46252002312897
 30
0.0
 11
17.7971798006746
 21
15.50976628794985
 31
0.0
  0
LINE
  5
2717
330
2712
100
AcDbEntity
  8
Dimensions
 62
     0
440
 16777216
370
    -2
100
AcDbLine
 10
17.6971798006746
 20
15.65976628794985
 30
0.0
 11
16.7471798006746
 21
15.65976628794985
 31
0.0
  0
LINE
  5
2718
330
2712
100
AcDbEntity
  8
Dimensions
 62
     0
440
 16777216
370
    -2
100
AcDbLine
 10
16.6471798006746
 20
15.65976628794985
 30
0.0
 11
16.46433873655455
 21
15.65976628794985
 31
0.0
  0
SOLID
  5
2719
330
2712
100
AcDbEntity
  8
Dimensions
 62
     0
440
 16777216
100
AcDbTrace
 10
17.6971798006746
 20
15.67643295461652
 30
0.0
 11
17.6971798006746
 21
15.64309962128318
 31
0.0
 12
17.7971798006746
 22
15.65976628794985
 32
0.0
 13
17.7971798006746
 23
15.65976628794985
 33
0.0
  0
SOLID
  5
271A
330
2712
100
AcDbEntity
  8
Dimensions
 62
     0
440
 16777216
100
AcDbTrace
 10
16.7471798006746
 20
15.67643295461652
 30
0.0
 11
16.7471798006746
 21
15.64309962128318
 31
0.0
 12
16.6471798006746
 22
15.65976628794985
 32
0.0
 13
16.6471798006746
 23
15.65976628794985
 33
0.0
  0
MTEXT
  5
271B
330
2712
100
AcDbEntity
  8
Dimensions
 62
     0
440
 16777216
100
AcDbMText
 10
15.98615319767324
 20
15.65976628794985
 30
0.0
 40
0.12
 41
0.0
 46
0.0
 71
     5
 72
     1
  1
\A1;1.15 [29.21]
 73
     1
 44
1.0
  0
POINT
  5
271C
330
2712
100
AcDbEntity
  8
Defpoints
 62
     0
440
 16777216
100
AcDbPoint
 10
16.6471798006746
 20
16.32502002312898
 30
0.0
  0
POINT
  5
271D
330
2712
100
AcDbEntity
  8
Defpoints
 62
     0
440
 16777216
100
AcDbPoint
 10
17.7971798006746
 20
16.52502002312897
 30
0.0
  0
POINT
  5
271E
330
2712
100
AcDbEntity
  8
Defpoints
 62
     0
440
 16777216
100
AcDbPoint
 10
17.7971798006746
 20
15.65976628794985
 30
0.0
  0
ENDBLK
  5
2714
330
2712
100
AcDbEntity
  8
0
100
AcDbBlockEnd
  0
BLOCK
  5
2720
330
271F
100
AcDbEntity
  8
0
100
AcDbBlockBegin
  2
*D12
 70
     1
 10
0.0
 20
0.0
 30
0.0
  3
*D12
  1

  0
LINE
  5
2722
330
271F
100
AcDbEntity
  8
Dimensions
 62
     0
440
 16777216
370
    -2
100
AcDbLine
 10
16.6471798006746
 20
16.26252002312898
 30
0.0
 11
16.6471798006746
 21
15.75976628794985
 31
0.0
  0
LINE
  5
2723
330
271F
100
AcDbEntity
  8
Dimensions
 62
     0
440
 16777216
370
    -2
100
AcDbLine
 10
17.6271798006746
 20
16.61252002312898
 30
0.0
 11
17.6271798006746
 21
15.75976628794985
 31
0.0
  0
LINE
  5
2724
330
271F
100
AcDbEntity
  8
Dimensions
 62
     0
440
 16777216
370
    -2
100
AcDbLine
 10
17.5271798006746
 20
15.90976628794985
 30
0.0
 11
16.7471798006746
 21
15.90976628794985
 31
0.0
  0
LINE
  5
2725
330
271F
100
AcDbEntity
  8
Dimensions
 62
     0
440
 16777216
370
    -2
100
AcDbLine
 10
16.6471798006746
 20
15.90976628794985
 30
0.0
 11
16.46410340231171
 21
15.90976628794985
 31
0.0
  0
SOLID
  5
2726
330
271F
100
AcDbEntity
  8
Dimensions
 62
     0
440
 16777216
100
AcDbTrace
 10
17.5271798006746
 20
15.92643295461652
 30
0.0
 11
17.5271798006746
 21
15.89309962128318
 31
0.0
 12
17.6271798006746
 22
15.90976628794985
 32
0.0
 13
17.6271798006746
 23
15.90976628794985
 33
0.0
  0
SOLID
  5
2727
330
271F
100
AcDbEntity
  8
Dimensions
 62
     0
440
 16777216
100
AcDbTrace
 10
16.7471798006746
 20
15.92643295461652
 30
0.0
 11
16.7471798006746
 21
15.89309962128318
 31
0.0
 12
16.6471798006746
 22
15.90976628794985
 32
0.0
 13
16.6471798006746
 23
15.90976628794985
 33
0.0
  0
MTEXT
  5
2728
330
271F
100
AcDbEntity
  8
Dimensions
 62
     0
440
 16777216
100
AcDbMText
 10
15.98026984160229
 20
15.90976628794985
 30
0.0
 40
0.12
 41
0.0
 46
0.0
 71
     5
 72
     1
  1
\A1;0.98 [24.89]
 73
     1
 44
1.0
  0
POINT
  5
2729
330
271F
100
AcDbEntity
  8
Defpoints
 62
     0
440
 16777216
100
AcDbPoint
 10
16.6471798006746
 20
16.32502002312898
 30
0.0
  0
POINT
  5
272A
330
271F
100
AcDbEntity
  8
Defpoints
 62
     0
440
 16777216
100
AcDbPoint
 10
17.6271798006746
 20
16.67502002312898
 30
0.0
  0
POINT
  5
272B
330
271F
100
AcDbEntity
  8
Defpoints
 62
     0
440
 16777216
100
AcDbPoint
 10
17.6271798006746
 20
15.90976628794985
 30
0.0
  0
ENDBLK
  5
2721
330
271F
100
AcDbEntity
  8
0
100
AcDbBlockEnd
  0
BLOCK
  5
272D
330
272C
100
AcDbEntity
  8
0
100
AcDbBlockBegin
  2
*D13
 70
     1
 10
0.0
 20
0.0
 30
0.0
  3
*D13
  1

  0
LINE
  5
272F
330
272C
100
AcDbEntity
  8
Dimensions
 62
     0
440
 16777216
370
    -2
100
AcDbLine
 10
16.6471798006746
 20
16.26252002312898
 30
0.0
 11
16.6471798006746
 21
15.25976628794985
 31
0.0
  0
LINE
  5
2730
330
272C
100
AcDbEntity
  8
Dimensions
 62
     0
440
 16777216
370
    -2
100
AcDbLine
 10
17.9471798006746
 20
16.71252002312897
 30
0.0
 11
17.9471798006746
 21
15.25976628794985
 31
0.0
  0
LINE
  5
2731
330
272C
100
AcDbEntity
  8
Dimensions
 62
     0
440
 16777216
370
    -2
100
AcDbLine
 10
17.8471798006746
 20
15.40976628794985
 30
0.0
 11
16.7471798006746
 21
15.40976628794985
 31
0.0
  0
LINE
  5
2732
330
272C
100
AcDbEntity
  8
Dimensions
 62
     0
440
 16777216
370
    -2
100
AcDbLine
 10
16.6471798006746
 20
15.40976628794985
 30
0.0
 11
16.46433873655455
 21
15.40976628794985
 31
0.0
  0
SOLID
  5
2733
330
272C
100
AcDbEntity
  8
Dimensions
 62
     0
440
 16777216
100
AcDbTrace
 10
17.8471798006746
 20
15.42643295461652
 30
0.0
 11
17.8471798006746
 21
15.39309962128318
 31
0.0
 12
17.9471798006746
 22
15.40976628794985
 32
0.0
 13
17.9471798006746
 23
15.40976628794985
 33
0.0
  0
SOLID
  5
2734
330
272C
100
AcDbEntity
  8
Dimensions
 62
     0
440
 16777216
100
AcDbTrace
 10
16.7471798006746
 20
15.42643295461652
 30
0.0
 11
16.7471798006746
 21
15.39309962128318
 31
0.0
 12
16.6471798006746
 22
15.40976628794985
 32
0.0
 13
16.6471798006746
 23
15.40976628794985
 33
0.0
  0
MTEXT
  5
2735
330
272C
100
AcDbEntity
  8
Dimensions
 62
     0
440
 16777216
100
AcDbMText
 10
15.98615319767324
 20
15.40976628794985
 30
0.0
 40
0.12
 41
0.0
 46
0.0
 71
     5
 72
     1
  1
\A1;1.30 [33.02]
 73
     1
 44
1.0
  0
POINT
  5
2736
330
272C
100
AcDbEntity
  8
Defpoints
 62
     0
440
 16777216
100
AcDbPoint
 10
16.6471798006746
 20
16.32502002312898
 30
0.0
  0
POINT
  5
2737
330
272C
100
AcDbEntity
  8
Defpoints
 62
     0
440
 16777216
100
AcDbPoint
 10
17.9471798006746
 20
16.77502002312897
 30
0.0
  0
POINT
  5
2738
330
272C
100
AcDbEntity
  8
Defpoints
 62
     0
440
 16777216
100
AcDbPoint
 10
17.9471798006746
 20
15.40976628794985
 30
0.0
  0
ENDBLK
  5
272E
330
272C
100
AcDbEntity
  8
0
100
AcDbBlockEnd
  0
BLOCK
  5
273A
330
2739
100
AcDbEntity
  8
0
100
AcDbBlockBegin
  2
*D14
 70
     1
 10
0.0
 20
0.0
 30
0.0
  3
*D14
  1

  0
LINE
  5
273C
330
2739
100
AcDbEntity
  8
Dimensions
 62
     0
440
 16777216
370
    -2
100
AcDbLine
 10
16.6471798006746
 20
16.26252002312898
 30
0.0
 11
16.6471798006746
 21
15.00976628794985
 31
0.0
  0
LINE
  5
273D
330
2739
100
AcDbEntity
  8
Dimensions
 62
     0
440
 16777216
370
    -2
100
AcDbLine
 10
18.2971798006746
 20
16.81252002312898
 30
0.0
 11
18.2971798006746
 21
15.00976628794985
 31
0.0
  0
LINE
  5
273E
330
2739
100
AcDbEntity
  8
Dimensions
 62
     0
440
 16777216
370
    -2
100
AcDbLine
 10
18.1971798006746
 20
15.15976628794985
 30
0.0
 11
16.7471798006746
 21
15.15976628794985
 31
0.0
  0
LINE
  5
273F
330
2739
100
AcDbEntity
  8
Dimensions
 62
     0
440
 16777216
370
    -2
100
AcDbLine
 10
16.6471798006746
 20
15.15976628794985
 30
0.0
 11
16.46433873655455
 21
15.15976628794985
 31
0.0
  0
SOLID
  5
2740
330
2739
100
AcDbEntity
  8
Dimensions
 62
     0
440
 16777216
100
AcDbTrace
 10
18.1971798006746
 20
15.17643295461652
 30
0.0
 11
18.1971798006746
 21
15.14309962128318
 31
0.0
 12
18.2971798006746
 22
15.15976628794985
 32
0.0
 13
18.2971798006746
 23
15.15976628794985
 33
0.0
  0
SOLID
  5
2741
330
2739
100
AcDbEntity
  8
Dimensions
 62
     0
440
 16777216
100
AcDbTrace
 10
16.7471798006746
 20
15.17643295461652
 30
0.0
 11
16.7471798006746
 21
15.14309962128318
 31
0.0
 12
16.6471798006746
 22
15.15976628794985
 32
0.0
 13
16.6471798006746
 23
15.15976628794985
 33
0.0
  0
MTEXT
  5
2742
330
2739
100
AcDbEntity
  8
Dimensions
 62
     0
440
 16777216
100
AcDbMText
 10
15.98615319767324
 20
15.15976628794985
 30
0.0
 40
0.12
 41
0.0
 46
0.0
 71
     5
 72
     1
  1
\A1;1.65 [41.91]
 73
     1
 44
1.0
  0
POINT
  5
2743
330
2739
100
AcDbEntity
  8
Defpoints
 62
     0
440
 16777216
100
AcDbPoint
 10
16.6471798006746
 20
16.32502002312898
 30
0.0
  0
POINT
  5
2744
330
2739
100
AcDbEntity
  8
Defpoints
 62
     0
440
 16777216
100
AcDbPoint
 10
18.2971798006746
 20
16.87502002312898
 30
0.0
  0
POINT
  5
2745
330
2739
100
AcDbEntity
  8
Defpoints
 62
     0
440
 16777216
100
AcDbPoint
 10
18.2971798006746
 20
15.15976628794985
 30
0.0
  0
ENDBLK
  5
273B
330
2739
100
AcDbEntity
  8
0
100
AcDbBlockEnd
  0
BLOCK
  5
2747
330
2746
100
AcDbEntity
  8
0
100
AcDbBlockBegin
  2
*D15
 70
     1
 10
0.0
 20
0.0
 30
0.0
  3
*D15
  1

  0
LINE
  5
2749
330
2746
100
AcDbEntity
  8
Dimensions
 62
     0
440
 16777216
370
    -2
100
AcDbLine
 10
18.45967980067461
 20
17.42502002312898
 30
0.0
 11
18.73366045567926
 21
17.42502002312898
 31
0.0
  0
LINE
  5
274A
330
2746
100
AcDbEntity
  8
Dimensions
 62
     0
440
 16777216
370
    -2
100
AcDbLine
 10
18.0096798006746
 20
17.27502002312897
 30
0.0
 11
18.73366045567926
 21
17.27502002312897
 31
0.0
  0
LINE
  5
274B
330
2746
100
AcDbEntity
  8
Dimensions
 62
     0
440
 16777216
370
    -2
100
AcDbLine
 10
18.58366045567926
 20
17.17502002312897
 30
0.0
 11
18.58366045567926
 21
17.07502002312897
 31
0.0
  0
LINE
  5
274C
330
2746
100
AcDbEntity
  8
Dimensions
 62
     0
440
 16777216
370
    -2
100
AcDbLine
 10
18.58366045567926
 20
17.52502002312898
 30
0.0
 11
18.58366045567926
 21
18.16404959184487
 31
0.0
  0
LINE
  5
274D
330
2746
100
AcDbEntity
  8
Dimensions
 62
     0
440
 16777216
370
    -2
100
AcDbLine
 10
18.58366045567926
 20
18.16404959184487
 30
0.0
 11
18.68366045567927
 21
18.16404959184487
 31
0.0
  0
SOLID
  5
274E
330
2746
100
AcDbEntity
  8
Dimensions
 62
     0
440
 16777216
100
AcDbTrace
 10
18.5669937890126
 20
17.17502002312897
 30
0.0
 11
18.60032712234593
 21
17.17502002312897
 31
0.0
 12
18.58366045567926
 22
17.27502002312897
 32
0.0
 13
18.58366045567926
 23
17.27502002312897
 33
0.0
  0
SOLID
  5
274F
330
2746
100
AcDbEntity
  8
Dimensions
 62
     0
440
 16777216
100
AcDbTrace
 10
18.5669937890126
 20
17.52502002312898
 30
0.0
 11
18.60032712234593
 21
17.52502002312898
 31
0.0
 12
18.58366045567926
 22
17.42502002312898
 32
0.0
 13
18.58366045567926
 23
17.42502002312898
 33
0.0
  0
MTEXT
  5
2750
330
2746
100
AcDbEntity
  8
Dimensions
 62
     0
440
 16777216
100
AcDbMText
 10
19.12087737245961
 20
18.16404959184487
 30
0.0
 40
0.12
 41
0.0
 46
0.0
 71
     5
 72
     1
  1
\A1;0.15 [3.81]
 73
     1
 44
1.0
  0
POINT
  5
2751
330
2746
100
AcDbEntity
  8
Defpoints
 62
     0
440
 16777216
100
AcDbPoint
 10
18.39717980067461
 20
17.42502002312898
 30
0.0
  0
POINT
  5
2752
330
2746
100
AcDbEntity
  8
Defpoints
 62
     0
440
 16777216
100
AcDbPoint
 10
17.9471798006746
 20
17.27502002312897
 30
0.0
  0
POINT
  5
2753
330
2746
100
AcDbEntity
  8
Defpoints
 62
     0
440
 16777216
100
AcDbPoint
 10
18.58366045567926
 20
17.27502002312897
 30
0.0
  0
ENDBLK
  5
2748
330
2746
100
AcDbEntity
  8
0
100
AcDbBlockEnd
  0
BLOCK
  5
2755
330
2754
100
AcDbEntity
  8
0
100
AcDbBlockBegin
  2
*D16
 70
     1
 10
0.0
 20
0.0
 30
0.0
  3
*D16
  1

  0
LINE
  5
2757
330
2754
100
AcDbEntity
  8
Dimensions
 62
     0
440
 16777216
370
    -2
100
AcDbLine
 10
18.3596798006746
 20
16.87502002312898
 30
0.0
 11
18.97290175248579
 21
16.87502002312898
 31
0.0
  0
LINE
  5
2758
330
2754
100
AcDbEntity
  8
Dimensions
 62
     0
440
 16777216
370
    -2
100
AcDbLine
 10
18.45967980067461
 20
17.42502002312898
 30
0.0
 11
18.97290175248579
 21
17.42502002312898
 31
0.0
  0
LINE
  5
2759
330
2754
100
AcDbEntity
  8
Dimensions
 62
     0
440
 16777216
370
    -2
100
AcDbLine
 10
18.82290175248579
 20
16.97502002312898
 30
0.0
 11
18.82290175248579
 21
17.32502002312898
 31
0.0
  0
LINE
  5
275A
330
2754
100
AcDbEntity
  8
Dimensions
 62
     0
440
 16777216
370
    -2
100
AcDbLine
 10
18.82290175248579
 20
17.42502002312898
 30
0.0
 11
18.82290175248579
 21
17.91401707412841
 31
0.0
  0
LINE
  5
275B
330
2754
100
AcDbEntity
  8
Dimensions
 62
     0
440
 16777216
370
    -2
100
AcDbLine
 10
18.82290175248579
 20
17.91401707412841
 30
0.0
 11
18.92290175248579
 21
17.91401707412841
 31
0.0
  0
SOLID
  5
275C
330
2754
100
AcDbEntity
  8
Dimensions
 62
     0
440
 16777216
100
AcDbTrace
 10
18.80623508581913
 20
16.97502002312898
 30
0.0
 11
18.83956841915246
 21
16.97502002312898
 31
0.0
 12
18.82290175248579
 22
16.87502002312898
 32
0.0
 13
18.82290175248579
 23
16.87502002312898
 33
0.0
  0
SOLID
  5
275D
330
2754
100
AcDbEntity
  8
Dimensions
 62
     0
440
 16777216
100
AcDbTrace
 10
18.80623508581913
 20
17.32502002312898
 30
0.0
 11
18.83956841915246
 21
17.32502002312898
 31
0.0
 12
18.82290175248579
 22
17.42502002312898
 32
0.0
 13
18.82290175248579
 23
17.42502002312898
 33
0.0
  0
MTEXT
  5
275E
330
2754
100
AcDbEntity
  8
Dimensions
 62
     0
440
 16777216
100
AcDbMText
 10
19.4067353131952
 20
17.91401707412841
 30
0.0
 40
0.12
 41
0.0
 46
0.0
 71
     5
 72
     1
  1
\A1;0.55 [13.97]
 73
     1
 44
1.0
  0
POINT
  5
275F
330
2754
100
AcDbEntity
  8
Defpoints
 62
     0
440
 16777216
100
AcDbPoint
 10
18.2971798006746
 20
16.87502002312898
 30
0.0
  0
POINT
  5
2760
330
2754
100
AcDbEntity
  8
Defpoints
 62
     0
440
 16777216
100
AcDbPoint
 10
18.39717980067461
 20
17.42502002312898
 30
0.0
  0
POINT
  5
2761
330
2754
100
AcDbEntity
  8
Defpoints
 62
     0
440
 16777216
100
AcDbPoint
 10
18.82290175248579
 20
17.42502002312898
 30
0.0
  0
ENDBLK
  5
2756
330
2754
100
AcDbEntity
  8
0
100
AcDbBlockEnd
  0
BLOCK
  5
2763
330
2762
100
AcDbEntity
  8
0
100
AcDbBlockBegin
  2
*D17
 70
     1
 10
0.0
 20
0.0
 30
0.0
  3
*D17
  1

  0
LINE
  5
2765
330
2762
100
AcDbEntity
  8
Dimensions
 62
     0
440
 16777216
370
    -2
100
AcDbLine
 10
18.0096798006746
 20
16.77502002312897
 30
0.0
 11
19.19199724084853
 21
16.77502002312897
 31
0.0
  0
LINE
  5
2766
330
2762
100
AcDbEntity
  8
Dimensions
 62
     0
440
 16777216
370
    -2
100
AcDbLine
 10
18.45967980067461
 20
17.42502002312898
 30
0.0
 11
19.19199724084853
 21
17.42502002312898
 31
0.0
  0
LINE
  5
2767
330
2762
100
AcDbEntity
  8
Dimensions
 62
     0
440
 16777216
370
    -2
100
AcDbLine
 10
19.04199724084853
 20
16.87502002312897
 30
0.0
 11
19.04199724084853
 21
17.32502002312898
 31
0.0
  0
LINE
  5
2768
330
2762
100
AcDbEntity
  8
Dimensions
 62
     0
440
 16777216
370
    -2
100
AcDbLine
 10
19.04199724084853
 20
17.42502002312898
 30
0.0
 11
19.04199724084853
 21
17.64800820763883
 31
0.0
  0
LINE
  5
2769
330
2762
100
AcDbEntity
  8
Dimensions
 62
     0
440
 16777216
370
    -2
100
AcDbLine
 10
19.04199724084853
 20
17.64800820763883
 30
0.0
 11
19.14199724084853
 21
17.64800820763883
 31
0.0
  0
SOLID
  5
276A
330
2762
100
AcDbEntity
  8
Dimensions
 62
     0
440
 16777216
100
AcDbTrace
 10
19.02533057418186
 20
16.87502002312897
 30
0.0
 11
19.05866390751519
 21
16.87502002312897
 31
0.0
 12
19.04199724084853
 22
16.77502002312897
 32
0.0
 13
19.04199724084853
 23
16.77502002312897
 33
0.0
  0
SOLID
  5
276B
330
2762
100
AcDbEntity
  8
Dimensions
 62
     0
440
 16777216
100
AcDbTrace
 10
19.02533057418186
 20
17.32502002312898
 30
0.0
 11
19.05866390751519
 21
17.32502002312898
 31
0.0
 12
19.04199724084853
 22
17.42502002312898
 32
0.0
 13
19.04199724084853
 23
17.42502002312898
 33
0.0
  0
MTEXT
  5
276C
330
2762
100
AcDbEntity
  8
Dimensions
 62
     0
440
 16777216
100
AcDbMText
 10
19.62583080155794
 20
17.64800820763884
 30
0.0
 40
0.12
 41
0.0
 46
0.0
 71
     5
 72
     1
  1
\A1;0.65 [16.51]
 73
     1
 44
1.0
  0
POINT
  5
276D
330
2762
100
AcDbEntity
  8
Defpoints
 62
     0
440
 16777216
100
AcDbPoint
 10
17.9471798006746
 20
16.77502002312897
 30
0.0
  0
POINT
  5
276E
330
2762
100
AcDbEntity
  8
Defpoints
 62
     0
440
 16777216
100
AcDbPoint
 10
18.39717980067461
 20
17.42502002312898
 30
0.0
  0
POINT
  5
276F
330
2762
100
AcDbEntity
  8
Defpoints
 62
     0
440
 16777216
100
AcDbPoint
 10
19.04199724084853
 20
17.42502002312898
 30
0.0
  0
ENDBLK
  5
2764
330
2762
100
AcDbEntity
  8
0
100
AcDbBlockEnd
  0
BLOCK
  5
2771
330
2770
100
AcDbEntity
  8
0
100
AcDbBlockBegin
  2
*D18
 70
     1
 10
0.0
 20
0.0
 30
0.0
  3
*D18
  1

  0
LINE
  5
2773
330
2770
100
AcDbEntity
  8
Dimensions
 62
     0
440
 16777216
370
    -2
100
AcDbLine
 10
16.5846798006746
 20
17.42502002312898
 30
0.0
 11
16.23467097101071
 21
17.42502002312898
 31
0.0
  0
LINE
  5
2774
330
2770
100
AcDbEntity
  8
Dimensions
 62
     0
440
 16777216
370
    -2
100
AcDbLine
 10
17.5646798006746
 20
16.67502002312898
 30
0.0
 11
16.23467097101071
 21
16.67502002312898
 31
0.0
  0
LINE
  5
2775
330
2770
100
AcDbEntity
  8
Dimensions
 62
     0
440
 16777216
370
    -2
100
AcDbLine
 10
16.38467097101071
 20
16.77502002312898
 30
0.0
 11
16.38467097101071
 21
17.32502002312898
 31
0.0
  0
LINE
  5
2776
330
2770
100
AcDbEntity
  8
Dimensions
 62
     0
440
 16777216
370
    -2
100
AcDbLine
 10
16.38467097101071
 20
17.42502002312898
 30
0.0
 11
16.38467097101071
 21
17.7392661835363
 31
0.0
  0
LINE
  5
2777
330
2770
100
AcDbEntity
  8
Dimensions
 62
     0
440
 16777216
370
    -2
100
AcDbLine
 10
16.38467097101071
 20
17.7392661835363
 30
0.0
 11
16.48467097101071
 21
17.7392661835363
 31
0.0
  0
SOLID
  5
2778
330
2770
100
AcDbEntity
  8
Dimensions
 62
     0
440
 16777216
100
AcDbTrace
 10
16.36800430434405
 20
16.77502002312898
 30
0.0
 11
16.40133763767738
 21
16.77502002312898
 31
0.0
 12
16.38467097101071
 22
16.67502002312898
 32
0.0
 13
16.38467097101071
 23
16.67502002312898
 33
0.0
  0
SOLID
  5
2779
330
2770
100
AcDbEntity
  8
Dimensions
 62
     0
440
 16777216
100
AcDbTrace
 10
16.36800430434405
 20
17.32502002312898
 30
0.0
 11
16.40133763767738
 21
17.32502002312898
 31
0.0
 12
16.38467097101071
 22
17.42502002312898
 32
0.0
 13
16.38467097101071
 23
17.42502002312898
 33
0.0
  0
MTEXT
  5
277A
330
2770
100
AcDbEntity
  8
Dimensions
 62
     0
440
 16777216
100
AcDbMText
 10
16.96850453172012
 20
17.73926618353631
 30
0.0
 40
0.12
 41
0.0
 46
0.0
 71
     5
 72
     1
  1
\A1;0.75 [19.05]
 73
     1
 44
1.0
  0
POINT
  5
277B
330
2770
100
AcDbEntity
  8
Defpoints
 62
     0
440
 16777216
100
AcDbPoint
 10
16.6471798006746
 20
17.42502002312898
 30
0.0
  0
POINT
  5
277C
330
2770
100
AcDbEntity
  8
Defpoints
 62
     0
440
 16777216
100
AcDbPoint
 10
17.62717980067461
 20
16.67502002312898
 30
0.0
  0
POINT
  5
277D
330
2770
100
AcDbEntity
  8
Defpoints
 62
     0
440
 16777216
100
AcDbPoint
 10
16.38467097101071
 20
16.67502002312898
 30
0.0
  0
ENDBLK
  5
2772
330
2770
100
AcDbEntity
  8
0
100
AcDbBlockEnd
  0
BLOCK
  5
277F
330
277E
100
AcDbEntity
  8
0
100
AcDbBlockBegin
  2
*D19
 70
     1
 10
0.0
 20
0.0
 30
0.0
  3
*D19
  1

  0
LINE
  5
2781
330
277E
100
AcDbEntity
  8
Dimensions
 62
     0
440
 16777216
370
    -2
100
AcDbLine
 10
16.5846798006746
 20
17.42502002312898
 30
0.0
 11
15.98616004349452
 21
17.42502002312898
 31
0.0
  0
LINE
  5
2782
330
277E
100
AcDbEntity
  8
Dimensions
 62
     0
440
 16777216
370
    -2
100
AcDbLine
 10
16.8846798006746
 20
16.52502002312897
 30
0.0
 11
15.98616004349452
 21
16.52502002312897
 31
0.0
  0
LINE
  5
2783
330
277E
100
AcDbEntity
  8
Dimensions
 62
     0
440
 16777216
370
    -2
100
AcDbLine
 10
16.13616004349452
 20
16.62502002312897
 30
0.0
 11
16.13616004349452
 21
17.32502002312898
 31
0.0
  0
LINE
  5
2784
330
277E
100
AcDbEntity
  8
Dimensions
 62
     0
440
 16777216
370
    -2
100
AcDbLine
 10
16.13616004349452
 20
17.42502002312898
 30
0.0
 11
16.13616004349452
 21
17.93413733053815
 31
0.0
  0
LINE
  5
2785
330
277E
100
AcDbEntity
  8
Dimensions
 62
     0
440
 16777216
370
    -2
100
AcDbLine
 10
16.13616004349452
 20
17.93413733053815
 30
0.0
 11
16.23616004349452
 21
17.93413733053815
 31
0.0
  0
SOLID
  5
2786
330
277E
100
AcDbEntity
  8
Dimensions
 62
     0
440
 16777216
100
AcDbTrace
 10
16.11949337682785
 20
16.62502002312897
 30
0.0
 11
16.15282671016119
 21
16.62502002312897
 31
0.0
 12
16.13616004349452
 22
16.52502002312897
 32
0.0
 13
16.13616004349452
 23
16.52502002312897
 33
0.0
  0
SOLID
  5
2787
330
277E
100
AcDbEntity
  8
Dimensions
 62
     0
440
 16777216
100
AcDbTrace
 10
16.11949337682785
 20
17.32502002312898
 30
0.0
 11
16.15282671016119
 21
17.32502002312898
 31
0.0
 12
16.13616004349452
 22
17.42502002312898
 32
0.0
 13
16.13616004349452
 23
17.42502002312898
 33
0.0
  0
MTEXT
  5
2788
330
277E
100
AcDbEntity
  8
Dimensions
 62
     0
440
 16777216
100
AcDbMText
 10
16.71999360420393
 20
17.93413733053816
 30
0.0
 40
0.12
 41
0.0
 46
0.0
 71
     5
 72
     1
  1
\A1;0.90 [22.86]
 73
     1
 44
1.0
  0
POINT
  5
2789
330
277E
100
AcDbEntity
  8
Defpoints
 62
     0
440
 16777216
100
AcDbPoint
 10
16.6471798006746
 20
17.42502002312898
 30
0.0
  0
POINT
  5
278A
330
277E
100
AcDbEntity
  8
Defpoints
 62
     0
440
 16777216
100
AcDbPoint
 10
16.9471798006746
 20
16.52502002312897
 30
0.0
  0
POINT
  5
278B
330
277E
100
AcDbEntity
  8
Defpoints
 62
     0
440
 16777216
100
AcDbPoint
 10
16.13616004349452
 20
16.52502002312897
 30
0.0
  0
ENDBLK
  5
2780
330
277E
100
AcDbEntity
  8
0
100
AcDbBlockEnd
  0
BLOCK
  5
2797
330
2796
100
AcDbEntity
  8
0
100
AcDbBlockBegin
  2
*D20
 70
     1
 10
0.0
 20
0.0
 30
0.0
  3
*D20
  1

  0
LINE
  5
2799
330
2796
100
AcDbEntity
  8
Dimensions
 62
     0
440
 16777216
370
    -2
100
AcDbLine
 10
16.6471798006746
 20
11.5467853371286
 30
0.0
 11
16.6471798006746
 21
11.00421913455219
 31
0.0
  0
LINE
  5
279A
330
2796
100
AcDbEntity
  8
Dimensions
 62
     0
440
 16777216
370
    -2
100
AcDbLine
 10
18.39717980067461
 20
11.5467853371286
 30
0.0
 11
18.39717980067461
 21
11.00421913455219
 31
0.0
  0
LINE
  5
279B
330
2796
100
AcDbEntity
  8
Dimensions
 62
     0
440
 16777216
370
    -2
100
AcDbLine
 10
16.7471798006746
 20
11.15421913455219
 30
0.0
 11
17.0439942617933
 21
11.15421913455219
 31
0.0
  0
LINE
  5
279C
330
2796
100
AcDbEntity
  8
Dimensions
 62
     0
440
 16777216
370
    -2
100
AcDbLine
 10
18.2971798006746
 20
11.15421913455219
 30
0.0
 11
18.00036533955591
 21
11.15421913455219
 31
0.0
  0
SOLID
  5
279D
330
2796
100
AcDbEntity
  8
Dimensions
 62
     0
440
 16777216
100
AcDbTrace
 10
16.7471798006746
 20
11.17088580121886
 30
0.0
 11
16.7471798006746
 21
11.13755246788552
 31
0.0
 12
16.6471798006746
 22
11.15421913455219
 32
0.0
 13
16.6471798006746
 23
11.15421913455219
 33
0.0
  0
SOLID
  5
279E
330
2796
100
AcDbEntity
  8
Dimensions
 62
     0
440
 16777216
100
AcDbTrace
 10
18.2971798006746
 20
11.17088580121886
 30
0.0
 11
18.2971798006746
 21
11.13755246788552
 31
0.0
 12
18.39717980067461
 22
11.15421913455219
 32
0.0
 13
18.39717980067461
 23
11.15421913455219
 33
0.0
  0
MTEXT
  5
279F
330
2796
100
AcDbEntity
  8
Dimensions
 62
     0
440
 16777216
100
AcDbMText
 10
17.52217980067461
 20
11.15421913455219
 30
0.0
 40
0.12
 41
0.0
 46
0.0
 71
     5
 72
     1
  1
\A1;1.75 [44.45]
 73
     1
 44
1.0
  0
POINT
  5
27A0
330
2796
100
AcDbEntity
  8
Defpoints
 62
     0
440
 16777216
100
AcDbPoint
 10
16.6471798006746
 20
11.6092853371286
 30
0.0
  0
POINT
  5
27A1
330
2796
100
AcDbEntity
  8
Defpoints
 62
     0
440
 16777216
100
AcDbPoint
 10
18.39717980067461
 20
11.6092853371286
 30
0.0
  0
POINT
  5
27A2
330
2796
100
AcDbEntity
  8
Defpoints
 62
     0
440
 16777216
100
AcDbPoint
 10
18.39717980067461
 20
11.15421913455219
 30
0.0
  0
ENDBLK
  5
2798
330
2796
100
AcDbEntity
  8
0
100
AcDbBlockEnd
  0
BLOCK
  5
27A4
330
27A3
100
AcDbEntity
  8
0
100
AcDbBlockBegin
  2
*D21
 70
     1
 10
0.0
 20
0.0
 30
0.0
  3
*D21
  1

  0
LINE
  5
27A6
330
27A3
100
AcDbEntity
  8
Dimensions
 62
     0
440
 16777216
370
    -2
100
AcDbLine
 10
18.38896912255595
 20
11.53857465900994
 30
0.0
 11
18.85049780832781
 21
11.53857465900994
 31
0.0
  0
LINE
  5
27A7
330
27A3
100
AcDbEntity
  8
Dimensions
 62
     0
440
 16777216
370
    -2
100
AcDbLine
 10
18.45967980067461
 20
12.03857465900994
 30
0.0
 11
18.85049780832781
 21
12.03857465900994
 31
0.0
  0
LINE
  5
27A8
330
27A3
100
AcDbEntity
  8
Dimensions
 62
     0
440
 16777216
370
    -2
100
AcDbLine
 10
18.70049780832782
 20
11.63857465900994
 30
0.0
 11
18.70049780832782
 21
11.93857465900994
 31
0.0
  0
LINE
  5
27A9
330
27A3
100
AcDbEntity
  8
Dimensions
 62
     0
440
 16777216
370
    -2
100
AcDbLine
 10
18.70049780832782
 20
12.03857465900994
 30
0.0
 11
18.70049780832782
 21
12.68090012626303
 31
0.0
  0
LINE
  5
27AA
330
27A3
100
AcDbEntity
  8
Dimensions
 62
     0
440
 16777216
370
    -2
100
AcDbLine
 10
18.70049780832782
 20
12.68090012626303
 30
0.0
 11
18.80049780832782
 21
12.68090012626303
 31
0.0
  0
SOLID
  5
27AB
330
27A3
100
AcDbEntity
  8
Dimensions
 62
     0
440
 16777216
100
AcDbTrace
 10
18.68383114166115
 20
11.63857465900994
 30
0.0
 11
18.71716447499448
 21
11.63857465900994
 31
0.0
 12
18.70049780832782
 22
11.53857465900994
 32
0.0
 13
18.70049780832782
 23
11.53857465900994
 33
0.0
  0
SOLID
  5
27AC
330
27A3
100
AcDbEntity
  8
Dimensions
 62
     0
440
 16777216
100
AcDbTrace
 10
18.68383114166115
 20
11.93857465900994
 30
0.0
 11
18.71716447499448
 21
11.93857465900994
 31
0.0
 12
18.70049780832782
 22
12.03857465900994
 32
0.0
 13
18.70049780832782
 23
12.03857465900994
 33
0.0
  0
MTEXT
  5
27AD
330
27A3
100
AcDbEntity
  8
Dimensions
 62
     0
440
 16777216
100
AcDbMText
 10
19.28433136903722
 20
12.68090012626303
 30
0.0
 40
0.12
 41
0.0
 46
0.0
 71
     5
 72
     1
  1
\A1;0.50 [12.70]
 73
     1
 44
1.0
  0
POINT
  5
27AE
330
27A3
100
AcDbEntity
  8
Defpoints
 62
     0
440
 16777216
100
AcDbPoint
 10
18.32646912255595
 20
11.53857465900994
 30
0.0
  0
POINT
  5
27AF
330
27A3
100
AcDbEntity
  8
Defpoints
 62
     0
440
 16777216
100
AcDbPoint
 10
18.39717980067461
 20
12.03857465900994
 30
0.0
  0
POINT
  5
27B0
330
27A3
100
AcDbEntity
  8
Defpoints
 62
     0
440
 16777216
100
AcDbPoint
 10
18.70049780832782
 20
12.03857465900994
 30
0.0
  0
ENDBLK
  5
27A5
330
27A3
100
AcDbEntity
  8
0
100
AcDbBlockEnd
  0
BLOCK
  5
27B2
330
27B1
100
AcDbEntity
  8
0
100
AcDbBlockBegin
  2
*D22
 70
     1
 10
0.0
 20
0.0
 30
0.0
  3
*D22
  1

  0
LINE
  5
27B4
330
27B1
100
AcDbEntity
  8
Dimensions
 62
     0
440
 16777216
370
    -2
100
AcDbLine
 10
16.8646798006746
 20
12.23857465900994
 30
0.0
 11
16.12233233732494
 21
12.23857465900994
 31
0.0
  0
LINE
  5
27B5
330
27B1
100
AcDbEntity
  8
Dimensions
 62
     0
440
 16777216
370
    -2
100
AcDbLine
 10
16.5846798006746
 20
12.03857465900994
 30
0.0
 11
16.12233233732494
 21
12.03857465900994
 31
0.0
  0
LINE
  5
27B6
330
27B1
100
AcDbEntity
  8
Dimensions
 62
     0
440
 16777216
370
    -2
100
AcDbLine
 10
16.27233233732494
 20
12.33857465900994
 30
0.0
 11
16.27233233732494
 21
12.43857465900994
 31
0.0
  0
LINE
  5
27B7
330
27B1
100
AcDbEntity
  8
Dimensions
 62
     0
440
 16777216
370
    -2
100
AcDbLine
 10
16.27233233732494
 20
11.93857465900994
 30
0.0
 11
16.27233233732494
 21
11.20241067376559
 31
0.0
  0
LINE
  5
27B8
330
27B1
100
AcDbEntity
  8
Dimensions
 62
     0
440
 16777216
370
    -2
100
AcDbLine
 10
16.27233233732494
 20
11.20241067376559
 30
0.0
 11
16.17233233732494
 21
11.20241067376559
 31
0.0
  0
SOLID
  5
27B9
330
27B1
100
AcDbEntity
  8
Dimensions
 62
     0
440
 16777216
100
AcDbTrace
 10
16.25566567065827
 20
12.33857465900994
 30
0.0
 11
16.2889990039916
 21
12.33857465900994
 31
0.0
 12
16.27233233732494
 22
12.23857465900994
 32
0.0
 13
16.27233233732494
 23
12.23857465900994
 33
0.0
  0
SOLID
  5
27BA
330
27B1
100
AcDbEntity
  8
Dimensions
 62
     0
440
 16777216
100
AcDbTrace
 10
16.25566567065827
 20
11.93857465900994
 30
0.0
 11
16.2889990039916
 21
11.93857465900994
 31
0.0
 12
16.27233233732494
 22
12.03857465900994
 32
0.0
 13
16.27233233732494
 23
12.03857465900994
 33
0.0
  0
MTEXT
  5
27BB
330
27B1
100
AcDbEntity
  8
Dimensions
 62
     0
440
 16777216
100
AcDbMText
 10
15.10634325137678
 20
11.2024106737656
 30
0.0
 40
0.12
 41
0.0
 46
0.0
 71
     5
 72
     1
  1
\A1;0.20 [5.08]  Min. Pin Length
 73
     1
 44
1.0
  0
POINT
  5
27BC
330
27B1
100
AcDbEntity
  8
Defpoints
 62
     0
440
 16777216
100
AcDbPoint
 10
16.9271798006746
 20
12.23857465900994
 30
0.0
  0
POINT
  5
27BD
330
27B1
100
AcDbEntity
  8
Defpoints
 62
     0
440
 16777216
100
AcDbPoint
 10
16.6471798006746
 20
12.03857465900994
 30
0.0
  0
POINT
  5
27BE
330
27B1
100
AcDbEntity
  8
Defpoints
 62
     0
440
 16777216
100
AcDbPoint
 10
16.27233233732494
 20
12.03857465900994
 30
0.0
  0
ENDBLK
  5
27B3
330
27B1
100
AcDbEntity
  8
0
100
AcDbBlockEnd
  0
BLOCK
  5
27C0
330
27BF
100
AcDbEntity
  8
0
100
AcDbBlockBegin
  2
*D23
 70
     1
 10
0.0
 20
0.0
 30
0.0
  3
*D23
  1

  0
LINE
  5
27C2
330
27BF
100
AcDbEntity
  8
Dimensions
 62
     0
440
 16777216
370
    -2
100
AcDbLine
 10
6.739032954269774
 20
16.26252002312898
 30
0.0
 11
6.739032954269774
 21
16.00976628794985
 31
0.0
  0
LINE
  5
27C3
330
27BF
100
AcDbEntity
  8
Dimensions
 62
     0
440
 16777216
370
    -2
100
AcDbLine
 10
6.989032954269774
 20
16.46252002312898
 30
0.0
 11
6.989032954269774
 21
16.00976628794985
 31
0.0
  0
LINE
  5
27C4
330
27BF
100
AcDbEntity
  8
Dimensions
 62
     0
440
 16777216
370
    -2
100
AcDbLine
 10
7.089032954269773
 20
16.15976628794985
 30
0.0
 11
7.189032954269774
 21
16.15976628794985
 31
0.0
  0
LINE
  5
27C5
330
27BF
100
AcDbEntity
  8
Dimensions
 62
     0
440
 16777216
370
    -2
100
AcDbLine
 10
6.639032954269774
 20
16.15976628794985
 30
0.0
 11
6.432898916070592
 21
16.15976628794985
 31
0.0
  0
SOLID
  5
27C6
330
27BF
100
AcDbEntity
  8
Dimensions
 62
     0
440
 16777216
100
AcDbTrace
 10
7.089032954269773
 20
16.17643295461652
 30
0.0
 11
7.089032954269773
 21
16.14309962128318
 31
0.0
 12
6.989032954269774
 22
16.15976628794985
 32
0.0
 13
6.989032954269774
 23
16.15976628794985
 33
0.0
  0
SOLID
  5
27C7
330
27BF
100
AcDbEntity
  8
Dimensions
 62
     0
440
 16777216
100
AcDbTrace
 10
6.639032954269774
 20
16.17643295461652
 30
0.0
 11
6.639032954269774
 21
16.14309962128318
 31
0.0
 12
6.739032954269774
 22
16.15976628794985
 32
0.0
 13
6.739032954269774
 23
16.15976628794985
 33
0.0
  0
MTEXT
  5
27C8
330
27BF
100
AcDbEntity
  8
Dimensions
 62
     0
440
 16777216
100
AcDbMText
 10
5.995681999290237
 20
16.15976628794985
 30
0.0
 40
0.12
 41
0.0
 46
0.0
 71
     5
 72
     1
  1
\A1;0.25 [6.35]
 73
     1
 44
1.0
  0
POINT
  5
27C9
330
27BF
100
AcDbEntity
  8
Defpoints
 62
     0
440
 16777216
100
AcDbPoint
 10
6.739032954269774
 20
16.32502002312898
 30
0.0
  0
POINT
  5
27CA
330
27BF
100
AcDbEntity
  8
Defpoints
 62
     0
440
 16777216
100
AcDbPoint
 10
6.989032954269774
 20
16.52502002312898
 30
0.0
  0
POINT
  5
27CB
330
27BF
100
AcDbEntity
  8
Defpoints
 62
     0
440
 16777216
100
AcDbPoint
 10
6.989032954269774
 20
16.15976628794985
 30
0.0
  0
ENDBLK
  5
27C1
330
27BF
100
AcDbEntity
  8
0
100
AcDbBlockEnd
  0
BLOCK
  5
27CD
330
27CC
100
AcDbEntity
  8
0
100
AcDbBlockBegin
  2
*D24
 70
     1
 10
0.0
 20
0.0
 30
0.0
  3
*D24
  1

  0
LINE
  5
27CF
330
27CC
100
AcDbEntity
  8
Dimensions
 62
     0
440
 16777216
370
    -2
100
AcDbLine
 10
6.739032954269774
 20
16.26252002312898
 30
0.0
 11
6.739032954269774
 21
15.50976628794985
 31
0.0
  0
LINE
  5
27D0
330
27CC
100
AcDbEntity
  8
Dimensions
 62
     0
440
 16777216
370
    -2
100
AcDbLine
 10
7.589032954269775
 20
16.46252002312898
 30
0.0
 11
7.589032954269775
 21
15.50976628794985
 31
0.0
  0
LINE
  5
27D1
330
27CC
100
AcDbEntity
  8
Dimensions
 62
     0
440
 16777216
370
    -2
100
AcDbLine
 10
7.489032954269775
 20
15.65976628794985
 30
0.0
 11
6.839032954269773
 21
15.65976628794985
 31
0.0
  0
LINE
  5
27D2
330
27CC
100
AcDbEntity
  8
Dimensions
 62
     0
440
 16777216
370
    -2
100
AcDbLine
 10
6.739032954269774
 20
15.65976628794985
 30
0.0
 11
6.555956555906881
 21
15.65976628794985
 31
0.0
  0
SOLID
  5
27D3
330
27CC
100
AcDbEntity
  8
Dimensions
 62
     0
440
 16777216
100
AcDbTrace
 10
7.489032954269775
 20
15.67643295461652
 30
0.0
 11
7.489032954269775
 21
15.64309962128318
 31
0.0
 12
7.589032954269775
 22
15.65976628794985
 32
0.0
 13
7.589032954269775
 23
15.65976628794985
 33
0.0
  0
SOLID
  5
27D4
330
27CC
100
AcDbEntity
  8
Dimensions
 62
     0
440
 16777216
100
AcDbTrace
 10
6.839032954269773
 20
15.67643295461652
 30
0.0
 11
6.839032954269773
 21
15.64309962128318
 31
0.0
 12
6.739032954269774
 22
15.65976628794985
 32
0.0
 13
6.739032954269774
 23
15.65976628794985
 33
0.0
  0
MTEXT
  5
27D5
330
27CC
100
AcDbEntity
  8
Dimensions
 62
     0
440
 16777216
100
AcDbMText
 10
6.072122995197467
 20
15.65976628794985
 30
0.0
 40
0.12
 41
0.0
 46
0.0
 71
     5
 72
     1
  1
\A1;0.85 [21.59]
 73
     1
 44
1.0
  0
POINT
  5
27D6
330
27CC
100
AcDbEntity
  8
Defpoints
 62
     0
440
 16777216
100
AcDbPoint
 10
6.739032954269774
 20
16.32502002312898
 30
0.0
  0
POINT
  5
27D7
330
27CC
100
AcDbEntity
  8
Defpoints
 62
     0
440
 16777216
100
AcDbPoint
 10
7.589032954269775
 20
16.52502002312898
 30
0.0
  0
POINT
  5
27D8
330
27CC
100
AcDbEntity
  8
Defpoints
 62
     0
440
 16777216
100
AcDbPoint
 10
7.589032954269775
 20
15.65976628794985
 30
0.0
  0
ENDBLK
  5
27CE
330
27CC
100
AcDbEntity
  8
0
100
AcDbBlockEnd
  0
BLOCK
  5
27DA
330
27D9
100
AcDbEntity
  8
0
100
AcDbBlockBegin
  2
*D25
 70
     1
 10
0.0
 20
0.0
 30
0.0
  3
*D25
  1

  0
LINE
  5
27DC
330
27D9
100
AcDbEntity
  8
Dimensions
 62
     0
440
 16777216
370
    -2
100
AcDbLine
 10
6.739032954269774
 20
16.26252002312898
 30
0.0
 11
6.739032954269774
 21
15.75976628794985
 31
0.0
  0
LINE
  5
27DD
330
27D9
100
AcDbEntity
  8
Dimensions
 62
     0
440
 16777216
370
    -2
100
AcDbLine
 10
7.349032954269777
 20
16.62252002312898
 30
0.0
 11
7.349032954269777
 21
15.75976628794985
 31
0.0
  0
LINE
  5
27DE
330
27D9
100
AcDbEntity
  8
Dimensions
 62
     0
440
 16777216
370
    -2
100
AcDbLine
 10
7.249032954269777
 20
15.90976628794985
 30
0.0
 11
6.839032954269773
 21
15.90976628794985
 31
0.0
  0
LINE
  5
27DF
330
27D9
100
AcDbEntity
  8
Dimensions
 62
     0
440
 16777216
370
    -2
100
AcDbLine
 10
6.739032954269774
 20
15.90976628794985
 30
0.0
 11
6.555956555906881
 21
15.90976628794985
 31
0.0
  0
SOLID
  5
27E0
330
27D9
100
AcDbEntity
  8
Dimensions
 62
     0
440
 16777216
100
AcDbTrace
 10
7.249032954269777
 20
15.92643295461652
 30
0.0
 11
7.249032954269777
 21
15.89309962128318
 31
0.0
 12
7.349032954269777
 22
15.90976628794985
 32
0.0
 13
7.349032954269777
 23
15.90976628794985
 33
0.0
  0
SOLID
  5
27E1
330
27D9
100
AcDbEntity
  8
Dimensions
 62
     0
440
 16777216
100
AcDbTrace
 10
6.839032954269773
 20
15.92643295461652
 30
0.0
 11
6.839032954269773
 21
15.89309962128318
 31
0.0
 12
6.739032954269774
 22
15.90976628794985
 32
0.0
 13
6.739032954269774
 23
15.90976628794985
 33
0.0
  0
MTEXT
  5
27E2
330
27D9
100
AcDbEntity
  8
Dimensions
 62
     0
440
 16777216
100
AcDbMText
 10
6.072122995197467
 20
15.90976628794985
 30
0.0
 40
0.12
 41
0.0
 46
0.0
 71
     5
 72
     1
  1
\A1;0.61 [15.49]
 73
     1
 44
1.0
  0
POINT
  5
27E3
330
27D9
100
AcDbEntity
  8
Defpoints
 62
     0
440
 16777216
100
AcDbPoint
 10
6.739032954269774
 20
16.32502002312898
 30
0.0
  0
POINT
  5
27E4
330
27D9
100
AcDbEntity
  8
Defpoints
 62
     0
440
 16777216
100
AcDbPoint
 10
7.349032954269777
 20
16.68502002312898
 30
0.0
  0
POINT
  5
27E5
330
27D9
100
AcDbEntity
  8
Defpoints
 62
     0
440
 16777216
100
AcDbPoint
 10
7.349032954269777
 20
15.90976628794985
 30
0.0
  0
ENDBLK
  5
27DB
330
27D9
100
AcDbEntity
  8
0
100
AcDbBlockEnd
  0
BLOCK
  5
27E7
330
27E6
100
AcDbEntity
  8
0
100
AcDbBlockBegin
  2
*D26
 70
     1
 10
0.0
 20
0.0
 30
0.0
  3
*D26
  1

  0
LINE
  5
27E9
330
27E6
100
AcDbEntity
  8
Dimensions
 62
     0
440
 16777216
370
    -2
100
AcDbLine
 10
6.739032954269774
 20
16.26252002312898
 30
0.0
 11
6.739032954269774
 21
15.25976628794985
 31
0.0
  0
LINE
  5
27EA
330
27E6
100
AcDbEntity
  8
Dimensions
 62
     0
440
 16777216
370
    -2
100
AcDbLine
 10
7.689032954269773
 20
16.71252002312898
 30
0.0
 11
7.689032954269773
 21
15.25976628794985
 31
0.0
  0
LINE
  5
27EB
330
27E6
100
AcDbEntity
  8
Dimensions
 62
     0
440
 16777216
370
    -2
100
AcDbLine
 10
7.589032954269773
 20
15.40976628794985
 30
0.0
 11
6.839032954269773
 21
15.40976628794985
 31
0.0
  0
LINE
  5
27EC
330
27E6
100
AcDbEntity
  8
Dimensions
 62
     0
440
 16777216
370
    -2
100
AcDbLine
 10
6.739032954269774
 20
15.40976628794985
 30
0.0
 11
6.555956555906881
 21
15.40976628794985
 31
0.0
  0
SOLID
  5
27ED
330
27E6
100
AcDbEntity
  8
Dimensions
 62
     0
440
 16777216
100
AcDbTrace
 10
7.589032954269773
 20
15.42643295461652
 30
0.0
 11
7.589032954269773
 21
15.39309962128318
 31
0.0
 12
7.689032954269773
 22
15.40976628794985
 32
0.0
 13
7.689032954269773
 23
15.40976628794985
 33
0.0
  0
SOLID
  5
27EE
330
27E6
100
AcDbEntity
  8
Dimensions
 62
     0
440
 16777216
100
AcDbTrace
 10
6.839032954269773
 20
15.42643295461652
 30
0.0
 11
6.839032954269773
 21
15.39309962128318
 31
0.0
 12
6.739032954269774
 22
15.40976628794985
 32
0.0
 13
6.739032954269774
 23
15.40976628794985
 33
0.0
  0
MTEXT
  5
27EF
330
27E6
100
AcDbEntity
  8
Dimensions
 62
     0
440
 16777216
100
AcDbMText
 10
6.072122995197467
 20
15.40976628794985
 30
0.0
 40
0.12
 41
0.0
 46
0.0
 71
     5
 72
     1
  1
\A1;0.95 [24.13]
 73
     1
 44
1.0
  0
POINT
  5
27F0
330
27E6
100
AcDbEntity
  8
Defpoints
 62
     0
440
 16777216
100
AcDbPoint
 10
6.739032954269774
 20
16.32502002312898
 30
0.0
  0
POINT
  5
27F1
330
27E6
100
AcDbEntity
  8
Defpoints
 62
     0
440
 16777216
100
AcDbPoint
 10
7.689032954269773
 20
16.77502002312898
 30
0.0
  0
POINT
  5
27F2
330
27E6
100
AcDbEntity
  8
Defpoints
 62
     0
440
 16777216
100
AcDbPoint
 10
7.689032954269773
 20
15.40976628794985
 30
0.0
  0
ENDBLK
  5
27E8
330
27E6
100
AcDbEntity
  8
0
100
AcDbBlockEnd
  0
BLOCK
  5
27F4
330
27F3
100
AcDbEntity
  8
0
100
AcDbBlockBegin
  2
*D27
 70
     1
 10
0.0
 20
0.0
 30
0.0
  3
*D27
  1

  0
LINE
  5
27F6
330
27F3
100
AcDbEntity
  8
Dimensions
 62
     0
440
 16777216
370
    -2
100
AcDbLine
 10
6.739032954269774
 20
16.26252002312898
 30
0.0
 11
6.739032954269774
 21
15.00976628794985
 31
0.0
  0
LINE
  5
27F7
330
27F3
100
AcDbEntity
  8
Dimensions
 62
     0
440
 16777216
370
    -2
100
AcDbLine
 10
8.039032954269774
 20
16.81252002312898
 30
0.0
 11
8.039032954269774
 21
15.00976628794985
 31
0.0
  0
LINE
  5
27F8
330
27F3
100
AcDbEntity
  8
Dimensions
 62
     0
440
 16777216
370
    -2
100
AcDbLine
 10
7.939032954269775
 20
15.15976628794985
 30
0.0
 11
6.839032954269773
 21
15.15976628794985
 31
0.0
  0
LINE
  5
27F9
330
27F3
100
AcDbEntity
  8
Dimensions
 62
     0
440
 16777216
370
    -2
100
AcDbLine
 10
6.739032954269774
 20
15.15976628794985
 30
0.0
 11
6.556191890149719
 21
15.15976628794985
 31
0.0
  0
SOLID
  5
27FA
330
27F3
100
AcDbEntity
  8
Dimensions
 62
     0
440
 16777216
100
AcDbTrace
 10
7.939032954269775
 20
15.17643295461652
 30
0.0
 11
7.939032954269775
 21
15.14309962128318
 31
0.0
 12
8.039032954269774
 22
15.15976628794985
 32
0.0
 13
8.039032954269774
 23
15.15976628794985
 33
0.0
  0
SOLID
  5
27FB
330
27F3
100
AcDbEntity
  8
Dimensions
 62
     0
440
 16777216
100
AcDbTrace
 10
6.839032954269773
 20
15.17643295461652
 30
0.0
 11
6.839032954269773
 21
15.14309962128318
 31
0.0
 12
6.739032954269774
 22
15.15976628794985
 32
0.0
 13
6.739032954269774
 23
15.15976628794985
 33
0.0
  0
MTEXT
  5
27FC
330
27F3
100
AcDbEntity
  8
Dimensions
 62
     0
440
 16777216
100
AcDbMText
 10
6.07800635126841
 20
15.15976628794985
 30
0.0
 40
0.12
 41
0.0
 46
0.0
 71
     5
 72
     1
  1
\A1;1.30 [33.02]
 73
     1
 44
1.0
  0
POINT
  5
27FD
330
27F3
100
AcDbEntity
  8
Defpoints
 62
     0
440
 16777216
100
AcDbPoint
 10
6.739032954269774
 20
16.32502002312898
 30
0.0
  0
POINT
  5
27FE
330
27F3
100
AcDbEntity
  8
Defpoints
 62
     0
440
 16777216
100
AcDbPoint
 10
8.039032954269774
 20
16.87502002312898
 30
0.0
  0
POINT
  5
27FF
330
27F3
100
AcDbEntity
  8
Defpoints
 62
     0
440
 16777216
100
AcDbPoint
 10
8.039032954269774
 20
15.15976628794985
 30
0.0
  0
ENDBLK
  5
27F5
330
27F3
100
AcDbEntity
  8
0
100
AcDbBlockEnd
  0
BLOCK
  5
2801
330
2800
100
AcDbEntity
  8
0
100
AcDbBlockBegin
  2
*D28
 70
     1
 10
0.0
 20
0.0
 30
0.0
  3
*D28
  1

  0
LINE
  5
2803
330
2800
100
AcDbEntity
  8
Dimensions
 62
     0
440
 16777216
370
    -2
100
AcDbLine
 10
8.201532954269776
 20
17.42502002312898
 30
0.0
 11
8.475513609274434
 21
17.42502002312898
 31
0.0
  0
LINE
  5
2804
330
2800
100
AcDbEntity
  8
Dimensions
 62
     0
440
 16777216
370
    -2
100
AcDbLine
 10
7.751532954269773
 20
17.27502002312898
 30
0.0
 11
8.475513609274434
 21
17.27502002312898
 31
0.0
  0
LINE
  5
2805
330
2800
100
AcDbEntity
  8
Dimensions
 62
     0
440
 16777216
370
    -2
100
AcDbLine
 10
8.325513609274434
 20
17.17502002312898
 30
0.0
 11
8.325513609274434
 21
17.07502002312898
 31
0.0
  0
LINE
  5
2806
330
2800
100
AcDbEntity
  8
Dimensions
 62
     0
440
 16777216
370
    -2
100
AcDbLine
 10
8.325513609274434
 20
17.52502002312898
 30
0.0
 11
8.325513609274434
 21
18.16404959184486
 31
0.0
  0
LINE
  5
2807
330
2800
100
AcDbEntity
  8
Dimensions
 62
     0
440
 16777216
370
    -2
100
AcDbLine
 10
8.325513609274434
 20
18.16404959184486
 30
0.0
 11
8.425513609274434
 21
18.16404959184486
 31
0.0
  0
SOLID
  5
2808
330
2800
100
AcDbEntity
  8
Dimensions
 62
     0
440
 16777216
100
AcDbTrace
 10
8.308846942607766
 20
17.17502002312898
 30
0.0
 11
8.342180275941101
 21
17.17502002312898
 31
0.0
 12
8.325513609274434
 22
17.27502002312898
 32
0.0
 13
8.325513609274434
 23
17.27502002312898
 33
0.0
  0
SOLID
  5
2809
330
2800
100
AcDbEntity
  8
Dimensions
 62
     0
440
 16777216
100
AcDbTrace
 10
8.308846942607766
 20
17.52502002312898
 30
0.0
 11
8.342180275941101
 21
17.52502002312898
 31
0.0
 12
8.325513609274434
 22
17.42502002312898
 32
0.0
 13
8.325513609274434
 23
17.42502002312898
 33
0.0
  0
MTEXT
  5
280A
330
2800
100
AcDbEntity
  8
Dimensions
 62
     0
440
 16777216
100
AcDbMText
 10
8.862730526054786
 20
18.16404959184487
 30
0.0
 40
0.12
 41
0.0
 46
0.0
 71
     5
 72
     1
  1
\A1;0.15 [3.81]
 73
     1
 44
1.0
  0
POINT
  5
280B
330
2800
100
AcDbEntity
  8
Defpoints
 62
     0
440
 16777216
100
AcDbPoint
 10
8.139032954269776
 20
17.42502002312898
 30
0.0
  0
POINT
  5
280C
330
2800
100
AcDbEntity
  8
Defpoints
 62
     0
440
 16777216
100
AcDbPoint
 10
7.689032954269773
 20
17.27502002312898
 30
0.0
  0
POINT
  5
280D
330
2800
100
AcDbEntity
  8
Defpoints
 62
     0
440
 16777216
100
AcDbPoint
 10
8.325513609274434
 20
17.27502002312898
 30
0.0
  0
ENDBLK
  5
2802
330
2800
100
AcDbEntity
  8
0
100
AcDbBlockEnd
  0
BLOCK
  5
280F
330
280E
100
AcDbEntity
  8
0
100
AcDbBlockBegin
  2
*D29
 70
     1
 10
0.0
 20
0.0
 30
0.0
  3
*D29
  1

  0
LINE
  5
2811
330
280E
100
AcDbEntity
  8
Dimensions
 62
     0
440
 16777216
370
    -2
100
AcDbLine
 10
8.101532954269774
 20
16.87502002312898
 30
0.0
 11
8.71475490608096
 21
16.87502002312898
 31
0.0
  0
LINE
  5
2812
330
280E
100
AcDbEntity
  8
Dimensions
 62
     0
440
 16777216
370
    -2
100
AcDbLine
 10
8.201532954269776
 20
17.42502002312898
 30
0.0
 11
8.71475490608096
 21
17.42502002312898
 31
0.0
  0
LINE
  5
2813
330
280E
100
AcDbEntity
  8
Dimensions
 62
     0
440
 16777216
370
    -2
100
AcDbLine
 10
8.56475490608096
 20
16.97502002312898
 30
0.0
 11
8.56475490608096
 21
17.32502002312898
 31
0.0
  0
LINE
  5
2814
330
280E
100
AcDbEntity
  8
Dimensions
 62
     0
440
 16777216
370
    -2
100
AcDbLine
 10
8.56475490608096
 20
17.42502002312898
 30
0.0
 11
8.56475490608096
 21
17.91401707412841
 31
0.0
  0
LINE
  5
2815
330
280E
100
AcDbEntity
  8
Dimensions
 62
     0
440
 16777216
370
    -2
100
AcDbLine
 10
8.56475490608096
 20
17.91401707412841
 30
0.0
 11
8.664754906080959
 21
17.91401707412841
 31
0.0
  0
SOLID
  5
2816
330
280E
100
AcDbEntity
  8
Dimensions
 62
     0
440
 16777216
100
AcDbTrace
 10
8.548088239414292
 20
16.97502002312898
 30
0.0
 11
8.581421572747627
 21
16.97502002312898
 31
0.0
 12
8.56475490608096
 22
16.87502002312898
 32
0.0
 13
8.56475490608096
 23
16.87502002312898
 33
0.0
  0
SOLID
  5
2817
330
280E
100
AcDbEntity
  8
Dimensions
 62
     0
440
 16777216
100
AcDbTrace
 10
8.548088239414292
 20
17.32502002312898
 30
0.0
 11
8.581421572747627
 21
17.32502002312898
 31
0.0
 12
8.56475490608096
 22
17.42502002312898
 32
0.0
 13
8.56475490608096
 23
17.42502002312898
 33
0.0
  0
MTEXT
  5
2818
330
280E
100
AcDbEntity
  8
Dimensions
 62
     0
440
 16777216
100
AcDbMText
 10
9.148588466790371
 20
17.91401707412842
 30
0.0
 40
0.12
 41
0.0
 46
0.0
 71
     5
 72
     1
  1
\A1;0.55 [13.97]
 73
     1
 44
1.0
  0
POINT
  5
2819
330
280E
100
AcDbEntity
  8
Defpoints
 62
     0
440
 16777216
100
AcDbPoint
 10
8.039032954269774
 20
16.87502002312898
 30
0.0
  0
POINT
  5
281A
330
280E
100
AcDbEntity
  8
Defpoints
 62
     0
440
 16777216
100
AcDbPoint
 10
8.139032954269776
 20
17.42502002312898
 30
0.0
  0
POINT
  5
281B
330
280E
100
AcDbEntity
  8
Defpoints
 62
     0
440
 16777216
100
AcDbPoint
 10
8.56475490608096
 20
17.42502002312898
 30
0.0
  0
ENDBLK
  5
2810
330
280E
100
AcDbEntity
  8
0
100
AcDbBlockEnd
  0
BLOCK
  5
281D
330
281C
100
AcDbEntity
  8
0
100
AcDbBlockBegin
  2
*D30
 70
     1
 10
0.0
 20
0.0
 30
0.0
  3
*D30
  1

  0
LINE
  5
281F
330
281C
100
AcDbEntity
  8
Dimensions
 62
     0
440
 16777216
370
    -2
100
AcDbLine
 10
7.751532954269773
 20
16.77502002312898
 30
0.0
 11
8.933850394443696
 21
16.77502002312898
 31
0.0
  0
LINE
  5
2820
330
281C
100
AcDbEntity
  8
Dimensions
 62
     0
440
 16777216
370
    -2
100
AcDbLine
 10
8.201532954269776
 20
17.42502002312898
 30
0.0
 11
8.933850394443696
 21
17.42502002312898
 31
0.0
  0
LINE
  5
2821
330
281C
100
AcDbEntity
  8
Dimensions
 62
     0
440
 16777216
370
    -2
100
AcDbLine
 10
8.783850394443696
 20
16.87502002312898
 30
0.0
 11
8.783850394443696
 21
17.32502002312898
 31
0.0
  0
LINE
  5
2822
330
281C
100
AcDbEntity
  8
Dimensions
 62
     0
440
 16777216
370
    -2
100
AcDbLine
 10
8.783850394443696
 20
17.42502002312898
 30
0.0
 11
8.783850394443696
 21
17.64800820763884
 31
0.0
  0
LINE
  5
2823
330
281C
100
AcDbEntity
  8
Dimensions
 62
     0
440
 16777216
370
    -2
100
AcDbLine
 10
8.783850394443696
 20
17.64800820763884
 30
0.0
 11
8.883850394443696
 21
17.64800820763884
 31
0.0
  0
SOLID
  5
2824
330
281C
100
AcDbEntity
  8
Dimensions
 62
     0
440
 16777216
100
AcDbTrace
 10
8.767183727777029
 20
16.87502002312898
 30
0.0
 11
8.800517061110364
 21
16.87502002312898
 31
0.0
 12
8.783850394443696
 22
16.77502002312898
 32
0.0
 13
8.783850394443696
 23
16.77502002312898
 33
0.0
  0
SOLID
  5
2825
330
281C
100
AcDbEntity
  8
Dimensions
 62
     0
440
 16777216
100
AcDbTrace
 10
8.767183727777029
 20
17.32502002312898
 30
0.0
 11
8.800517061110364
 21
17.32502002312898
 31
0.0
 12
8.783850394443696
 22
17.42502002312898
 32
0.0
 13
8.783850394443696
 23
17.42502002312898
 33
0.0
  0
MTEXT
  5
2826
330
281C
100
AcDbEntity
  8
Dimensions
 62
     0
440
 16777216
100
AcDbMText
 10
9.367683955153108
 20
17.64800820763885
 30
0.0
 40
0.12
 41
0.0
 46
0.0
 71
     5
 72
     1
  1
\A1;0.65 [16.51]
 73
     1
 44
1.0
  0
POINT
  5
2827
330
281C
100
AcDbEntity
  8
Defpoints
 62
     0
440
 16777216
100
AcDbPoint
 10
7.689032954269773
 20
16.77502002312898
 30
0.0
  0
POINT
  5
2828
330
281C
100
AcDbEntity
  8
Defpoints
 62
     0
440
 16777216
100
AcDbPoint
 10
8.139032954269776
 20
17.42502002312898
 30
0.0
  0
POINT
  5
2829
330
281C
100
AcDbEntity
  8
Defpoints
 62
     0
440
 16777216
100
AcDbPoint
 10
8.783850394443696
 20
17.42502002312898
 30
0.0
  0
ENDBLK
  5
281E
330
281C
100
AcDbEntity
  8
0
100
AcDbBlockEnd
  0
BLOCK
  5
282B
330
282A
100
AcDbEntity
  8
0
100
AcDbBlockBegin
  2
*D31
 70
     1
 10
0.0
 20
0.0
 30
0.0
  3
*D31
  1

  0
LINE
  5
282D
330
282A
100
AcDbEntity
  8
Dimensions
 62
     0
440
 16777216
370
    -2
100
AcDbLine
 10
6.676532954269774
 20
17.42502002312898
 30
0.0
 11
6.376532954269776
 21
17.42502002312898
 31
0.0
  0
LINE
  5
282E
330
282A
100
AcDbEntity
  8
Dimensions
 62
     0
440
 16777216
370
    -2
100
AcDbLine
 10
7.286532954269777
 20
16.68502002312898
 30
0.0
 11
6.376532954269776
 21
16.68502002312898
 31
0.0
  0
LINE
  5
282F
330
282A
100
AcDbEntity
  8
Dimensions
 62
     0
440
 16777216
370
    -2
100
AcDbLine
 10
6.526532954269776
 20
16.78502002312898
 30
0.0
 11
6.526532954269776
 21
17.32502002312898
 31
0.0
  0
LINE
  5
2830
330
282A
100
AcDbEntity
  8
Dimensions
 62
     0
440
 16777216
370
    -2
100
AcDbLine
 10
6.526532954269776
 20
17.42502002312898
 30
0.0
 11
6.526532954269776
 21
17.73926618353631
 31
0.0
  0
LINE
  5
2831
330
282A
100
AcDbEntity
  8
Dimensions
 62
     0
440
 16777216
370
    -2
100
AcDbLine
 10
6.526532954269776
 20
17.73926618353631
 30
0.0
 11
6.626532954269776
 21
17.73926618353631
 31
0.0
  0
SOLID
  5
2832
330
282A
100
AcDbEntity
  8
Dimensions
 62
     0
440
 16777216
100
AcDbTrace
 10
6.509866287603109
 20
16.78502002312898
 30
0.0
 11
6.543199620936443
 21
16.78502002312898
 31
0.0
 12
6.526532954269776
 22
16.68502002312898
 32
0.0
 13
6.526532954269776
 23
16.68502002312898
 33
0.0
  0
SOLID
  5
2833
330
282A
100
AcDbEntity
  8
Dimensions
 62
     0
440
 16777216
100
AcDbTrace
 10
6.509866287603109
 20
17.32502002312898
 30
0.0
 11
6.543199620936443
 21
17.32502002312898
 31
0.0
 12
6.526532954269776
 22
17.42502002312898
 32
0.0
 13
6.526532954269776
 23
17.42502002312898
 33
0.0
  0
MTEXT
  5
2834
330
282A
100
AcDbEntity
  8
Dimensions
 62
     0
440
 16777216
100
AcDbMText
 10
7.110366514979187
 20
17.73926618353631
 30
0.0
 40
0.12
 41
0.0
 46
0.0
 71
     5
 72
     1
  1
\A1;0.74 [18.80]
 73
     1
 44
1.0
  0
POINT
  5
2835
330
282A
100
AcDbEntity
  8
Defpoints
 62
     0
440
 16777216
100
AcDbPoint
 10
6.739032954269774
 20
17.42502002312898
 30
0.0
  0
POINT
  5
2836
330
282A
100
AcDbEntity
  8
Defpoints
 62
     0
440
 16777216
100
AcDbPoint
 10
7.349032954269777
 20
16.68502002312898
 30
0.0
  0
POINT
  5
2837
330
282A
100
AcDbEntity
  8
Defpoints
 62
     0
440
 16777216
100
AcDbPoint
 10
6.526532954269776
 20
16.68502002312898
 30
0.0
  0
ENDBLK
  5
282C
330
282A
100
AcDbEntity
  8
0
100
AcDbBlockEnd
  0
BLOCK
  5
2839
330
2838
100
AcDbEntity
  8
0
100
AcDbBlockBegin
  2
*D32
 70
     1
 10
0.0
 20
0.0
 30
0.0
  3
*D32
  1

  0
LINE
  5
283B
330
2838
100
AcDbEntity
  8
Dimensions
 62
     0
440
 16777216
370
    -2
100
AcDbLine
 10
6.676532954269774
 20
17.42502002312898
 30
0.0
 11
6.110522938690585
 21
17.42502002312898
 31
0.0
  0
LINE
  5
283C
330
2838
100
AcDbEntity
  8
Dimensions
 62
     0
440
 16777216
370
    -2
100
AcDbLine
 10
6.926532954269774
 20
16.52502002312898
 30
0.0
 11
6.110522938690585
 21
16.52502002312898
 31
0.0
  0
LINE
  5
283D
330
2838
100
AcDbEntity
  8
Dimensions
 62
     0
440
 16777216
370
    -2
100
AcDbLine
 10
6.260522938690585
 20
16.62502002312898
 30
0.0
 11
6.260522938690585
 21
17.32502002312898
 31
0.0
  0
LINE
  5
283E
330
2838
100
AcDbEntity
  8
Dimensions
 62
     0
440
 16777216
370
    -2
100
AcDbLine
 10
6.260522938690585
 20
17.42502002312898
 30
0.0
 11
6.260522938690585
 21
17.93413733053816
 31
0.0
  0
LINE
  5
283F
330
2838
100
AcDbEntity
  8
Dimensions
 62
     0
440
 16777216
370
    -2
100
AcDbLine
 10
6.260522938690585
 20
17.93413733053816
 30
0.0
 11
6.360522938690585
 21
17.93413733053816
 31
0.0
  0
SOLID
  5
2840
330
2838
100
AcDbEntity
  8
Dimensions
 62
     0
440
 16777216
100
AcDbTrace
 10
6.243856272023919
 20
16.62502002312898
 30
0.0
 11
6.277189605357252
 21
16.62502002312898
 31
0.0
 12
6.260522938690585
 22
16.52502002312898
 32
0.0
 13
6.260522938690585
 23
16.52502002312898
 33
0.0
  0
SOLID
  5
2841
330
2838
100
AcDbEntity
  8
Dimensions
 62
     0
440
 16777216
100
AcDbTrace
 10
6.243856272023919
 20
17.32502002312898
 30
0.0
 11
6.277189605357252
 21
17.32502002312898
 31
0.0
 12
6.260522938690585
 22
17.42502002312898
 32
0.0
 13
6.260522938690585
 23
17.42502002312898
 33
0.0
  0
MTEXT
  5
2842
330
2838
100
AcDbEntity
  8
Dimensions
 62
     0
440
 16777216
100
AcDbMText
 10
6.844356499399996
 20
17.93413733053816
 30
0.0
 40
0.12
 41
0.0
 46
0.0
 71
     5
 72
     1
  1
\A1;0.90 [22.86]
 73
     1
 44
1.0
  0
POINT
  5
2843
330
2838
100
AcDbEntity
  8
Defpoints
 62
     0
440
 16777216
100
AcDbPoint
 10
6.739032954269774
 20
17.42502002312898
 30
0.0
  0
POINT
  5
2844
330
2838
100
AcDbEntity
  8
Defpoints
 62
     0
440
 16777216
100
AcDbPoint
 10
6.989032954269774
 20
16.52502002312898
 30
0.0
  0
POINT
  5
2845
330
2838
100
AcDbEntity
  8
Defpoints
 62
     0
440
 16777216
100
AcDbPoint
 10
6.260522938690585
 20
16.52502002312898
 30
0.0
  0
ENDBLK
  5
283A
330
2838
100
AcDbEntity
  8
0
100
AcDbBlockEnd
  0
BLOCK
  5
2847
330
2846
100
AcDbEntity
  8
0
100
AcDbBlockBegin
  2
*D33
 70
     1
 10
0.0
 20
0.0
 30
0.0
  3
*D33
  1

  0
LINE
  5
2849
330
2846
100
AcDbEntity
  8
Dimensions
 62
     0
440
 16777216
370
    -2
100
AcDbLine
 10
6.676532954269774
 20
16.32502002312898
 30
0.0
 11
5.576391679647441
 21
16.32502002312898
 31
0.0
  0
LINE
  5
284A
330
2846
100
AcDbEntity
  8
Dimensions
 62
     0
440
 16777216
370
    -2
100
AcDbLine
 10
6.676532954269774
 20
17.42502002312898
 30
0.0
 11
5.576391679647441
 21
17.42502002312898
 31
0.0
  0
LINE
  5
284B
330
2846
100
AcDbEntity
  8
Dimensions
 62
     0
440
 16777216
370
    -2
100
AcDbLine
 10
5.726391679647441
 20
16.42502002312898
 30
0.0
 11
5.726391679647441
 21
16.74811688533907
 31
0.0
  0
LINE
  5
284C
330
2846
100
AcDbEntity
  8
Dimensions
 62
     0
440
 16777216
370
    -2
100
AcDbLine
 10
5.726391679647441
 20
17.32502002312898
 30
0.0
 11
5.726391679647441
 21
17.00192316091889
 31
0.0
  0
SOLID
  5
284D
330
2846
100
AcDbEntity
  8
Dimensions
 62
     0
440
 16777216
100
AcDbTrace
 10
5.709725012980775
 20
16.42502002312898
 30
0.0
 11
5.743058346314108
 21
16.42502002312898
 31
0.0
 12
5.726391679647441
 22
16.32502002312898
 32
0.0
 13
5.726391679647441
 23
16.32502002312898
 33
0.0
  0
SOLID
  5
284E
330
2846
100
AcDbEntity
  8
Dimensions
 62
     0
440
 16777216
100
AcDbTrace
 10
5.709725012980775
 20
17.32502002312898
 30
0.0
 11
5.743058346314108
 21
17.32502002312898
 31
0.0
 12
5.726391679647441
 22
17.42502002312898
 32
0.0
 13
5.726391679647441
 23
17.42502002312898
 33
0.0
  0
MTEXT
  5
284F
330
2846
100
AcDbEntity
  8
Dimensions
 62
     0
440
 16777216
100
AcDbMText
 10
5.726391679647439
 20
16.87502002312898
 30
0.0
 40
0.12
 41
0.0
 46
0.0
 71
     5
 72
     1
  1
\A1;1.10 [27.94]
 73
     1
 44
1.0
  0
POINT
  5
2850
330
2846
100
AcDbEntity
  8
Defpoints
 62
     0
440
 16777216
100
AcDbPoint
 10
6.739032954269774
 20
16.32502002312898
 30
0.0
  0
POINT
  5
2851
330
2846
100
AcDbEntity
  8
Defpoints
 62
     0
440
 16777216
100
AcDbPoint
 10
6.739032954269774
 20
17.42502002312898
 30
0.0
  0
POINT
  5
2852
330
2846
100
AcDbEntity
  8
Defpoints
 62
     0
440
 16777216
100
AcDbPoint
 10
5.726391679647441
 20
17.42502002312898
 30
0.0
  0
ENDBLK
  5
2848
330
2846
100
AcDbEntity
  8
0
100
AcDbBlockEnd
  0
BLOCK
  5
2854
330
2853
100
AcDbEntity
  8
0
100
AcDbBlockBegin
  2
*D34
 70
     1
 10
0.0
 20
0.0
 30
0.0
  3
*D34
  1

  0
LINE
  5
2856
330
2853
100
AcDbEntity
  8
Dimensions
 62
     0
440
 16777216
370
    -2
100
AcDbLine
 10
6.739032954269779
 20
11.54678533712865
 30
0.0
 11
6.739032954269779
 21
11.00421913455224
 31
0.0
  0
LINE
  5
2857
330
2853
100
AcDbEntity
  8
Dimensions
 62
     0
440
 16777216
370
    -2
100
AcDbLine
 10
8.139032954269778
 20
11.54678533712865
 30
0.0
 11
8.139032954269778
 21
11.00421913455224
 31
0.0
  0
LINE
  5
2858
330
2853
100
AcDbEntity
  8
Dimensions
 62
     0
440
 16777216
370
    -2
100
AcDbLine
 10
6.839032954269779
 20
11.15421913455224
 30
0.0
 11
6.960847415388469
 21
11.15421913455224
 31
0.0
  0
LINE
  5
2859
330
2853
100
AcDbEntity
  8
Dimensions
 62
     0
440
 16777216
370
    -2
100
AcDbLine
 10
8.039032954269778
 20
11.15421913455224
 30
0.0
 11
7.917218493151088
 21
11.15421913455224
 31
0.0
  0
SOLID
  5
285A
330
2853
100
AcDbEntity
  8
Dimensions
 62
     0
440
 16777216
100
AcDbTrace
 10
6.839032954269779
 20
11.17088580121891
 30
0.0
 11
6.839032954269779
 21
11.13755246788557
 31
0.0
 12
6.739032954269779
 22
11.15421913455224
 32
0.0
 13
6.739032954269779
 23
11.15421913455224
 33
0.0
  0
SOLID
  5
285B
330
2853
100
AcDbEntity
  8
Dimensions
 62
     0
440
 16777216
100
AcDbTrace
 10
8.039032954269778
 20
11.17088580121891
 30
0.0
 11
8.039032954269778
 21
11.13755246788557
 31
0.0
 12
8.139032954269778
 22
11.15421913455224
 32
0.0
 13
8.139032954269778
 23
11.15421913455224
 33
0.0
  0
MTEXT
  5
285C
330
2853
100
AcDbEntity
  8
Dimensions
 62
     0
440
 16777216
100
AcDbMText
 10
7.439032954269778
 20
11.15421913455224
 30
0.0
 40
0.12
 41
0.0
 46
0.0
 71
     5
 72
     1
  1
\A1;1.40 [35.56]
 73
     1
 44
1.0
  0
POINT
  5
285D
330
2853
100
AcDbEntity
  8
Defpoints
 62
     0
440
 16777216
100
AcDbPoint
 10
6.739032954269779
 20
11.60928533712865
 30
0.0
  0
POINT
  5
285E
330
2853
100
AcDbEntity
  8
Defpoints
 62
     0
440
 16777216
100
AcDbPoint
 10
8.139032954269778
 20
11.60928533712865
 30
0.0
  0
POINT
  5
285F
330
2853
100
AcDbEntity
  8
Defpoints
 62
     0
440
 16777216
100
AcDbPoint
 10
8.139032954269778
 20
11.15421913455224
 30
0.0
  0
ENDBLK
  5
2855
330
2853
100
AcDbEntity
  8
0
100
AcDbBlockEnd
  0
BLOCK
  5
2861
330
2860
100
AcDbEntity
  8
0
100
AcDbBlockBegin
  2
*D35
 70
     1
 10
0.0
 20
0.0
 30
0.0
  3
*D35
  1

  0
LINE
  5
2863
330
2860
100
AcDbEntity
  8
Dimensions
 62
     0
440
 16777216
370
    -2
100
AcDbLine
 10
8.130822276151123
 20
11.53857465900999
 30
0.0
 11
8.59235096192299
 21
11.53857465900999
 31
0.0
  0
LINE
  5
2864
330
2860
100
AcDbEntity
  8
Dimensions
 62
     0
440
 16777216
370
    -2
100
AcDbLine
 10
8.201532954269778
 20
12.03857465900999
 30
0.0
 11
8.592350961922992
 21
12.03857465900999
 31
0.0
  0
LINE
  5
2865
330
2860
100
AcDbEntity
  8
Dimensions
 62
     0
440
 16777216
370
    -2
100
AcDbLine
 10
8.44235096192299
 20
11.63857465900999
 30
0.0
 11
8.44235096192299
 21
11.93857465900999
 31
0.0
  0
LINE
  5
2866
330
2860
100
AcDbEntity
  8
Dimensions
 62
     0
440
 16777216
370
    -2
100
AcDbLine
 10
8.442350961922992
 20
12.03857465900999
 30
0.0
 11
8.442350961922992
 21
12.74671159966693
 31
0.0
  0
LINE
  5
2867
330
2860
100
AcDbEntity
  8
Dimensions
 62
     0
440
 16777216
370
    -2
100
AcDbLine
 10
8.442350961922992
 20
12.74671159966693
 30
0.0
 11
8.542350961922991
 21
12.74671159966693
 31
0.0
  0
SOLID
  5
2868
330
2860
100
AcDbEntity
  8
Dimensions
 62
     0
440
 16777216
100
AcDbTrace
 10
8.425684295256322
 20
11.63857465900999
 30
0.0
 11
8.459017628589657
 21
11.63857465900999
 31
0.0
 12
8.44235096192299
 22
11.53857465900999
 32
0.0
 13
8.44235096192299
 23
11.53857465900999
 33
0.0
  0
SOLID
  5
2869
330
2860
100
AcDbEntity
  8
Dimensions
 62
     0
440
 16777216
100
AcDbTrace
 10
8.425684295256322
 20
11.93857465900999
 30
0.0
 11
8.459017628589657
 21
11.93857465900999
 31
0.0
 12
8.442350961922992
 22
12.03857465900999
 32
0.0
 13
8.442350961922992
 23
12.03857465900999
 33
0.0
  0
MTEXT
  5
286A
330
2860
100
AcDbEntity
  8
Dimensions
 62
     0
440
 16777216
100
AcDbMText
 10
9.026184522632402
 20
12.74671159966693
 30
0.0
 40
0.12
 41
0.0
 46
0.0
 71
     5
 72
     1
  1
\A1;0.50 [12.70]
 73
     1
 44
1.0
  0
POINT
  5
286B
330
2860
100
AcDbEntity
  8
Defpoints
 62
     0
440
 16777216
100
AcDbPoint
 10
8.068322276151123
 20
11.53857465900999
 30
0.0
  0
POINT
  5
286C
330
2860
100
AcDbEntity
  8
Defpoints
 62
     0
440
 16777216
100
AcDbPoint
 10
8.139032954269778
 20
12.03857465900999
 30
0.0
  0
POINT
  5
286D
330
2860
100
AcDbEntity
  8
Defpoints
 62
     0
440
 16777216
100
AcDbPoint
 10
8.442350961922992
 20
12.03857465900999
 30
0.0
  0
ENDBLK
  5
2862
330
2860
100
AcDbEntity
  8
0
100
AcDbBlockEnd
  0
BLOCK
  5
286F
330
286E
100
AcDbEntity
  8
0
100
AcDbBlockBegin
  2
*D36
 70
     1
 10
0.0
 20
0.0
 30
0.0
  3
*D36
  1

  0
LINE
  5
2871
330
286E
100
AcDbEntity
  8
Dimensions
 62
     0
440
 16777216
370
    -2
100
AcDbLine
 10
6.906532954269779
 20
12.23857465900999
 30
0.0
 11
6.214185490920113
 21
12.23857465900999
 31
0.0
  0
LINE
  5
2872
330
286E
100
AcDbEntity
  8
Dimensions
 62
     0
440
 16777216
370
    -2
100
AcDbLine
 10
6.676532954269779
 20
12.03857465900999
 30
0.0
 11
6.214185490920113
 21
12.03857465900999
 31
0.0
  0
LINE
  5
2873
330
286E
100
AcDbEntity
  8
Dimensions
 62
     0
440
 16777216
370
    -2
100
AcDbLine
 10
6.364185490920113
 20
12.33857465900999
 30
0.0
 11
6.364185490920113
 21
12.43857465900999
 31
0.0
  0
LINE
  5
2874
330
286E
100
AcDbEntity
  8
Dimensions
 62
     0
440
 16777216
370
    -2
100
AcDbLine
 10
6.364185490920113
 20
11.93857465900999
 30
0.0
 11
6.364185490920113
 21
11.25121397932369
 31
0.0
  0
LINE
  5
2875
330
286E
100
AcDbEntity
  8
Dimensions
 62
     0
440
 16777216
370
    -2
100
AcDbLine
 10
6.364185490920113
 20
11.25121397932369
 30
0.0
 11
6.264185490920113
 21
11.25121397932369
 31
0.0
  0
SOLID
  5
2876
330
286E
100
AcDbEntity
  8
Dimensions
 62
     0
440
 16777216
100
AcDbTrace
 10
6.347518824253446
 20
12.33857465900999
 30
0.0
 11
6.38085215758678
 21
12.33857465900999
 31
0.0
 12
6.364185490920113
 22
12.23857465900999
 32
0.0
 13
6.364185490920113
 23
12.23857465900999
 33
0.0
  0
SOLID
  5
2877
330
286E
100
AcDbEntity
  8
Dimensions
 62
     0
440
 16777216
100
AcDbTrace
 10
6.347518824253446
 20
11.93857465900999
 30
0.0
 11
6.38085215758678
 21
11.93857465900999
 31
0.0
 12
6.364185490920113
 22
12.03857465900999
 32
0.0
 13
6.364185490920113
 23
12.03857465900999
 33
0.0
  0
MTEXT
  5
2878
330
286E
100
AcDbEntity
  8
Dimensions
 62
     0
440
 16777216
100
AcDbMText
 10
5.198196404971953
 20
11.25121397932369
 30
0.0
 40
0.12
 41
0.0
 46
0.0
 71
     5
 72
     1
  1
\A1;0.20 [5.08]  Min. Pin Length
 73
     1
 44
1.0
  0
POINT
  5
2879
330
286E
100
AcDbEntity
  8
Defpoints
 62
     0
440
 16777216
100
AcDbPoint
 10
6.969032954269779
 20
12.23857465900999
 30
0.0
  0
POINT
  5
287A
330
286E
100
AcDbEntity
  8
Defpoints
 62
     0
440
 16777216
100
AcDbPoint
 10
6.739032954269779
 20
12.03857465900999
 30
0.0
  0
POINT
  5
287B
330
286E
100
AcDbEntity
  8
Defpoints
 62
     0
440
 16777216
100
AcDbPoint
 10
6.364185490920113
 20
12.03857465900999
 30
0.0
  0
ENDBLK
  5
2870
330
286E
100
AcDbEntity
  8
0
100
AcDbBlockEnd
  0
BLOCK
  5
287D
330
287C
100
AcDbEntity
  8
0
100
AcDbBlockBegin
  2
*D37
 70
     1
 10
0.0
 20
0.0
 30
0.0
  3
*D37
  1

  0
LINE
  5
287F
330
287C
100
AcDbEntity
  8
Dimensions
 62
     0
440
 16777216
370
    -2
100
AcDbLine
 10
26.78028447816098
 20
16.93752002312897
 30
0.0
 11
26.78028447816098
 21
18.39293181630888
 31
0.0
  0
LINE
  5
2880
330
287C
100
AcDbEntity
  8
Dimensions
 62
     0
440
 16777216
370
    -2
100
AcDbLine
 10
29.13028447816098
 20
16.93752002312897
 30
0.0
 11
29.13028447816098
 21
18.39293181630888
 31
0.0
  0
LINE
  5
2881
330
287C
100
AcDbEntity
  8
Dimensions
 62
     0
440
 16777216
370
    -2
100
AcDbLine
 10
26.88028447816098
 20
18.24293181630888
 30
0.0
 11
27.47042772509141
 21
18.24293181630888
 31
0.0
  0
LINE
  5
2882
330
287C
100
AcDbEntity
  8
Dimensions
 62
     0
440
 16777216
370
    -2
100
AcDbLine
 10
29.03028447816098
 20
18.24293181630888
 30
0.0
 11
28.44014123123056
 21
18.24293181630888
 31
0.0
  0
SOLID
  5
2883
330
287C
100
AcDbEntity
  8
Dimensions
 62
     0
440
 16777216
100
AcDbTrace
 10
26.88028447816098
 20
18.25959848297555
 30
0.0
 11
26.88028447816098
 21
18.22626514964222
 31
0.0
 12
26.78028447816098
 22
18.24293181630888
 32
0.0
 13
26.78028447816098
 23
18.24293181630888
 33
0.0
  0
SOLID
  5
2884
330
287C
100
AcDbEntity
  8
Dimensions
 62
     0
440
 16777216
100
AcDbTrace
 10
29.03028447816098
 20
18.25959848297555
 30
0.0
 11
29.03028447816098
 21
18.22626514964222
 31
0.0
 12
29.13028447816098
 22
18.24293181630888
 32
0.0
 13
29.13028447816098
 23
18.24293181630888
 33
0.0
  0
MTEXT
  5
2885
330
287C
100
AcDbEntity
  8
Dimensions
 62
     0
440
 16777216
100
AcDbMText
 10
27.95528447816098
 20
18.24293181630888
 30
0.0
 40
0.12
 41
0.0
 46
0.0
 71
     5
 72
     1
  1
\A1;2.35 [59.69]
 73
     1
 44
1.0
  0
POINT
  5
2886
330
287C
100
AcDbEntity
  8
Defpoints
 62
     0
440
 16777216
100
AcDbPoint
 10
26.78028447816098
 20
16.87502002312897
 30
0.0
  0
POINT
  5
2887
330
287C
100
AcDbEntity
  8
Defpoints
 62
     0
440
 16777216
100
AcDbPoint
 10
29.13028447816098
 20
16.87502002312897
 30
0.0
  0
POINT
  5
2888
330
287C
100
AcDbEntity
  8
Defpoints
 62
     0
440
 16777216
100
AcDbPoint
 10
29.13028447816098
 20
18.24293181630888
 30
0.0
  0
ENDBLK
  5
287E
330
287C
100
AcDbEntity
  8
0
100
AcDbBlockEnd
  0
BLOCK
  5
28A9
330
28A8
100
AcDbEntity
  8
0
100
AcDbBlockBegin
  2
*D38
 70
     1
 10
0.0
 20
0.0
 30
0.0
  3
*D38
  1

  0
LINE
  5
28AB
330
28A8
100
AcDbEntity
  8
Dimensions
 62
     0
440
 16777216
370
    -2
100
AcDbLine
 10
26.90528447816099
 20
11.53859656685818
 30
0.0
 11
26.90528447816099
 21
11.17483500355101
 31
0.0
  0
LINE
  5
28AC
330
28A8
100
AcDbEntity
  8
Dimensions
 62
     0
440
 16777216
370
    -2
100
AcDbLine
 10
29.00528447816098
 20
11.57507465900978
 30
0.0
 11
29.00528447816098
 21
11.17483500355101
 31
0.0
  0
LINE
  5
28AD
330
28A8
100
AcDbEntity
  8
Dimensions
 62
     0
440
 16777216
370
    -2
100
AcDbLine
 10
27.00528447816099
 20
11.32483500355101
 30
0.0
 11
27.47042772509141
 21
11.32483500355101
 31
0.0
  0
LINE
  5
28AE
330
28A8
100
AcDbEntity
  8
Dimensions
 62
     0
440
 16777216
370
    -2
100
AcDbLine
 10
28.90528447816098
 20
11.32483500355101
 30
0.0
 11
28.44014123123056
 21
11.32483500355101
 31
0.0
  0
SOLID
  5
28AF
330
28A8
100
AcDbEntity
  8
Dimensions
 62
     0
440
 16777216
100
AcDbTrace
 10
27.00528447816099
 20
11.34150167021768
 30
0.0
 11
27.00528447816099
 21
11.30816833688434
 31
0.0
 12
26.90528447816099
 22
11.32483500355101
 32
0.0
 13
26.90528447816099
 23
11.32483500355101
 33
0.0
  0
SOLID
  5
28B0
330
28A8
100
AcDbEntity
  8
Dimensions
 62
     0
440
 16777216
100
AcDbTrace
 10
28.90528447816098
 20
11.34150167021768
 30
0.0
 11
28.90528447816098
 21
11.30816833688434
 31
0.0
 12
29.00528447816098
 22
11.32483500355101
 32
0.0
 13
29.00528447816098
 23
11.32483500355101
 33
0.0
  0
MTEXT
  5
28B1
330
28A8
100
AcDbEntity
  8
Dimensions
 62
     0
440
 16777216
100
AcDbMText
 10
27.95528447816098
 20
11.32483500355101
 30
0.0
 40
0.12
 41
0.0
 46
0.0
 71
     5
 72
     1
  1
\A1;2.10 [53.34]
 73
     1
 44
1.0
  0
POINT
  5
28B2
330
28A8
100
AcDbEntity
  8
Defpoints
 62
     0
440
 16777216
100
AcDbPoint
 10
26.90528447816099
 20
11.60109656685818
 30
0.0
  0
POINT
  5
28B3
330
28A8
100
AcDbEntity
  8
Defpoints
 62
     0
440
 16777216
100
AcDbPoint
 10
29.00528447816098
 20
11.63757465900978
 30
0.0
  0
POINT
  5
28B4
330
28A8
100
AcDbEntity
  8
Defpoints
 62
     0
440
 16777216
100
AcDbPoint
 10
29.00528447816098
 20
11.32483500355101
 30
0.0
  0
ENDBLK
  5
28AA
330
28A8
100
AcDbEntity
  8
0
100
AcDbBlockEnd
  0
BLOCK
  5
28B6
330
28B5
100
AcDbEntity
  8
0
100
AcDbBlockBegin
  2
*D39
 70
     1
 10
0.0
 20
0.0
 30
0.0
  3
*D39
  1

  0
LINE
  5
28B8
330
28B5
100
AcDbEntity
  8
Dimensions
 62
     0
440
 16777216
370
    -2
100
AcDbLine
 10
26.65528447816099
 20
12.10007465900979
 30
0.0
 11
26.65528447816099
 21
12.63923467544952
 31
0.0
  0
LINE
  5
28B9
330
28B5
100
AcDbEntity
  8
Dimensions
 62
     0
440
 16777216
370
    -2
100
AcDbLine
 10
29.25528447816099
 20
12.10007465900979
 30
0.0
 11
29.25528447816099
 21
12.63923467544952
 31
0.0
  0
LINE
  5
28BA
330
28B5
100
AcDbEntity
  8
Dimensions
 62
     0
440
 16777216
370
    -2
100
AcDbLine
 10
26.75528447816099
 20
12.48923467544952
 30
0.0
 11
27.47042772509141
 21
12.48923467544952
 31
0.0
  0
LINE
  5
28BB
330
28B5
100
AcDbEntity
  8
Dimensions
 62
     0
440
 16777216
370
    -2
100
AcDbLine
 10
29.15528447816098
 20
12.48923467544952
 30
0.0
 11
28.44014123123056
 21
12.48923467544952
 31
0.0
  0
SOLID
  5
28BC
330
28B5
100
AcDbEntity
  8
Dimensions
 62
     0
440
 16777216
100
AcDbTrace
 10
26.75528447816099
 20
12.50590134211619
 30
0.0
 11
26.75528447816099
 21
12.47256800878285
 31
0.0
 12
26.65528447816099
 22
12.48923467544952
 32
0.0
 13
26.65528447816099
 23
12.48923467544952
 33
0.0
  0
SOLID
  5
28BD
330
28B5
100
AcDbEntity
  8
Dimensions
 62
     0
440
 16777216
100
AcDbTrace
 10
29.15528447816098
 20
12.50590134211619
 30
0.0
 11
29.15528447816098
 21
12.47256800878285
 31
0.0
 12
29.25528447816099
 22
12.48923467544952
 32
0.0
 13
29.25528447816099
 23
12.48923467544952
 33
0.0
  0
MTEXT
  5
28BE
330
28B5
100
AcDbEntity
  8
Dimensions
 62
     0
440
 16777216
100
AcDbMText
 10
27.95528447816098
 20
12.48923467544952
 30
0.0
 40
0.12
 41
0.0
 46
0.0
 71
     5
 72
     1
  1
\A1;2.60 [66.04]
 73
     1
 44
1.0
  0
POINT
  5
28BF
330
28B5
100
AcDbEntity
  8
Defpoints
 62
     0
440
 16777216
100
AcDbPoint
 10
26.65528447816099
 20
12.03757465900979
 30
0.0
  0
POINT
  5
28C0
330
28B5
100
AcDbEntity
  8
Defpoints
 62
     0
440
 16777216
100
AcDbPoint
 10
29.25528447816099
 20
12.03757465900979
 30
0.0
  0
POINT
  5
28C1
330
28B5
100
AcDbEntity
  8
Defpoints
 62
     0
440
 16777216
100
AcDbPoint
 10
29.25528447816099
 20
12.48923467544952
 30
0.0
  0
ENDBLK
  5
28B7
330
28B5
100
AcDbEntity
  8
0
100
AcDbBlockEnd
  0
BLOCK
  5
28C3
330
28C2
100
AcDbEntity
  8
0
100
AcDbBlockBegin
  2
*D40
 70
     1
 10
0.0
 20
0.0
 30
0.0
  3
*D40
  1

  0
LINE
  5
28C5
330
28C2
100
AcDbEntity
  8
Dimensions
 62
     0
440
 16777216
370
    -2
100
AcDbLine
 10
28.96778447816099
 20
11.53757465900979
 30
0.0
 11
29.6155891435734
 21
11.53757465900979
 31
0.0
  0
LINE
  5
28C6
330
28C2
100
AcDbEntity
  8
Dimensions
 62
     0
440
 16777216
370
    -2
100
AcDbLine
 10
29.31694428219091
 20
12.03757465900979
 30
0.0
 11
29.6155891435734
 21
12.03757465900979
 31
0.0
  0
LINE
  5
28C7
330
28C2
100
AcDbEntity
  8
Dimensions
 62
     0
440
 16777216
370
    -2
100
AcDbLine
 10
29.4655891435734
 20
11.63757465900979
 30
0.0
 11
29.4655891435734
 21
11.93757465900979
 31
0.0
  0
LINE
  5
28C8
330
28C2
100
AcDbEntity
  8
Dimensions
 62
     0
440
 16777216
370
    -2
100
AcDbLine
 10
29.5655891435734
 20
11.39150135114241
 30
0.0
 11
29.4655891435734
 21
11.39150135114241
 31
0.0
  0
LINE
  5
28C9
330
28C2
100
AcDbEntity
  8
Dimensions
 62
     0
440
 16777216
370
    -2
100
AcDbLine
 10
29.4655891435734
 20
11.39150135114241
 30
0.0
 11
29.4655891435734
 21
11.53757465900979
 31
0.0
  0
MTEXT
  5
28CA
330
28C2
100
AcDbEntity
  8
Dimensions
 62
     0
440
 16777216
100
AcDbMText
 10
30.04942270428281
 20
11.39150135114242
 30
0.0
 40
0.12
 41
0.0
 46
0.0
 71
     5
 72
     1
  1
\A1;0.50 [12.70]
 73
     1
 44
1.0
  0
SOLID
  5
28CB
330
28C2
100
AcDbEntity
  8
Dimensions
 62
     0
440
 16777216
100
AcDbTrace
 10
29.44892247690674
 20
11.63757465900979
 30
0.0
 11
29.48225581024006
 21
11.63757465900979
 31
0.0
 12
29.4655891435734
 22
11.53757465900979
 32
0.0
 13
29.4655891435734
 23
11.53757465900979
 33
0.0
  0
SOLID
  5
28CC
330
28C2
100
AcDbEntity
  8
Dimensions
 62
     0
440
 16777216
100
AcDbTrace
 10
29.44892247690674
 20
11.93757465900979
 30
0.0
 11
29.48225581024006
 21
11.93757465900979
 31
0.0
 12
29.4655891435734
 22
12.03757465900979
 32
0.0
 13
29.4655891435734
 23
12.03757465900979
 33
0.0
  0
POINT
  5
28CD
330
28C2
100
AcDbEntity
  8
Defpoints
 62
     0
440
 16777216
100
AcDbPoint
 10
28.90528447816098
 20
11.53757465900979
 30
0.0
  0
POINT
  5
28CE
330
28C2
100
AcDbEntity
  8
Defpoints
 62
     0
440
 16777216
100
AcDbPoint
 10
29.25444428219091
 20
12.03757465900979
 30
0.0
  0
POINT
  5
28CF
330
28C2
100
AcDbEntity
  8
Defpoints
 62
     0
440
 16777216
100
AcDbPoint
 10
29.4655891435734
 20
12.03757465900979
 30
0.0
  0
ENDBLK
  5
28C4
330
28C2
100
AcDbEntity
  8
0
100
AcDbBlockEnd
  0
BLOCK
  5
28D1
330
28D0
100
AcDbEntity
  8
0
100
AcDbBlockBegin
  2
*D41
 70
     1
 10
0.0
 20
0.0
 30
0.0
  3
*D41
  1

  0
LINE
  5
28D3
330
28D0
100
AcDbEntity
  8
Dimensions
 62
     0
440
 16777216
370
    -2
100
AcDbLine
 10
26.78028447816098
 20
16.81252002312897
 30
0.0
 11
26.78028447816098
 21
15.98348120423323
 31
0.0
  0
LINE
  5
28D4
330
28D0
100
AcDbEntity
  8
Dimensions
 62
     0
440
 16777216
370
    -2
100
AcDbLine
 10
27.98028447816098
 20
16.71252002312897
 30
0.0
 11
27.98028447816098
 21
15.98348120423323
 31
0.0
  0
LINE
  5
28D5
330
28D0
100
AcDbEntity
  8
Dimensions
 62
     0
440
 16777216
370
    -2
100
AcDbLine
 10
27.88028447816098
 20
16.13348120423323
 30
0.0
 11
26.88028447816098
 21
16.13348120423323
 31
0.0
  0
LINE
  5
28D6
330
28D0
100
AcDbEntity
  8
Dimensions
 62
     0
440
 16777216
370
    -2
100
AcDbLine
 10
26.78028447816098
 20
16.13348120423323
 30
0.0
 11
26.58705119030287
 21
16.13348120423323
 31
0.0
  0
SOLID
  5
28D7
330
28D0
100
AcDbEntity
  8
Dimensions
 62
     0
440
 16777216
100
AcDbTrace
 10
27.88028447816098
 20
16.1501478708999
 30
0.0
 11
27.88028447816098
 21
16.11681453756657
 31
0.0
 12
27.98028447816098
 22
16.13348120423323
 32
0.0
 13
27.98028447816098
 23
16.13348120423323
 33
0.0
  0
SOLID
  5
28D8
330
28D0
100
AcDbEntity
  8
Dimensions
 62
     0
440
 16777216
100
AcDbTrace
 10
26.88028447816098
 20
16.1501478708999
 30
0.0
 11
26.88028447816098
 21
16.11681453756657
 31
0.0
 12
26.78028447816098
 22
16.13348120423323
 32
0.0
 13
26.78028447816098
 23
16.13348120423323
 33
0.0
  0
MTEXT
  5
28D9
330
28D0
100
AcDbEntity
  8
Dimensions
 62
     0
440
 16777216
100
AcDbMText
 10
26.10886565142156
 20
16.13348120423323
 30
0.0
 40
0.12
 41
0.0
 46
0.0
 71
     5
 72
     1
  1
\A1;1.20 [30.48]
 73
     1
 44
1.0
  0
POINT
  5
28DA
330
28D0
100
AcDbEntity
  8
Defpoints
 62
     0
440
 16777216
100
AcDbPoint
 10
26.78028447816098
 20
16.87502002312897
 30
0.0
  0
POINT
  5
28DB
330
28D0
100
AcDbEntity
  8
Defpoints
 62
     0
440
 16777216
100
AcDbPoint
 10
27.98028447816098
 20
16.77502002312897
 30
0.0
  0
POINT
  5
28DC
330
28D0
100
AcDbEntity
  8
Defpoints
 62
     0
440
 16777216
100
AcDbPoint
 10
27.98028447816098
 20
16.13348120423323
 30
0.0
  0
ENDBLK
  5
28D2
330
28D0
100
AcDbEntity
  8
0
100
AcDbBlockEnd
  0
BLOCK
  5
28DE
330
28DD
100
AcDbEntity
  8
0
100
AcDbBlockBegin
  2
*D42
 70
     1
 10
0.0
 20
0.0
 30
0.0
  3
*D42
  1

  0
LINE
  5
28E0
330
28DD
100
AcDbEntity
  8
Dimensions
 62
     0
440
 16777216
370
    -2
100
AcDbLine
 10
26.78028447816098
 20
16.81252002312897
 30
0.0
 11
26.78028447816098
 21
15.73348120423323
 31
0.0
  0
LINE
  5
28E1
330
28DD
100
AcDbEntity
  8
Dimensions
 62
     0
440
 16777216
370
    -2
100
AcDbLine
 10
28.16028447816098
 20
16.61252002312898
 30
0.0
 11
28.16028447816098
 21
15.73348120423323
 31
0.0
  0
LINE
  5
28E2
330
28DD
100
AcDbEntity
  8
Dimensions
 62
     0
440
 16777216
370
    -2
100
AcDbLine
 10
28.06028447816098
 20
15.88348120423323
 30
0.0
 11
26.88028447816098
 21
15.88348120423323
 31
0.0
  0
LINE
  5
28E3
330
28DD
100
AcDbEntity
  8
Dimensions
 62
     0
440
 16777216
370
    -2
100
AcDbLine
 10
26.78028447816098
 20
15.88348120423323
 30
0.0
 11
26.58705119030287
 21
15.88348120423323
 31
0.0
  0
SOLID
  5
28E4
330
28DD
100
AcDbEntity
  8
Dimensions
 62
     0
440
 16777216
100
AcDbTrace
 10
28.06028447816098
 20
15.9001478708999
 30
0.0
 11
28.06028447816098
 21
15.86681453756656
 31
0.0
 12
28.16028447816098
 22
15.88348120423323
 32
0.0
 13
28.16028447816098
 23
15.88348120423323
 33
0.0
  0
SOLID
  5
28E5
330
28DD
100
AcDbEntity
  8
Dimensions
 62
     0
440
 16777216
100
AcDbTrace
 10
26.88028447816098
 20
15.9001478708999
 30
0.0
 11
26.88028447816098
 21
15.86681453756656
 31
0.0
 12
26.78028447816098
 22
15.88348120423323
 32
0.0
 13
26.78028447816098
 23
15.88348120423323
 33
0.0
  0
MTEXT
  5
28E6
330
28DD
100
AcDbEntity
  8
Dimensions
 62
     0
440
 16777216
100
AcDbMText
 10
26.10886565142156
 20
15.88348120423323
 30
0.0
 40
0.12
 41
0.0
 46
0.0
 71
     5
 72
     1
  1
\A1;1.38 [35.05]
 73
     1
 44
1.0
  0
POINT
  5
28E7
330
28DD
100
AcDbEntity
  8
Defpoints
 62
     0
440
 16777216
100
AcDbPoint
 10
26.78028447816098
 20
16.87502002312897
 30
0.0
  0
POINT
  5
28E8
330
28DD
100
AcDbEntity
  8
Defpoints
 62
     0
440
 16777216
100
AcDbPoint
 10
28.16028447816098
 20
16.67502002312898
 30
0.0
  0
POINT
  5
28E9
330
28DD
100
AcDbEntity
  8
Defpoints
 62
     0
440
 16777216
100
AcDbPoint
 10
28.16028447816098
 20
15.88348120423323
 30
0.0
  0
ENDBLK
  5
28DF
330
28DD
100
AcDbEntity
  8
0
100
AcDbBlockEnd
  0
BLOCK
  5
2915
330
2914
100
AcDbEntity
  8
0
100
AcDbBlockBegin
  2
*D43
 70
     1
 10
0.0
 20
0.0
 30
0.0
  3
*D43
  1

  0
LINE
  5
2917
330
2914
100
AcDbEntity
  8
Dimensions
 62
     0
440
 16777216
370
    -2
100
AcDbLine
 10
29.06778447816098
 20
16.32502002312898
 30
0.0
 11
30.06972413550098
 21
16.32502002312898
 31
0.0
  0
LINE
  5
2918
330
2914
100
AcDbEntity
  8
Dimensions
 62
     0
440
 16777216
370
    -2
100
AcDbLine
 10
29.19278447816098
 20
16.87502002312897
 30
0.0
 11
30.06972413550098
 21
16.87502002312897
 31
0.0
  0
LINE
  5
2919
330
2914
100
AcDbEntity
  8
Dimensions
 62
     0
440
 16777216
370
    -2
100
AcDbLine
 10
29.91972413550099
 20
16.77502002312897
 30
0.0
 11
29.91972413550099
 21
16.42502002312898
 31
0.0
  0
LINE
  5
291A
330
2914
100
AcDbEntity
  8
Dimensions
 62
     0
440
 16777216
370
    -2
100
AcDbLine
 10
29.91972413550099
 20
16.32502002312898
 30
0.0
 11
29.91972413550099
 21
15.69330073225956
 31
0.0
  0
LINE
  5
291B
330
2914
100
AcDbEntity
  8
Dimensions
 62
     0
440
 16777216
370
    -2
100
AcDbLine
 10
29.91972413550099
 20
15.69330073225956
 30
0.0
 11
29.81972413550098
 21
15.69330073225956
 31
0.0
  0
SOLID
  5
291C
330
2914
100
AcDbEntity
  8
Dimensions
 62
     0
440
 16777216
100
AcDbTrace
 10
29.90305746883432
 20
16.77502002312897
 30
0.0
 11
29.93639080216765
 21
16.77502002312897
 31
0.0
 12
29.91972413550099
 22
16.87502002312897
 32
0.0
 13
29.91972413550099
 23
16.87502002312897
 33
0.0
  0
SOLID
  5
291D
330
2914
100
AcDbEntity
  8
Dimensions
 62
     0
440
 16777216
100
AcDbTrace
 10
29.90305746883432
 20
16.42502002312898
 30
0.0
 11
29.93639080216765
 21
16.42502002312898
 31
0.0
 12
29.91972413550099
 22
16.32502002312898
 32
0.0
 13
29.91972413550099
 23
16.32502002312898
 33
0.0
  0
MTEXT
  5
291E
330
2914
100
AcDbEntity
  8
Dimensions
 62
     0
440
 16777216
100
AcDbMText
 10
29.33589057479157
 20
15.69330073225956
 30
0.0
 40
0.12
 41
0.0
 46
0.0
 71
     5
 72
     1
  1
\A1;0.55 [13.97]
 73
     1
 44
1.0
  0
POINT
  5
291F
330
2914
100
AcDbEntity
  8
Defpoints
 62
     0
440
 16777216
100
AcDbPoint
 10
29.00528447816098
 20
16.32502002312898
 30
0.0
  0
POINT
  5
2920
330
2914
100
AcDbEntity
  8
Defpoints
 62
     0
440
 16777216
100
AcDbPoint
 10
29.13028447816098
 20
16.87502002312897
 30
0.0
  0
POINT
  5
2921
330
2914
100
AcDbEntity
  8
Defpoints
 62
     0
440
 16777216
100
AcDbPoint
 10
29.91972413550099
 20
16.87502002312897
 30
0.0
  0
ENDBLK
  5
2916
330
2914
100
AcDbEntity
  8
0
100
AcDbBlockEnd
  0
BLOCK
  5
2923
330
2922
100
AcDbEntity
  8
0
100
AcDbBlockBegin
  2
*D44
 70
     1
 10
0.0
 20
0.0
 30
0.0
  3
*D44
  1

  0
LINE
  5
2925
330
2922
100
AcDbEntity
  8
Dimensions
 62
     0
440
 16777216
370
    -2
100
AcDbLine
 10
26.71778447816099
 20
16.87502002312897
 30
0.0
 11
26.33165857914065
 21
16.87502002312897
 31
0.0
  0
LINE
  5
2926
330
2922
100
AcDbEntity
  8
Dimensions
 62
     0
440
 16777216
370
    -2
100
AcDbLine
 10
27.91778447816098
 20
16.77502002312897
 30
0.0
 11
26.33165857914065
 21
16.77502002312897
 31
0.0
  0
LINE
  5
2927
330
2922
100
AcDbEntity
  8
Dimensions
 62
     0
440
 16777216
370
    -2
100
AcDbLine
 10
26.48165857914065
 20
16.97502002312897
 30
0.0
 11
26.48165857914065
 21
17.07502002312897
 31
0.0
  0
LINE
  5
2928
330
2922
100
AcDbEntity
  8
Dimensions
 62
     0
440
 16777216
370
    -2
100
AcDbLine
 10
26.48165857914065
 20
16.67502002312897
 30
0.0
 11
26.48165857914065
 21
16.57502002312897
 31
0.0
  0
LINE
  5
2929
330
2922
100
AcDbEntity
  8
Dimensions
 62
     0
440
 16777216
370
    -2
100
AcDbLine
 10
26.38165857914065
 20
17.31044377195858
 30
0.0
 11
26.48165857914065
 21
17.31044377195858
 31
0.0
  0
LINE
  5
292A
330
2922
100
AcDbEntity
  8
Dimensions
 62
     0
440
 16777216
370
    -2
100
AcDbLine
 10
26.48165857914065
 20
17.31044377195858
 30
0.0
 11
26.48165857914065
 21
17.07502002312897
 31
0.0
  0
MTEXT
  5
292B
330
2922
100
AcDbEntity
  8
Dimensions
 62
     0
440
 16777216
100
AcDbMText
 10
25.94444166236029
 20
17.31044377195859
 30
0.0
 40
0.12
 41
0.0
 46
0.0
 71
     5
 72
     1
  1
\A1;0.10 [2.54]
 73
     1
 44
1.0
  0
SOLID
  5
292C
330
2922
100
AcDbEntity
  8
Dimensions
 62
     0
440
 16777216
100
AcDbTrace
 10
26.46499191247399
 20
16.97502002312897
 30
0.0
 11
26.49832524580732
 21
16.97502002312897
 31
0.0
 12
26.48165857914065
 22
16.87502002312897
 32
0.0
 13
26.48165857914065
 23
16.87502002312897
 33
0.0
  0
SOLID
  5
292D
330
2922
100
AcDbEntity
  8
Dimensions
 62
     0
440
 16777216
100
AcDbTrace
 10
26.46499191247399
 20
16.67502002312897
 30
0.0
 11
26.49832524580732
 21
16.67502002312897
 31
0.0
 12
26.48165857914065
 22
16.77502002312897
 32
0.0
 13
26.48165857914065
 23
16.77502002312897
 33
0.0
  0
POINT
  5
292E
330
2922
100
AcDbEntity
  8
Defpoints
 62
     0
440
 16777216
100
AcDbPoint
 10
26.78028447816098
 20
16.87502002312897
 30
0.0
  0
POINT
  5
292F
330
2922
100
AcDbEntity
  8
Defpoints
 62
     0
440
 16777216
100
AcDbPoint
 10
27.98028447816098
 20
16.77502002312897
 30
0.0
  0
POINT
  5
2930
330
2922
100
AcDbEntity
  8
Defpoints
 62
     0
440
 16777216
100
AcDbPoint
 10
26.48165857914065
 20
16.77502002312897
 30
0.0
  0
ENDBLK
  5
2924
330
2922
100
AcDbEntity
  8
0
100
AcDbBlockEnd
  0
BLOCK
  5
2932
330
2931
100
AcDbEntity
  8
0
100
AcDbBlockBegin
  2
*D45
 70
     1
 10
0.0
 20
0.0
 30
0.0
  3
*D45
  1

  0
LINE
  5
2934
330
2931
100
AcDbEntity
  8
Dimensions
 62
     0
440
 16777216
370
    -2
100
AcDbLine
 10
26.71778447816099
 20
16.87502002312897
 30
0.0
 11
26.09306756138063
 21
16.87502002312897
 31
0.0
  0
LINE
  5
2935
330
2931
100
AcDbEntity
  8
Dimensions
 62
     0
440
 16777216
370
    -2
100
AcDbLine
 10
28.09778447816098
 20
16.67502002312898
 30
0.0
 11
26.09306756138063
 21
16.67502002312898
 31
0.0
  0
LINE
  5
2936
330
2931
100
AcDbEntity
  8
Dimensions
 62
     0
440
 16777216
370
    -2
100
AcDbLine
 10
26.24306756138063
 20
16.97502002312897
 30
0.0
 11
26.24306756138063
 21
17.07502002312897
 31
0.0
  0
LINE
  5
2937
330
2931
100
AcDbEntity
  8
Dimensions
 62
     0
440
 16777216
370
    -2
100
AcDbLine
 10
26.24306756138063
 20
16.57502002312898
 30
0.0
 11
26.24306756138063
 21
16.47502002312898
 31
0.0
  0
LINE
  5
2938
330
2931
100
AcDbEntity
  8
Dimensions
 62
     0
440
 16777216
370
    -2
100
AcDbLine
 10
26.14306756138063
 20
17.08123107761039
 30
0.0
 11
26.24306756138063
 21
17.08123107761039
 31
0.0
  0
LINE
  5
2939
330
2931
100
AcDbEntity
  8
Dimensions
 62
     0
440
 16777216
370
    -2
100
AcDbLine
 10
26.24306756138063
 20
17.08123107761039
 30
0.0
 11
26.24306756138063
 21
17.07502002312897
 31
0.0
  0
MTEXT
  5
293A
330
2931
100
AcDbEntity
  8
Dimensions
 62
     0
440
 16777216
100
AcDbMText
 10
25.70585064460027
 20
17.08123107761039
 30
0.0
 40
0.12
 41
0.0
 46
0.0
 71
     5
 72
     1
  1
\A1;0.20 [5.08]
 73
     1
 44
1.0
  0
SOLID
  5
293B
330
2931
100
AcDbEntity
  8
Dimensions
 62
     0
440
 16777216
100
AcDbTrace
 10
26.22640089471396
 20
16.97502002312897
 30
0.0
 11
26.2597342280473
 21
16.97502002312897
 31
0.0
 12
26.24306756138063
 22
16.87502002312897
 32
0.0
 13
26.24306756138063
 23
16.87502002312897
 33
0.0
  0
SOLID
  5
293C
330
2931
100
AcDbEntity
  8
Dimensions
 62
     0
440
 16777216
100
AcDbTrace
 10
26.22640089471396
 20
16.57502002312898
 30
0.0
 11
26.2597342280473
 21
16.57502002312898
 31
0.0
 12
26.24306756138063
 22
16.67502002312898
 32
0.0
 13
26.24306756138063
 23
16.67502002312898
 33
0.0
  0
POINT
  5
293D
330
2931
100
AcDbEntity
  8
Defpoints
 62
     0
440
 16777216
100
AcDbPoint
 10
26.78028447816098
 20
16.87502002312897
 30
0.0
  0
POINT
  5
293E
330
2931
100
AcDbEntity
  8
Defpoints
 62
     0
440
 16777216
100
AcDbPoint
 10
28.16028447816098
 20
16.67502002312898
 30
0.0
  0
POINT
  5
293F
330
2931
100
AcDbEntity
  8
Defpoints
 62
     0
440
 16777216
100
AcDbPoint
 10
26.24306756138063
 20
16.67502002312898
 30
0.0
  0
ENDBLK
  5
2933
330
2931
100
AcDbEntity
  8
0
100
AcDbBlockEnd
  0
BLOCK
  5
2941
330
2940
100
AcDbEntity
  8
0
100
AcDbBlockBegin
  2
*D46
 70
     1
 10
0.0
 20
0.0
 30
0.0
  3
*D46
  1

  0
LINE
  5
2943
330
2940
100
AcDbEntity
  8
Dimensions
 62
     0
440
 16777216
370
    -2
100
AcDbLine
 10
29.31694428219091
 20
12.03757465900979
 30
0.0
 11
29.6155891435734
 21
12.03757465900979
 31
0.0
  0
LINE
  5
2944
330
2940
100
AcDbEntity
  8
Dimensions
 62
     0
440
 16777216
370
    -2
100
AcDbLine
 10
28.90778447816099
 20
12.23757465900978
 30
0.0
 11
29.6155891435734
 21
12.23757465900978
 31
0.0
  0
LINE
  5
2945
330
2940
100
AcDbEntity
  8
Dimensions
 62
     0
440
 16777216
370
    -2
100
AcDbLine
 10
29.4655891435734
 20
11.93757465900979
 30
0.0
 11
29.4655891435734
 21
11.83757465900979
 31
0.0
  0
LINE
  5
2946
330
2940
100
AcDbEntity
  8
Dimensions
 62
     0
440
 16777216
370
    -2
100
AcDbLine
 10
29.4655891435734
 20
12.33757465900978
 30
0.0
 11
29.4655891435734
 21
12.43757465900978
 31
0.0
  0
LINE
  5
2947
330
2940
100
AcDbEntity
  8
Dimensions
 62
     0
440
 16777216
370
    -2
100
AcDbLine
 10
29.4655891435734
 20
12.43757465900978
 30
0.0
 11
29.5655891435734
 21
12.43757465900978
 31
0.0
  0
SOLID
  5
2948
330
2940
100
AcDbEntity
  8
Dimensions
 62
     0
440
 16777216
100
AcDbTrace
 10
29.44892247690674
 20
11.93757465900979
 30
0.0
 11
29.48225581024006
 21
11.93757465900979
 31
0.0
 12
29.4655891435734
 22
12.03757465900979
 32
0.0
 13
29.4655891435734
 23
12.03757465900979
 33
0.0
  0
SOLID
  5
2949
330
2940
100
AcDbEntity
  8
Dimensions
 62
     0
440
 16777216
100
AcDbTrace
 10
29.44892247690674
 20
12.33757465900978
 30
0.0
 11
29.48225581024006
 21
12.33757465900978
 31
0.0
 12
29.4655891435734
 22
12.23757465900978
 32
0.0
 13
29.4655891435734
 23
12.23757465900978
 33
0.0
  0
MTEXT
  5
294A
330
2940
100
AcDbEntity
  8
Dimensions
 62
     0
440
 16777216
100
AcDbMText
 10
30.60829037140423
 20
12.43757465900979
 30
0.0
 40
0.12
 41
0.0
 46
0.0
 71
     5
 72
     1
  1
\A1;0.20 [5.08] Min. Pin Length
 73
     1
 44
1.0
  0
POINT
  5
294B
330
2940
100
AcDbEntity
  8
Defpoints
 62
     0
440
 16777216
100
AcDbPoint
 10
29.25444428219091
 20
12.03757465900979
 30
0.0
  0
POINT
  5
294C
330
2940
100
AcDbEntity
  8
Defpoints
 62
     0
440
 16777216
100
AcDbPoint
 10
28.84528447816099
 20
12.23757465900978
 30
0.0
  0
POINT
  5
294D
330
2940
100
AcDbEntity
  8
Defpoints
 62
     0
440
 16777216
100
AcDbPoint
 10
29.4655891435734
 20
12.23757465900978
 30
0.0
  0
ENDBLK
  5
2942
330
2940
100
AcDbEntity
  8
0
100
AcDbBlockEnd
  0
BLOCK
  5
294F
330
294E
100
AcDbEntity
  8
0
100
AcDbBlockBegin
  2
*D47
 70
     1
 10
0.0
 20
0.0
 30
0.0
  3
*D47
  1

  0
LINE
  5
2951
330
294E
100
AcDbEntity
  8
Dimensions
 62
     0
440
 16777216
370
    -2
100
AcDbLine
 10
29.06778447816098
 20
16.32502002312898
 30
0.0
 11
30.6811656880496
 21
16.32502002312898
 31
0.0
  0
LINE
  5
2952
330
294E
100
AcDbEntity
  8
Dimensions
 62
     0
440
 16777216
370
    -2
100
AcDbLine
 10
29.06778447816098
 20
17.42502002312898
 30
0.0
 11
30.6811656880496
 21
17.42502002312898
 31
0.0
  0
LINE
  5
2953
330
294E
100
AcDbEntity
  8
Dimensions
 62
     0
440
 16777216
370
    -2
100
AcDbLine
 10
30.5311656880496
 20
16.42502002312898
 30
0.0
 11
30.5311656880496
 21
16.49744092805133
 31
0.0
  0
LINE
  5
2954
330
294E
100
AcDbEntity
  8
Dimensions
 62
     0
440
 16777216
370
    -2
100
AcDbLine
 10
30.5311656880496
 20
17.32502002312898
 30
0.0
 11
30.5311656880496
 21
16.75124720363114
 31
0.0
  0
SOLID
  5
2955
330
294E
100
AcDbEntity
  8
Dimensions
 62
     0
440
 16777216
100
AcDbTrace
 10
30.51449902138294
 20
16.42502002312898
 30
0.0
 11
30.54783235471627
 21
16.42502002312898
 31
0.0
 12
30.5311656880496
 22
16.32502002312898
 32
0.0
 13
30.5311656880496
 23
16.32502002312898
 33
0.0
  0
SOLID
  5
2956
330
294E
100
AcDbEntity
  8
Dimensions
 62
     0
440
 16777216
100
AcDbTrace
 10
30.51449902138294
 20
17.32502002312898
 30
0.0
 11
30.54783235471627
 21
17.32502002312898
 31
0.0
 12
30.5311656880496
 22
17.42502002312898
 32
0.0
 13
30.5311656880496
 23
17.42502002312898
 33
0.0
  0
MTEXT
  5
2957
330
294E
100
AcDbEntity
  8
Dimensions
 62
     0
440
 16777216
100
AcDbMText
 10
30.5311656880496
 20
16.62434406584124
 30
0.0
 40
0.12
 41
0.0
 46
0.0
 71
     5
 72
     1
  1
\A1;1.10 [27.94]
 73
     1
 44
1.0
  0
POINT
  5
2958
330
294E
100
AcDbEntity
  8
Defpoints
 62
     0
440
 16777216
100
AcDbPoint
 10
29.00528447816098
 20
16.32502002312898
 30
0.0
  0
POINT
  5
2959
330
294E
100
AcDbEntity
  8
Defpoints
 62
     0
440
 16777216
100
AcDbPoint
 10
29.00528447816098
 20
17.42502002312898
 30
0.0
  0
POINT
  5
295A
330
294E
100
AcDbEntity
  8
Defpoints
 62
     0
440
 16777216
100
AcDbPoint
 10
30.5311656880496
 20
17.42502002312898
 30
0.0
  0
ENDBLK
  5
2950
330
294E
100
AcDbEntity
  8
0
100
AcDbBlockEnd
  0
ENDSEC
  0
SECTION
  2
ENTITIES
  0
LINE
  5
2462
330
1F
100
AcDbEntity
  8
Converter
100
AcDbLine
 10
16.71789047879325
 20
11.53857465900994
 30
0.0
 11
18.32646912255595
 21
11.53857465900994
 31
0.0
  0
ARC
  5
2463
102
{ACAD_REACTORS
330
24AA
102
}
330
1F
100
AcDbEntity
  8
Converter
100
AcDbCircle
 10
18.32646912255595
 20
11.6092853371286
 30
0.0
 40
0.0707106781186547
100
AcDbArc
 50
270.0
 51
0.0
  0
ARC
  5
2464
330
1F
100
AcDbEntity
  8
Converter
100
AcDbCircle
 10
16.71789047879325
 20
11.6092853371286
 30
0.0
 40
0.0707106781186547
100
AcDbArc
 50
180.0
 51
270.0
  0
LINE
  5
2465
102
{ACAD_REACTORS
330
24A7
102
}
330
1F
100
AcDbEntity
  8
Converter
100
AcDbLine
 10
18.39717980067461
 20
11.6092853371286
 30
0.0
 11
18.39717980067461
 21
12.03857465900994
 31
0.0
  0
LINE
  5
2466
102
{ACAD_REACTORS
330
24AA
102
}
330
1F
100
AcDbEntity
  8
Converter
100
AcDbLine
 10
18.39717980067461
 20
12.03857465900994
 30
0.0
 11
16.6471798006746
 21
12.03857465900994
 31
0.0
  0
LINE
  5
2467
102
{ACAD_REACTORS
330
24A7
330
24AD
102
}
330
1F
100
AcDbEntity
  8
Converter
100
AcDbLine
 10
16.6471798006746
 20
12.03857465900994
 30
0.0
 11
16.6471798006746
 21
11.6092853371286
 31
0.0
  0
LINE
  5
2468
330
1F
100
AcDbEntity
  8
Converter
100
AcDbLine
 10
16.6471798006746
 20
16.32502002312898
 30
0.0
 11
16.6471798006746
 21
17.42502002312898
 31
0.0
  0
LINE
  5
2469
102
{ACAD_REACTORS
330
2496
330
2499
330
249C
102
}
330
1F
100
AcDbEntity
  8
Converter
100
AcDbLine
 10
18.39717980067461
 20
16.32502002312898
 30
0.0
 11
18.39717980067461
 21
17.42502002312898
 31
0.0
  0
LINE
  5
246A
102
{ACAD_REACTORS
330
2487
330
248A
330
248D
330
2490
330
2493
102
}
330
1F
100
AcDbEntity
  8
Converter
100
AcDbLine
 10
16.6471798006746
 20
16.32502002312898
 30
0.0
 11
18.39717980067461
 21
16.32502002312898
 31
0.0
  0
LINE
  5
246B
330
1F
100
AcDbEntity
  8
Converter
100
AcDbLine
 10
16.6471798006746
 20
17.42502002312898
 30
0.0
 11
18.39717980067461
 21
17.42502002312898
 31
0.0
  0
CIRCLE
  5
246C
102
{ACAD_REACTORS
330
2487
330
24A2
102
}
330
1F
100
AcDbEntity
  8
Converter
100
AcDbCircle
 10
16.9471798006746
 20
16.52502002312897
 30
0.0
 40
0.02
  0
CIRCLE
  5
246D
102
{ACAD_REACTORS
330
248A
102
}
330
1F
100
AcDbEntity
  8
Converter
100
AcDbCircle
 10
17.7971798006746
 20
16.52502002312897
 30
0.0
 40
0.02
  0
CIRCLE
  5
246E
102
{ACAD_REACTORS
330
2490
330
249C
102
}
330
1F
100
AcDbEntity
  8
Converter
100
AcDbCircle
 10
17.9471798006746
 20
16.77502002312897
 30
0.0
 40
0.02
  0
CIRCLE
  5
246F
102
{ACAD_REACTORS
330
2493
330
2499
102
}
330
1F
100
AcDbEntity
  8
Converter
100
AcDbCircle
 10
18.2971798006746
 20
16.87502002312898
 30
0.0
 40
0.02
  0
CIRCLE
  5
2470
102
{ACAD_REACTORS
330
2496
102
}
330
1F
100
AcDbEntity
  8
Converter
100
AcDbCircle
 10
17.9471798006746
 20
17.27502002312897
 30
0.0
 40
0.02
  0
LINE
  5
2471
330
1F
100
AcDbEntity
  8
Converter
100
AcDbLine
 10
18.3171798006746
 20
12.23857465900994
 30
0.0
 11
18.2771798006746
 21
12.23857465900994
 31
0.0
  0
LINE
  5
2472
330
1F
100
AcDbEntity
  8
Converter
100
AcDbLine
 10
17.9671798006746
 20
12.23857465900994
 30
0.0
 11
17.9271798006746
 21
12.23857465900994
 31
0.0
  0
LINE
  5
2473
330
1F
100
AcDbEntity
  8
Converter
100
AcDbLine
 10
17.8671798006746
 20
12.23857465900994
 30
0.0
 11
17.82717980067461
 21
12.23857465900994
 31
0.0
  0
LINE
  5
2474
330
1F
100
AcDbEntity
  8
Converter
100
AcDbLine
 10
16.9671798006746
 20
12.23857465900994
 30
0.0
 11
16.9271798006746
 21
12.23857465900994
 31
0.0
  0
LINE
  5
2475
102
{ACAD_REACTORS
330
24AD
102
}
330
1F
100
AcDbEntity
  8
Converter
100
AcDbLine
 10
16.9271798006746
 20
12.23857465900994
 30
0.0
 11
16.9271798006746
 21
12.03857465900994
 31
0.0
  0
LINE
  5
2476
330
1F
100
AcDbEntity
  8
Converter
100
AcDbLine
 10
16.9671798006746
 20
12.23857465900994
 30
0.0
 11
16.9671798006746
 21
12.03857465900994
 31
0.0
  0
LINE
  5
2477
330
1F
100
AcDbEntity
  8
Converter
100
AcDbLine
 10
17.82717980067461
 20
12.23857465900994
 30
0.0
 11
17.82717980067461
 21
12.03857465900994
 31
0.0
  0
LINE
  5
2478
330
1F
100
AcDbEntity
  8
Converter
100
AcDbLine
 10
17.8671798006746
 20
12.23857465900994
 30
0.0
 11
17.8671798006746
 21
12.03857465900994
 31
0.0
  0
LINE
  5
2479
330
1F
100
AcDbEntity
  8
Converter
100
AcDbLine
 10
17.9271798006746
 20
12.23857465900994
 30
0.0
 11
17.9271798006746
 21
12.03857465900994
 31
0.0
  0
LINE
  5
247A
330
1F
100
AcDbEntity
  8
Converter
100
AcDbLine
 10
17.9671798006746
 20
12.23857465900994
 30
0.0
 11
17.9671798006746
 21
12.03857465900994
 31
0.0
  0
LINE
  5
247B
330
1F
100
AcDbEntity
  8
Converter
100
AcDbLine
 10
18.2771798006746
 20
12.23857465900994
 30
0.0
 11
18.2771798006746
 21
12.03857465900994
 31
0.0
  0
LINE
  5
247C
330
1F
100
AcDbEntity
  8
Converter
100
AcDbLine
 10
18.3171798006746
 20
12.23857465900994
 30
0.0
 11
18.3171798006746
 21
12.03857465900994
 31
0.0
  0
LINE
  5
247D
330
1F
100
AcDbEntity
  8
Converter
100
AcDbLine
 10
17.5271798006746
 20
16.57502002312898
 30
0.0
 11
17.7271798006746
 21
16.57502002312898
 31
0.0
  0
LINE
  5
247E
330
1F
100
AcDbEntity
  8
Converter
100
AcDbLine
 10
17.7271798006746
 20
16.57502002312898
 30
0.0
 11
17.7271798006746
 21
16.77502002312898
 31
0.0
  0
LINE
  5
247F
330
1F
100
AcDbEntity
  8
Converter
100
AcDbLine
 10
17.7271798006746
 20
16.77502002312898
 30
0.0
 11
17.5271798006746
 21
16.77502002312898
 31
0.0
  0
LINE
  5
2480
330
1F
100
AcDbEntity
  8
Converter
100
AcDbLine
 10
17.5271798006746
 20
16.77502002312898
 30
0.0
 11
17.5271798006746
 21
16.57502002312898
 31
0.0
  0
CIRCLE
  5
2481
330
1F
100
AcDbEntity
  8
Converter
100
AcDbCircle
 10
17.62717980067461
 20
16.67502002312898
 30
0.0
 40
0.06
  0
LINE
  5
2482
102
{ACAD_REACTORS
330
249F
102
}
330
1F
100
AcDbEntity
  8
Converter
100
AcDbLine
 10
17.62717980067461
 20
16.67502002312898
 30
0.0
 11
17.62717980067461
 21
16.67502002312898
 31
0.0
  0
LINE
  5
2483
102
{ACAD_REACTORS
330
248D
102
}
330
1F
100
AcDbEntity
  8
Converter
100
AcDbLine
 10
17.58475339380341
 20
16.63259361625778
 30
0.0
 11
17.6696062075458
 21
16.71744643000016
 31
0.0
  0
LINE
  5
2484
330
1F
100
AcDbEntity
  8
Dimensions
100
AcDbLine
 10
17.9471798006746
 20
17.21631618950008
 30
0.0
 11
17.9471798006746
 21
16.83036370373571
 31
0.0
  0
DIMENSION
  5
2485
102
{ACAD_XDICTIONARY
360
2486
102
}
102
{ACAD_REACTORS
330
2487
102
}
330
1F
100
AcDbEntity
  8
Dimensions
100
AcDbDimension
280
     0
  2
*D10
 10
16.9471798006746
 20
16.15976628794985
 30
0.0
 11
15.90382884569506
 21
16.15976628794985
 31
0.0
 70
   160
 71
     5
 42
0.3000000000000007
 73
     0
 74
     0
 75
     0
  3
Standard
100
AcDbAlignedDimension
 13
16.6471798006746
 23
16.32502002312898
 33
0.0
 14
16.9471798006746
 24
16.52502002312897
 34
0.0
100
AcDbRotatedDimension
1001
ACAD
1000
DSTYLE
1002
{
1070
   279
1070
     0
1002
}
  0
DIMENSION
  5
2488
102
{ACAD_XDICTIONARY
360
2489
102
}
102
{ACAD_REACTORS
330
248A
102
}
330
1F
100
AcDbEntity
  8
Dimensions
100
AcDbDimension
280
     0
  2
*D11
 10
17.7971798006746
 20
15.65976628794985
 30
0.0
 11
15.98615319767324
 21
15.65976628794985
 31
0.0
 70
   160
 71
     5
 42
1.150000000000002
 73
     0
 74
     0
 75
     0
  3
Standard
100
AcDbAlignedDimension
 13
16.6471798006746
 23
16.32502002312898
 33
0.0
 14
17.7971798006746
 24
16.52502002312897
 34
0.0
100
AcDbRotatedDimension
1001
ACAD
1000
DSTYLE
1002
{
1070
   279
1070
     0
1002
}
  0
DIMENSION
  5
248B
102
{ACAD_XDICTIONARY
360
248C
102
}
102
{ACAD_REACTORS
330
248D
102
}
330
1F
100
AcDbEntity
  8
Dimensions
100
AcDbDimension
280
     0
  2
*D12
 10
17.6271798006746
 20
15.90976628794985
 30
0.0
 11
15.98026984160229
 21
15.90976628794985
 31
0.0
 70
   160
 71
     5
 42
0.9800000000000004
 73
     0
 74
     0
 75
     0
  3
Standard
100
AcDbAlignedDimension
 13
16.6471798006746
 23
16.32502002312898
 33
0.0
 14
17.6271798006746
 24
16.67502002312898
 34
0.0
100
AcDbRotatedDimension
1001
ACAD
1000
DSTYLE
1002
{
1070
   279
1070
     0
1002
}
  0
DIMENSION
  5
248E
102
{ACAD_XDICTIONARY
360
248F
102
}
102
{ACAD_REACTORS
330
2490
102
}
330
1F
100
AcDbEntity
  8
Dimensions
100
AcDbDimension
280
     0
  2
*D13
 10
17.9471798006746
 20
15.40976628794985
 30
0.0
 11
15.98615319767324
 21
15.40976628794985
 31
0.0
 70
   160
 71
     5
 42
1.3
 73
     0
 74
     0
 75
     0
  3
Standard
100
AcDbAlignedDimension
 13
16.6471798006746
 23
16.32502002312898
 33
0.0
 14
17.9471798006746
 24
16.77502002312897
 34
0.0
100
AcDbRotatedDimension
1001
ACAD
1000
DSTYLE
1002
{
1070
   279
1070
     0
1002
}
  0
DIMENSION
  5
2491
102
{ACAD_XDICTIONARY
360
2492
102
}
102
{ACAD_REACTORS
330
2493
102
}
330
1F
100
AcDbEntity
  8
Dimensions
100
AcDbDimension
280
     0
  2
*D14
 10
18.2971798006746
 20
15.15976628794985
 30
0.0
 11
15.98615319767324
 21
15.15976628794985
 31
0.0
 70
   160
 71
     5
 42
1.650000000000002
 73
     0
 74
     0
 75
     0
  3
Standard
100
AcDbAlignedDimension
 13
16.6471798006746
 23
16.32502002312898
 33
0.0
 14
18.2971798006746
 24
16.87502002312898
 34
0.0
100
AcDbRotatedDimension
1001
ACAD
1000
DSTYLE
1002
{
1070
   279
1070
     0
1002
}
  0
DIMENSION
  5
2494
102
{ACAD_XDICTIONARY
360
2495
102
}
102
{ACAD_REACTORS
330
2496
102
}
330
1F
100
AcDbEntity
  8
Dimensions
100
AcDbDimension
280
     0
  2
*D15
 10
18.58366045567926
 20
17.27502002312897
 30
0.0
 11
19.12087737245961
 21
18.16404959184487
 31
0.0
 70
   160
 71
     5
 42
0.1500000000000057
 73
     0
 74
     0
 75
     0
  3
Standard
100
AcDbAlignedDimension
 13
18.39717980067461
 23
17.42502002312898
 33
0.0
 14
17.9471798006746
 24
17.27502002312897
 34
0.0
 50
90.0
100
AcDbRotatedDimension
  0
DIMENSION
  5
2497
102
{ACAD_XDICTIONARY
360
2498
102
}
102
{ACAD_REACTORS
330
2499
102
}
330
1F
100
AcDbEntity
  8
Dimensions
100
AcDbDimension
280
     0
  2
*D16
 10
18.82290175248579
 20
17.42502002312898
 30
0.0
 11
19.4067353131952
 21
17.91401707412841
 31
0.0
 70
   160
 71
     5
 42
0.5499999999999972
 73
     0
 74
     0
 75
     0
  3
Standard
100
AcDbAlignedDimension
 13
18.2971798006746
 23
16.87502002312898
 33
0.0
 14
18.39717980067461
 24
17.42502002312898
 34
0.0
 50
90.0
100
AcDbRotatedDimension
1001
ACAD
1000
DSTYLE
1002
{
1070
   279
1070
     0
1002
}
  0
DIMENSION
  5
249A
102
{ACAD_XDICTIONARY
360
249B
102
}
102
{ACAD_REACTORS
330
249C
102
}
330
1F
100
AcDbEntity
  8
Dimensions
100
AcDbDimension
280
     0
  2
*D17
 10
19.04199724084853
 20
17.42502002312898
 30
0.0
 11
19.62583080155794
 21
17.64800820763884
 31
0.0
 70
   160
 71
     5
 42
0.6500000000000057
 73
     0
 74
     0
 75
     0
  3
Standard
100
AcDbAlignedDimension
 13
17.9471798006746
 23
16.77502002312897
 33
0.0
 14
18.39717980067461
 24
17.42502002312898
 34
0.0
 50
90.0
100
AcDbRotatedDimension
  0
DIMENSION
  5
249D
102
{ACAD_XDICTIONARY
360
249E
102
}
102
{ACAD_REACTORS
330
249F
102
}
330
1F
100
AcDbEntity
  8
Dimensions
100
AcDbDimension
280
     0
  2
*D18
 10
16.38467097101071
 20
16.67502002312898
 30
0.0
 11
16.96850453172012
 21
17.73926618353631
 31
0.0
 70
   160
 71
     5
 42
0.75
 73
     0
 74
     0
 75
     0
  3
Standard
100
AcDbAlignedDimension
 13
16.6471798006746
 23
17.42502002312898
 33
0.0
 14
17.62717980067461
 24
16.67502002312898
 34
0.0
 50
90.0
100
AcDbRotatedDimension
  0
DIMENSION
  5
24A0
102
{ACAD_XDICTIONARY
360
24A1
102
}
102
{ACAD_REACTORS
330
24A2
102
}
330
1F
100
AcDbEntity
  8
Dimensions
100
AcDbDimension
280
     0
  2
*D19
 10
16.13616004349452
 20
16.52502002312897
 30
0.0
 11
16.71999360420393
 21
17.93413733053816
 31
0.0
 70
   160
 71
     5
 42
0.9000000000000056
 73
     0
 74
     0
 75
     0
  3
Standard
100
AcDbAlignedDimension
 13
16.6471798006746
 23
17.42502002312898
 33
0.0
 14
16.9471798006746
 24
16.52502002312897
 34
0.0
 50
90.0
100
AcDbRotatedDimension
  0
LINE
  5
24A3
330
1F
100
AcDbEntity
  8
Dimensions
100
AcDbLine
 10
17.00077300823045
 20
16.52502002312897
 30
0.0
 11
17.78468747287912
 21
16.52502002312897
 31
0.0
  0
DIMENSION
  5
24A4
330
1F
100
AcDbEntity
  8
Dimensions
100
AcDbDimension
280
     0
  2
*D2
 10
15.63453852605227
 20
17.42502002312898
 30
0.0
 11
15.63453852605227
 21
16.87502002312898
 31
0.0
 70
    32
 71
     5
 42
1.100000000000001
 73
     0
 74
     0
 75
     0
  3
Standard
100
AcDbAlignedDimension
 13
16.6471798006746
 23
16.32502002312898
 33
0.0
 14
16.6471798006746
 24
17.42502002312898
 34
0.0
 50
90.0
100
AcDbRotatedDimension
  0
DIMENSION
  5
24A5
102
{ACAD_XDICTIONARY
360
24A6
102
}
102
{ACAD_REACTORS
330
24A7
102
}
330
1F
100
AcDbEntity
  8
Dimensions
100
AcDbDimension
280
     0
  2
*D20
 10
18.39717980067461
 20
11.15421913455219
 30
0.0
 11
17.52217980067461
 21
11.15421913455219
 31
0.0
 70
    32
 71
     5
 42
1.750000000000003
 73
     0
 74
     0
 75
     0
  3
Standard
100
AcDbAlignedDimension
 13
16.6471798006746
 23
11.6092853371286
 33
0.0
 14
18.39717980067461
 24
11.6092853371286
 34
0.0
100
AcDbRotatedDimension
  0
DIMENSION
  5
24A8
102
{ACAD_XDICTIONARY
360
24A9
102
}
102
{ACAD_REACTORS
330
24AA
102
}
330
1F
100
AcDbEntity
  8
Dimensions
100
AcDbDimension
280
     0
  2
*D21
 10
18.70049780832782
 20
12.03857465900994
 30
0.0
 11
19.28433136903722
 21
12.68090012626303
 31
0.0
 70
   160
 71
     5
 42
0.5
 73
     0
 74
     0
 75
     0
  3
Standard
100
AcDbAlignedDimension
 13
18.32646912255595
 23
11.53857465900994
 33
0.0
 14
18.39717980067461
 24
12.03857465900994
 34
0.0
 50
90.0
100
AcDbRotatedDimension
  0
DIMENSION
  5
24AB
102
{ACAD_XDICTIONARY
360
24AC
102
}
102
{ACAD_REACTORS
330
24AD
102
}
330
1F
100
AcDbEntity
  8
Dimensions
100
AcDbDimension
280
     0
  2
*D22
 10
16.27233233732494
 20
12.03857465900994
 30
0.0
 11
15.10634325137678
 21
11.2024106737656
 31
0.0
 70
   160
  1
<>  Min. Pin Length
 71
     5
 42
0.1999999999999993
 73
     0
 74
     0
 75
     0
  3
Standard
100
AcDbAlignedDimension
 13
16.9271798006746
 23
12.23857465900994
 33
0.0
 14
16.6471798006746
 24
12.03857465900994
 34
0.0
 50
90.0
100
AcDbRotatedDimension
  0
LEADER
  5
24AE
330
1F
100
AcDbEntity
  8
Dimensions
100
AcDbLeader
  3
Standard
 73
     0
 76
     3
 10
16.9271798006746
 20
12.23857465900994
 30
0.0
 10
16.73822719748117
 20
12.71684738741823
 30
0.0
 10
16.23822719748117
 20
12.71684738741823
 30
0.0
213
0.0
223
0.0625
233
0.0
1001
ACAD
1000
DSTYLE
1002
{
1070
     5
1000

1070
    77
1070
     0
1070
   147
1040
0.09
1002
}
  0
MTEXT
  5
24AF
102
{ACAD_XDICTIONARY
360
24B0
102
}
330
1F
100
AcDbEntity
  8
Dimensions
100
AcDbMText
 10
15.04299907772097
 20
12.50127679583826
 30
0.0
 40
0.1
 41
0.0
 46
0.0
 71
     7
 72
     1
  1
PIN - 0.04 [1.02] Dia.\PTin Plated Brass\PMatte Finish 5 Plc
 73
     1
 44
1.0
  0
MTEXT
  5
24B1
330
1F
100
AcDbEntity
  8
Dimensions
100
AcDbMText
 10
18.39089664190728
 20
16.00253471153466
 30
0.0
 40
0.1
 41
0.0
 46
0.0
 71
     7
 72
     1
  1
Bottom View
 73
     1
 44
1.0
  0
MTEXT
  5
24B2
330
1F
100
AcDbEntity
  8
Converter
100
AcDbMText
 10
17.8300568646501
 20
17.20912017482264
 30
0.0
 40
0.1
 41
0.0
 46
0.0
 71
     7
 72
     1
  1
2
 73
     1
 44
1.0
  0
MTEXT
  5
24B3
330
1F
100
AcDbEntity
  8
Converter
100
AcDbMText
 10
17.85362503940472
 20
16.73378182369468
 30
0.0
 40
0.1
 41
0.0
 46
0.0
 71
     7
 72
     1
  1
1
 73
     1
 44
1.0
  0
MTEXT
  5
24B4
330
1F
100
AcDbEntity
  8
Converter
100
AcDbMText
 10
18.18347198995015
 20
16.83869884347652
 30
0.0
 40
0.1
 41
0.0
 46
0.0
 71
     7
 72
     1
  1
5
 73
     1
 44
1.0
  0
MTEXT
  5
24B5
330
1F
100
AcDbEntity
  8
Converter
100
AcDbMText
 10
17.77520958444266
 20
16.56248873098337
 30
0.0
 40
0.1
 41
0.0
 46
0.0
 71
     7
 72
     1
  1
3
 73
     1
 44
1.0
  0
MTEXT
  5
24B6
330
1F
100
AcDbEntity
  8
Converter
100
AcDbMText
 10
16.86257744866072
 20
16.55878690181747
 30
0.0
 40
0.1
 41
0.0
 46
0.0
 71
     7
 72
     1
  1
4
 73
     1
 44
1.0
  0
LEADER
  5
24B7
330
1F
100
AcDbEntity
  8
Dimensions
100
AcDbLeader
  3
Standard
 73
     0
 76
     3
 10
17.63221222874846
 20
16.81124620632983
 30
0.0
 10
17.75446435331566
 20
17.2132295561742
 30
0.0
 10
17.69196435331566
 20
17.2132295561742
 30
0.0
213
0.0
223
0.0625
233
0.0
1001
ACAD
1000
DSTYLE
1002
{
1070
     5
1000

1070
    77
1070
     0
1070
   147
1040
0.09
1002
}
  0
MTEXT
  5
24B8
102
{ACAD_XDICTIONARY
360
24B9
102
}
330
1F
100
AcDbEntity
  8
Dimensions
100
AcDbMText
 10
17.06026775947376
 20
17.16811589960108
 30
0.0
 40
0.1
 41
0.0
 46
0.0
 71
     7
 72
     1
  1
Cal. ADJ
 73
     1
 44
1.0
  0
LINE
  5
24BA
330
1F
100
AcDbEntity
  8
Converter
100
AcDbLine
 10
14.43766518273862
 20
11.53857465900994
 30
0.0
 11
15.39624382650131
 21
11.53857465900994
 31
0.0
  0
ARC
  5
24BB
330
1F
100
AcDbEntity
  8
Converter
100
AcDbCircle
 10
15.39624382650131
 20
11.6092853371286
 30
0.0
 40
0.0707106781186547
100
AcDbArc
 50
270.0
 51
0.0
  0
ARC
  5
24BC
330
1F
100
AcDbEntity
  8
Converter
100
AcDbCircle
 10
14.43766518273862
 20
11.6092853371286
 30
0.0
 40
0.0707106781186547
100
AcDbArc
 50
180.0
 51
270.0
  0
LINE
  5
24BD
330
1F
100
AcDbEntity
  8
Converter
100
AcDbLine
 10
15.46695450461997
 20
11.6092853371286
 30
0.0
 11
15.46695450461997
 21
12.03857465900994
 31
0.0
  0
LINE
  5
24BE
330
1F
100
AcDbEntity
  8
Converter
100
AcDbLine
 10
15.46695450461997
 20
12.03857465900994
 30
0.0
 11
14.36695450461996
 21
12.03857465900994
 31
0.0
  0
LINE
  5
24BF
330
1F
100
AcDbEntity
  8
Converter
100
AcDbLine
 10
14.36695450461996
 20
12.03857465900994
 30
0.0
 11
14.36695450461996
 21
11.6092853371286
 31
0.0
  0
LINE
  5
24C0
330
1F
100
AcDbEntity
  8
Converter
100
AcDbLine
 10
15.28695450461996
 20
12.23857465900995
 30
0.0
 11
15.24695450461996
 21
12.23857465900995
 31
0.0
  0
LINE
  5
24C1
330
1F
100
AcDbEntity
  8
Converter
100
AcDbLine
 10
15.03695450461996
 20
12.23857465900994
 30
0.0
 11
14.99695450461996
 21
12.23857465900994
 31
0.0
  0
LINE
  5
24C2
330
1F
100
AcDbEntity
  8
Converter
100
AcDbLine
 10
14.93695450461996
 20
12.23857465900994
 30
0.0
 11
14.89695450461996
 21
12.23857465900994
 31
0.0
  0
LINE
  5
24C3
330
1F
100
AcDbEntity
  8
Converter
100
AcDbLine
 10
14.53695450461996
 20
12.23857465900994
 30
0.0
 11
14.49695450461996
 21
12.23857465900994
 31
0.0
  0
LINE
  5
24C4
330
1F
100
AcDbEntity
  8
Converter
100
AcDbLine
 10
14.49695450461996
 20
12.23857465900994
 30
0.0
 11
14.49695450461996
 21
12.03857465900994
 31
0.0
  0
LINE
  5
24C5
330
1F
100
AcDbEntity
  8
Converter
100
AcDbLine
 10
14.53695450461996
 20
12.23857465900994
 30
0.0
 11
14.53695450461996
 21
12.03857465900994
 31
0.0
  0
LINE
  5
24C6
330
1F
100
AcDbEntity
  8
Converter
100
AcDbLine
 10
14.89695450461996
 20
12.23857465900994
 30
0.0
 11
14.89695450461996
 21
12.03857465900994
 31
0.0
  0
LINE
  5
24C7
330
1F
100
AcDbEntity
  8
Converter
100
AcDbLine
 10
14.93695450461996
 20
12.23857465900994
 30
0.0
 11
14.93695450461996
 21
12.03857465900994
 31
0.0
  0
LINE
  5
24C8
330
1F
100
AcDbEntity
  8
Converter
100
AcDbLine
 10
14.99695450461996
 20
12.23857465900994
 30
0.0
 11
14.99695450461996
 21
12.03857465900994
 31
0.0
  0
LINE
  5
24C9
330
1F
100
AcDbEntity
  8
Converter
100
AcDbLine
 10
15.03695450461996
 20
12.23857465900994
 30
0.0
 11
15.03695450461996
 21
12.03857465900994
 31
0.0
  0
LINE
  5
24CA
330
1F
100
AcDbEntity
  8
Converter
100
AcDbLine
 10
15.24695450461996
 20
12.23857465900995
 30
0.0
 11
15.24695450461996
 21
12.03857465900995
 31
0.0
  0
LINE
  5
24CB
330
1F
100
AcDbEntity
  8
Converter
100
AcDbLine
 10
15.28695450461996
 20
12.23857465900995
 30
0.0
 11
15.28695450461996
 21
12.03857465900995
 31
0.0
  0
LINE
  5
24CC
330
1F
100
AcDbEntity
  8
Converter
100
AcDbLine
 10
20.6066944186106
 20
11.5385746590099
 30
0.0
 11
19.6481157748479
 21
11.53857465900991
 31
0.0
  0
ARC
  5
24CD
330
1F
100
AcDbEntity
  8
Converter
100
AcDbCircle
 10
19.6481157748479
 20
11.60928533712857
 30
0.0
 40
0.0707106781186547
100
AcDbArc
 50
179.9999999999992
 51
269.9999999999992
  0
ARC
  5
24CE
330
1F
100
AcDbEntity
  8
Converter
100
AcDbCircle
 10
20.6066944186106
 20
11.60928533712856
 30
0.0
 40
0.0707106781186547
100
AcDbArc
 50
269.9999999999992
 51
359.9999999999992
  0
LINE
  5
24CF
330
1F
100
AcDbEntity
  8
Converter
100
AcDbLine
 10
19.57740509672924
 20
11.60928533712857
 30
0.0
 11
19.57740509672925
 21
12.03857465900991
 31
0.0
  0
LINE
  5
24D0
330
1F
100
AcDbEntity
  8
Converter
100
AcDbLine
 10
19.57740509672925
 20
12.03857465900991
 30
0.0
 11
20.67740509672926
 21
12.0385746590099
 31
0.0
  0
LINE
  5
24D1
330
1F
100
AcDbEntity
  8
Converter
100
AcDbLine
 10
20.67740509672925
 20
12.0385746590099
 30
0.0
 11
20.67740509672925
 21
11.60928533712855
 31
0.0
  0
LINE
  5
24D2
330
1F
100
AcDbEntity
  8
Converter
100
AcDbLine
 10
19.75740509672926
 20
12.23857465900991
 30
0.0
 11
19.79740509672925
 21
12.23857465900991
 31
0.0
  0
LINE
  5
24D3
330
1F
100
AcDbEntity
  8
Converter
100
AcDbLine
 10
20.00740509672926
 20
12.23857465900991
 30
0.0
 11
20.04740509672926
 21
12.23857465900991
 31
0.0
  0
LINE
  5
24D4
330
1F
100
AcDbEntity
  8
Converter
100
AcDbLine
 10
20.10740509672926
 20
12.23857465900991
 30
0.0
 11
20.14740509672925
 21
12.23857465900991
 31
0.0
  0
LINE
  5
24D5
330
1F
100
AcDbEntity
  8
Converter
100
AcDbLine
 10
20.50740509672926
 20
12.2385746590099
 30
0.0
 11
20.54740509672926
 21
12.2385746590099
 31
0.0
  0
LINE
  5
24D6
330
1F
100
AcDbEntity
  8
Converter
100
AcDbLine
 10
20.54740509672926
 20
12.2385746590099
 30
0.0
 11
20.54740509672925
 21
12.0385746590099
 31
0.0
  0
LINE
  5
24D7
330
1F
100
AcDbEntity
  8
Converter
100
AcDbLine
 10
20.50740509672926
 20
12.2385746590099
 30
0.0
 11
20.50740509672925
 21
12.0385746590099
 31
0.0
  0
LINE
  5
24D8
330
1F
100
AcDbEntity
  8
Converter
100
AcDbLine
 10
20.14740509672925
 20
12.23857465900991
 30
0.0
 11
20.14740509672925
 21
12.03857465900991
 31
0.0
  0
LINE
  5
24D9
330
1F
100
AcDbEntity
  8
Converter
100
AcDbLine
 10
20.10740509672926
 20
12.23857465900991
 30
0.0
 11
20.10740509672925
 21
12.03857465900991
 31
0.0
  0
LINE
  5
24DA
330
1F
100
AcDbEntity
  8
Converter
100
AcDbLine
 10
20.04740509672926
 20
12.23857465900991
 30
0.0
 11
20.04740509672926
 21
12.03857465900991
 31
0.0
  0
LINE
  5
24DB
330
1F
100
AcDbEntity
  8
Converter
100
AcDbLine
 10
20.00740509672926
 20
12.23857465900991
 30
0.0
 11
20.00740509672926
 21
12.03857465900991
 31
0.0
  0
LINE
  5
24DC
330
1F
100
AcDbEntity
  8
Converter
100
AcDbLine
 10
19.79740509672925
 20
12.23857465900991
 30
0.0
 11
19.79740509672925
 21
12.03857465900991
 31
0.0
  0
LINE
  5
24DD
330
1F
100
AcDbEntity
  8
Converter
100
AcDbLine
 10
19.75740509672926
 20
12.23857465900991
 30
0.0
 11
19.75740509672925
 21
12.03857465900991
 31
0.0
  0
LINE
  5
24DE
330
1F
100
AcDbEntity
  8
Converter
100
AcDbLine
 10
6.809743632388434
 20
11.53857465900999
 30
0.0
 11
8.068322276151123
 21
11.53857465900999
 31
0.0
  0
ARC
  5
24DF
102
{ACAD_REACTORS
330
2528
102
}
330
1F
100
AcDbEntity
  8
Converter
100
AcDbCircle
 10
8.068322276151123
 20
11.60928533712865
 30
0.0
 40
0.0707106781186547
100
AcDbArc
 50
270.0
 51
0.0
  0
ARC
  5
24E0
330
1F
100
AcDbEntity
  8
Converter
100
AcDbCircle
 10
6.809743632388434
 20
11.60928533712865
 30
0.0
 40
0.0707106781186547
100
AcDbArc
 50
180.0
 51
270.0
  0
LINE
  5
24E1
102
{ACAD_REACTORS
330
2525
102
}
330
1F
100
AcDbEntity
  8
Converter
100
AcDbLine
 10
8.139032954269778
 20
11.60928533712865
 30
0.0
 11
8.139032954269778
 21
12.03857465900999
 31
0.0
  0
LINE
  5
24E2
102
{ACAD_REACTORS
330
2528
102
}
330
1F
100
AcDbEntity
  8
Converter
100
AcDbLine
 10
8.139032954269778
 20
12.03857465900999
 30
0.0
 11
6.739032954269779
 21
12.03857465900999
 31
0.0
  0
LINE
  5
24E3
102
{ACAD_REACTORS
330
2525
330
252B
102
}
330
1F
100
AcDbEntity
  8
Converter
100
AcDbLine
 10
6.739032954269779
 20
12.03857465900999
 30
0.0
 11
6.739032954269779
 21
11.60928533712865
 31
0.0
  0
LINE
  5
24E4
330
1F
100
AcDbEntity
  8
Converter
100
AcDbLine
 10
6.739032954269774
 20
16.32502002312898
 30
0.0
 11
6.739032954269774
 21
17.42502002312898
 31
0.0
  0
LINE
  5
24E5
102
{ACAD_REACTORS
330
2512
330
2515
330
2518
102
}
330
1F
100
AcDbEntity
  8
Converter
100
AcDbLine
 10
8.139032954269772
 20
16.32502002312898
 30
0.0
 11
8.139032954269776
 21
17.42502002312898
 31
0.0
  0
LINE
  5
24E6
102
{ACAD_REACTORS
330
2503
330
2506
330
2509
330
250C
330
250F
330
2522
102
}
330
1F
100
AcDbEntity
  8
Converter
100
AcDbLine
 10
6.739032954269774
 20
16.32502002312898
 30
0.0
 11
8.139032954269772
 21
16.32502002312898
 31
0.0
  0
LINE
  5
24E7
102
{ACAD_REACTORS
330
251B
330
251E
330
2522
102
}
330
1F
100
AcDbEntity
  8
Converter
100
AcDbLine
 10
6.739032954269774
 20
17.42502002312898
 30
0.0
 11
8.139032954269772
 21
17.42502002312898
 31
0.0
  0
CIRCLE
  5
24E8
102
{ACAD_REACTORS
330
2503
330
251E
102
}
330
1F
100
AcDbEntity
  8
Converter
100
AcDbCircle
 10
6.989032954269774
 20
16.52502002312898
 30
0.0
 40
0.02
  0
CIRCLE
  5
24E9
102
{ACAD_REACTORS
330
2506
102
}
330
1F
100
AcDbEntity
  8
Converter
100
AcDbCircle
 10
7.589032954269775
 20
16.52502002312898
 30
0.0
 40
0.02
  0
CIRCLE
  5
24EA
102
{ACAD_REACTORS
330
250C
330
2518
102
}
330
1F
100
AcDbEntity
  8
Converter
100
AcDbCircle
 10
7.689032954269773
 20
16.77502002312898
 30
0.0
 40
0.02
  0
CIRCLE
  5
24EB
102
{ACAD_REACTORS
330
250F
330
2515
102
}
330
1F
100
AcDbEntity
  8
Converter
100
AcDbCircle
 10
8.039032954269774
 20
16.87502002312898
 30
0.0
 40
0.02
  0
CIRCLE
  5
24EC
102
{ACAD_REACTORS
330
2512
102
}
330
1F
100
AcDbEntity
  8
Converter
100
AcDbCircle
 10
7.689032954269773
 20
17.27502002312898
 30
0.0
 40
0.02
  0
LINE
  5
24ED
330
1F
100
AcDbEntity
  8
Converter
100
AcDbLine
 10
8.059032954269779
 20
12.23857465900999
 30
0.0
 11
8.01903295426978
 21
12.23857465900999
 31
0.0
  0
LINE
  5
24EE
330
1F
100
AcDbEntity
  8
Converter
100
AcDbLine
 10
7.709032954269778
 20
12.23857465900999
 30
0.0
 11
7.669032954269779
 21
12.23857465900999
 31
0.0
  0
LINE
  5
24EF
330
1F
100
AcDbEntity
  8
Converter
100
AcDbLine
 10
7.60903295426978
 20
12.23857465900999
 30
0.0
 11
7.569032954269781
 21
12.23857465900999
 31
0.0
  0
LINE
  5
24F0
330
1F
100
AcDbEntity
  8
Converter
100
AcDbLine
 10
7.009032954269779
 20
12.23857465900999
 30
0.0
 11
6.969032954269779
 21
12.23857465900999
 31
0.0
  0
LINE
  5
24F1
102
{ACAD_REACTORS
330
252B
102
}
330
1F
100
AcDbEntity
  8
Converter
100
AcDbLine
 10
6.969032954269779
 20
12.23857465900999
 30
0.0
 11
6.969032954269779
 21
12.03857465900999
 31
0.0
  0
LINE
  5
24F2
330
1F
100
AcDbEntity
  8
Converter
100
AcDbLine
 10
7.009032954269779
 20
12.23857465900999
 30
0.0
 11
7.009032954269779
 21
12.03857465900999
 31
0.0
  0
LINE
  5
24F3
330
1F
100
AcDbEntity
  8
Converter
100
AcDbLine
 10
7.569032954269781
 20
12.23857465900999
 30
0.0
 11
7.569032954269781
 21
12.03857465900999
 31
0.0
  0
LINE
  5
24F4
330
1F
100
AcDbEntity
  8
Converter
100
AcDbLine
 10
7.60903295426978
 20
12.23857465900999
 30
0.0
 11
7.60903295426978
 21
12.03857465900999
 31
0.0
  0
LINE
  5
24F5
330
1F
100
AcDbEntity
  8
Converter
100
AcDbLine
 10
7.669032954269779
 20
12.23857465900999
 30
0.0
 11
7.669032954269779
 21
12.03857465900999
 31
0.0
  0
LINE
  5
24F6
330
1F
100
AcDbEntity
  8
Converter
100
AcDbLine
 10
7.709032954269778
 20
12.23857465900999
 30
0.0
 11
7.709032954269778
 21
12.03857465900999
 31
0.0
  0
LINE
  5
24F7
330
1F
100
AcDbEntity
  8
Converter
100
AcDbLine
 10
8.01903295426978
 20
12.23857465900999
 30
0.0
 11
8.01903295426978
 21
12.03857465900999
 31
0.0
  0
LINE
  5
24F8
330
1F
100
AcDbEntity
  8
Converter
100
AcDbLine
 10
8.059032954269779
 20
12.23857465900999
 30
0.0
 11
8.059032954269779
 21
12.03857465900999
 31
0.0
  0
LINE
  5
24F9
330
1F
100
AcDbEntity
  8
Converter
100
AcDbLine
 10
7.249032954269775
 20
16.58502002312898
 30
0.0
 11
7.449032954269775
 21
16.58502002312898
 31
0.0
  0
LINE
  5
24FA
330
1F
100
AcDbEntity
  8
Converter
100
AcDbLine
 10
7.449032954269775
 20
16.58502002312898
 30
0.0
 11
7.449032954269775
 21
16.78502002312899
 31
0.0
  0
LINE
  5
24FB
330
1F
100
AcDbEntity
  8
Converter
100
AcDbLine
 10
7.449032954269775
 20
16.78502002312899
 30
0.0
 11
7.249032954269775
 21
16.78502002312899
 31
0.0
  0
LINE
  5
24FC
330
1F
100
AcDbEntity
  8
Converter
100
AcDbLine
 10
7.249032954269775
 20
16.78502002312899
 30
0.0
 11
7.249032954269775
 21
16.58502002312898
 31
0.0
  0
CIRCLE
  5
24FD
330
1F
100
AcDbEntity
  8
Converter
100
AcDbCircle
 10
7.349032954269777
 20
16.68502002312898
 30
0.0
 40
0.06
  0
LINE
  5
24FE
102
{ACAD_REACTORS
330
251B
102
}
330
1F
100
AcDbEntity
  8
Converter
100
AcDbLine
 10
7.349032954269777
 20
16.68502002312898
 30
0.0
 11
7.349032954269777
 21
16.68502002312898
 31
0.0
  0
LINE
  5
24FF
102
{ACAD_REACTORS
330
2509
102
}
330
1F
100
AcDbEntity
  8
Converter
100
AcDbLine
 10
7.30660654739858
 20
16.64259361625779
 30
0.0
 11
7.391459361140967
 21
16.72744643000017
 31
0.0
  0
LINE
  5
2500
330
1F
100
AcDbEntity
  8
Dimensions
100
AcDbLine
 10
7.689032954269773
 20
17.21631618950007
 30
0.0
 11
7.689032954269773
 21
16.83036370373571
 31
0.0
  0
DIMENSION
  5
2501
102
{ACAD_XDICTIONARY
360
2502
102
}
102
{ACAD_REACTORS
330
2503
102
}
330
1F
100
AcDbEntity
  8
Dimensions
100
AcDbDimension
280
     0
  2
*D23
 10
6.989032954269774
 20
16.15976628794985
 30
0.0
 11
5.995681999290237
 21
16.15976628794985
 31
0.0
 70
   160
 71
     5
 42
0.25
 73
     0
 74
     0
 75
     0
  3
Standard
100
AcDbAlignedDimension
 13
6.739032954269774
 23
16.32502002312898
 33
0.0
 14
6.989032954269774
 24
16.52502002312898
 34
0.0
100
AcDbRotatedDimension
1001
ACAD
1000
DSTYLE
1002
{
1070
   279
1070
     0
1002
}
  0
DIMENSION
  5
2504
102
{ACAD_XDICTIONARY
360
2505
102
}
102
{ACAD_REACTORS
330
2506
102
}
330
1F
100
AcDbEntity
  8
Dimensions
100
AcDbDimension
280
     0
  2
*D24
 10
7.589032954269775
 20
15.65976628794985
 30
0.0
 11
6.072122995197467
 21
15.65976628794985
 31
0.0
 70
   160
 71
     5
 42
0.8500000000000014
 73
     0
 74
     0
 75
     0
  3
Standard
100
AcDbAlignedDimension
 13
6.739032954269774
 23
16.32502002312898
 33
0.0
 14
7.589032954269775
 24
16.52502002312898
 34
0.0
100
AcDbRotatedDimension
1001
ACAD
1000
DSTYLE
1002
{
1070
   279
1070
     0
1002
}
  0
DIMENSION
  5
2507
102
{ACAD_XDICTIONARY
360
2508
102
}
102
{ACAD_REACTORS
330
2509
102
}
330
1F
100
AcDbEntity
  8
Dimensions
100
AcDbDimension
280
     0
  2
*D25
 10
7.349032954269777
 20
15.90976628794985
 30
0.0
 11
6.072122995197467
 21
15.90976628794985
 31
0.0
 70
   160
 71
     5
 42
0.610000000000003
 73
     0
 74
     0
 75
     0
  3
Standard
100
AcDbAlignedDimension
 13
6.739032954269774
 23
16.32502002312898
 33
0.0
 14
7.349032954269777
 24
16.68502002312898
 34
0.0
100
AcDbRotatedDimension
1001
ACAD
1000
DSTYLE
1002
{
1070
   279
1070
     0
1002
}
  0
DIMENSION
  5
250A
102
{ACAD_XDICTIONARY
360
250B
102
}
102
{ACAD_REACTORS
330
250C
102
}
330
1F
100
AcDbEntity
  8
Dimensions
100
AcDbDimension
280
     0
  2
*D26
 10
7.689032954269773
 20
15.40976628794985
 30
0.0
 11
6.072122995197467
 21
15.40976628794985
 31
0.0
 70
   160
 71
     5
 42
0.9499999999999992
 73
     0
 74
     0
 75
     0
  3
Standard
100
AcDbAlignedDimension
 13
6.739032954269774
 23
16.32502002312898
 33
0.0
 14
7.689032954269773
 24
16.77502002312898
 34
0.0
100
AcDbRotatedDimension
1001
ACAD
1000
DSTYLE
1002
{
1070
   279
1070
     0
1002
}
  0
DIMENSION
  5
250D
102
{ACAD_XDICTIONARY
360
250E
102
}
102
{ACAD_REACTORS
330
250F
102
}
330
1F
100
AcDbEntity
  8
Dimensions
100
AcDbDimension
280
     0
  2
*D27
 10
8.039032954269774
 20
15.15976628794985
 30
0.0
 11
6.07800635126841
 21
15.15976628794985
 31
0.0
 70
   160
 71
     5
 42
1.3
 73
     0
 74
     0
 75
     0
  3
Standard
100
AcDbAlignedDimension
 13
6.739032954269774
 23
16.32502002312898
 33
0.0
 14
8.039032954269774
 24
16.87502002312898
 34
0.0
100
AcDbRotatedDimension
1001
ACAD
1000
DSTYLE
1002
{
1070
   279
1070
     0
1002
}
  0
DIMENSION
  5
2510
102
{ACAD_XDICTIONARY
360
2511
102
}
102
{ACAD_REACTORS
330
2512
102
}
330
1F
100
AcDbEntity
  8
Dimensions
100
AcDbDimension
280
     0
  2
*D28
 10
8.325513609274434
 20
17.27502002312898
 30
0.0
 11
8.862730526054786
 21
18.16404959184487
 31
0.0
 70
   160
 71
     5
 42
0.1500000000000021
 73
     0
 74
     0
 75
     0
  3
Standard
100
AcDbAlignedDimension
 13
8.139032954269776
 23
17.42502002312898
 33
0.0
 14
7.689032954269773
 24
17.27502002312898
 34
0.0
 50
90.0
100
AcDbRotatedDimension
  0
DIMENSION
  5
2513
102
{ACAD_XDICTIONARY
360
2514
102
}
102
{ACAD_REACTORS
330
2515
102
}
330
1F
100
AcDbEntity
  8
Dimensions
100
AcDbDimension
280
     0
  2
*D29
 10
8.56475490608096
 20
17.42502002312898
 30
0.0
 11
9.148588466790371
 21
17.91401707412842
 31
0.0
 70
   160
 71
     5
 42
0.5500000000000043
 73
     0
 74
     0
 75
     0
  3
Standard
100
AcDbAlignedDimension
 13
8.039032954269774
 23
16.87502002312898
 33
0.0
 14
8.139032954269776
 24
17.42502002312898
 34
0.0
 50
90.0
100
AcDbRotatedDimension
1001
ACAD
1000
DSTYLE
1002
{
1070
   279
1070
     0
1002
}
  0
DIMENSION
  5
2516
102
{ACAD_XDICTIONARY
360
2517
102
}
102
{ACAD_REACTORS
330
2518
102
}
330
1F
100
AcDbEntity
  8
Dimensions
100
AcDbDimension
280
     0
  2
*D30
 10
8.783850394443696
 20
17.42502002312898
 30
0.0
 11
9.367683955153108
 21
17.64800820763885
 31
0.0
 70
   160
 71
     5
 42
0.6500000000000022
 73
     0
 74
     0
 75
     0
  3
Standard
100
AcDbAlignedDimension
 13
7.689032954269773
 23
16.77502002312898
 33
0.0
 14
8.139032954269776
 24
17.42502002312898
 34
0.0
 50
90.0
100
AcDbRotatedDimension
  0
DIMENSION
  5
2519
102
{ACAD_XDICTIONARY
360
251A
102
}
102
{ACAD_REACTORS
330
251B
102
}
330
1F
100
AcDbEntity
  8
Dimensions
100
AcDbDimension
280
     0
  2
*D31
 10
6.526532954269776
 20
16.68502002312898
 30
0.0
 11
7.110366514979187
 21
17.73926618353631
 31
0.0
 70
   160
 71
     5
 42
0.740000000000002
 73
     0
 74
     0
 75
     0
  3
Standard
100
AcDbAlignedDimension
 13
6.739032954269774
 23
17.42502002312898
 33
0.0
 14
7.349032954269777
 24
16.68502002312898
 34
0.0
 50
90.0
100
AcDbRotatedDimension
  0
DIMENSION
  5
251C
102
{ACAD_XDICTIONARY
360
251D
102
}
102
{ACAD_REACTORS
330
251E
102
}
330
1F
100
AcDbEntity
  8
Dimensions
100
AcDbDimension
280
     0
  2
*D32
 10
6.260522938690585
 20
16.52502002312898
 30
0.0
 11
6.844356499399996
 21
17.93413733053816
 31
0.0
 70
   160
 71
     5
 42
0.8999999999999985
 73
     0
 74
     0
 75
     0
  3
Standard
100
AcDbAlignedDimension
 13
6.739032954269774
 23
17.42502002312898
 33
0.0
 14
6.989032954269774
 24
16.52502002312898
 34
0.0
 50
90.0
100
AcDbRotatedDimension
  0
LINE
  5
251F
330
1F
100
AcDbEntity
  8
Dimensions
100
AcDbLine
 10
7.058308182168381
 20
16.52502002312898
 30
0.0
 11
7.526540626474293
 21
16.52502002312898
 31
0.0
  0
DIMENSION
  5
2520
102
{ACAD_XDICTIONARY
360
2521
102
}
102
{ACAD_REACTORS
330
2522
102
}
330
1F
100
AcDbEntity
  8
Dimensions
100
AcDbDimension
280
     0
  2
*D33
 10
5.726391679647441
 20
17.42502002312898
 30
0.0
 11
5.726391679647439
 21
16.87502002312898
 31
0.0
 70
    32
 71
     5
 42
1.100000000000001
 73
     0
 74
     0
 75
     0
  3
Standard
100
AcDbAlignedDimension
 13
6.739032954269774
 23
16.32502002312898
 33
0.0
 14
6.739032954269774
 24
17.42502002312898
 34
0.0
 50
90.0
100
AcDbRotatedDimension
  0
DIMENSION
  5
2523
102
{ACAD_XDICTIONARY
360
2524
102
}
102
{ACAD_REACTORS
330
2525
102
}
330
1F
100
AcDbEntity
  8
Dimensions
100
AcDbDimension
280
     0
  2
*D34
 10
8.139032954269778
 20
11.15421913455224
 30
0.0
 11
7.439032954269778
 21
11.15421913455224
 31
0.0
 70
    32
 71
     5
 42
1.399999999999998
 73
     0
 74
     0
 75
     0
  3
Standard
100
AcDbAlignedDimension
 13
6.739032954269779
 23
11.60928533712865
 33
0.0
 14
8.139032954269778
 24
11.60928533712865
 34
0.0
100
AcDbRotatedDimension
  0
DIMENSION
  5
2526
102
{ACAD_XDICTIONARY
360
2527
102
}
102
{ACAD_REACTORS
330
2528
102
}
330
1F
100
AcDbEntity
  8
Dimensions
100
AcDbDimension
280
     0
  2
*D35
 10
8.442350961922992
 20
12.03857465900999
 30
0.0
 11
9.026184522632402
 21
12.74671159966693
 31
0.0
 70
   160
 71
     5
 42
0.5
 73
     0
 74
     0
 75
     0
  3
Standard
100
AcDbAlignedDimension
 13
8.068322276151123
 23
11.53857465900999
 33
0.0
 14
8.139032954269778
 24
12.03857465900999
 34
0.0
 50
90.0
100
AcDbRotatedDimension
  0
DIMENSION
  5
2529
102
{ACAD_XDICTIONARY
360
252A
102
}
102
{ACAD_REACTORS
330
252B
102
}
330
1F
100
AcDbEntity
  8
Dimensions
100
AcDbDimension
280
     0
  2
*D36
 10
6.364185490920113
 20
12.03857465900999
 30
0.0
 11
5.198196404971953
 21
11.25121397932369
 31
0.0
 70
   160
  1
<>  Min. Pin Length
 71
     5
 42
0.1999999999999993
 73
     0
 74
     0
 75
     0
  3
Standard
100
AcDbAlignedDimension
 13
6.969032954269779
 23
12.23857465900999
 33
0.0
 14
6.739032954269779
 24
12.03857465900999
 34
0.0
 50
90.0
100
AcDbRotatedDimension
  0
LEADER
  5
252C
330
1F
100
AcDbEntity
  8
Dimensions
100
AcDbLeader
  3
Standard
 73
     0
 76
     3
 10
6.969032954269779
 20
12.23857465900999
 30
0.0
 10
6.780080351076348
 20
12.71684738741827
 30
0.0
 10
6.280080351076348
 20
12.71684738741827
 30
0.0
213
0.0
223
0.0625
233
0.0
1001
ACAD
1000
DSTYLE
1002
{
1070
     5
1000

1070
    77
1070
     0
1070
   147
1040
0.09
1002
}
  0
MTEXT
  5
252D
102
{ACAD_XDICTIONARY
360
252E
102
}
330
1F
100
AcDbEntity
  8
Dimensions
100
AcDbMText
 10
5.084852231316146
 20
12.50127679583831
 30
0.0
 40
0.1
 41
0.0
 46
0.0
 71
     7
 72
     1
  1
PIN - 0.04 [1.02] Dia.\PTin Plated Brass\PMatte Finish 5 Plc
 73
     1
 44
1.0
  0
LEADER
  5
252F
330
1F
100
AcDbEntity
  8
Dimensions
100
AcDbLeader
  3
Standard
 73
     0
 76
     3
 10
8.192611268115237
 20
11.49677447117664
 30
0.0
 10
8.522171997379201
 20
11.06341990116115
 30
0.0
 10
8.926777274664386
 20
11.06341990116115
 30
0.0
213
0.0
223
0.0625
233
0.0
1001
ACAD
1000
DSTYLE
1002
{
1070
     5
1000

1070
    77
1070
     0
1070
   147
1040
0.09
1002
}
  0
MTEXT
  5
2530
102
{ACAD_REACTORS
330
252F
102
}
330
1F
100
AcDbEntity
  8
Dimensions
100
AcDbMText
 10
9.000421103402898
 20
11.03267004789659
 30
0.0
 40
0.1
 41
0.0
 46
0.0
 71
     7
 72
     1
  1
Nickel^IPlated Metal
 73
     1
 44
1.0
  0
MTEXT
  5
2531
330
1F
100
AcDbEntity
  8
Dimensions
100
AcDbMText
 10
8.132749795502455
 20
16.00253471153467
 30
0.0
 40
0.1
 41
0.0
 46
0.0
 71
     7
 72
     1
  1
Bottom View
 73
     1
 44
1.0
  0
MTEXT
  5
2532
330
1F
100
AcDbEntity
  8
Converter
100
AcDbMText
 10
7.571910018245272
 20
17.20912017482264
 30
0.0
 40
0.1
 41
0.0
 46
0.0
 71
     7
 72
     1
  1
2
 73
     1
 44
1.0
  0
MTEXT
  5
2533
330
1F
100
AcDbEntity
  8
Converter
100
AcDbMText
 10
7.595478192999895
 20
16.73378182369469
 30
0.0
 40
0.1
 41
0.0
 46
0.0
 71
     7
 72
     1
  1
1
 73
     1
 44
1.0
  0
MTEXT
  5
2534
330
1F
100
AcDbEntity
  8
Converter
100
AcDbMText
 10
7.925325143545318
 20
16.83869884347652
 30
0.0
 40
0.1
 41
0.0
 46
0.0
 71
     7
 72
     1
  1
5
 73
     1
 44
1.0
  0
MTEXT
  5
2535
330
1F
100
AcDbEntity
  8
Converter
100
AcDbMText
 10
7.516203415432162
 20
16.56248873098338
 30
0.0
 40
0.1
 41
0.0
 46
0.0
 71
     7
 72
     1
  1
3
 73
     1
 44
1.0
  0
MTEXT
  5
2536
330
1F
100
AcDbEntity
  8
Converter
100
AcDbMText
 10
6.904430602255889
 20
16.55878690181747
 30
0.0
 40
0.1
 41
0.0
 46
0.0
 71
     7
 72
     1
  1
4
 73
     1
 44
1.0
  0
LEADER
  5
2537
330
1F
100
AcDbEntity
  8
Dimensions
100
AcDbLeader
  3
Standard
 73
     0
 76
     3
 10
7.37406538234363
 20
16.81124620632983
 30
0.0
 10
7.496317506910834
 20
17.21322955617419
 30
0.0
 10
7.433817506910834
 20
17.21322955617419
 30
0.0
213
0.0
223
0.0625
233
0.0
1001
ACAD
1000
DSTYLE
1002
{
1070
     5
1000

1070
    77
1070
     0
1070
   147
1040
0.09
1002
}
  0
MTEXT
  5
2538
102
{ACAD_XDICTIONARY
360
2539
102
}
330
1F
100
AcDbEntity
  8
Dimensions
100
AcDbMText
 10
6.802120913068932
 20
17.16811589960107
 30
0.0
 40
0.1
 41
0.0
 46
0.0
 71
     7
 72
     1
  1
Cal. ADJ
 73
     1
 44
1.0
  0
LINE
  5
253A
330
1F
100
AcDbEntity
  8
Converter
100
AcDbLine
 10
10.34854757220576
 20
11.53857465900995
 30
0.0
 11
9.389968928443073
 21
11.53857465900997
 31
0.0
  0
ARC
  5
253B
330
1F
100
AcDbEntity
  8
Converter
100
AcDbCircle
 10
9.389968928443073
 20
11.60928533712862
 30
0.0
 40
0.0707106781186547
100
AcDbArc
 50
179.9999999999992
 51
269.9999999999992
  0
ARC
  5
253C
330
1F
100
AcDbEntity
  8
Converter
100
AcDbCircle
 10
10.34854757220576
 20
11.6092853371286
 30
0.0
 40
0.0707106781186547
100
AcDbArc
 50
269.9999999999992
 51
359.9999999999992
  0
LINE
  5
253D
330
1F
100
AcDbEntity
  8
Converter
100
AcDbLine
 10
9.319258250324415
 20
11.60928533712862
 30
0.0
 11
9.319258250324422
 21
12.03857465900997
 31
0.0
  0
LINE
  5
253E
330
1F
100
AcDbEntity
  8
Converter
100
AcDbLine
 10
9.319258250324422
 20
12.03857465900997
 30
0.0
 11
10.41925825032443
 21
12.03857465900995
 31
0.0
  0
LINE
  5
253F
330
1F
100
AcDbEntity
  8
Converter
100
AcDbLine
 10
10.41925825032442
 20
12.03857465900995
 30
0.0
 11
10.41925825032442
 21
11.6092853371286
 31
0.0
  0
LINE
  5
2540
330
1F
100
AcDbEntity
  8
Converter
100
AcDbLine
 10
9.499258250324428
 20
12.23857465900996
 30
0.0
 11
9.539258250324428
 21
12.23857465900996
 31
0.0
  0
LINE
  5
2541
330
1F
100
AcDbEntity
  8
Converter
100
AcDbLine
 10
9.749258250324428
 20
12.23857465900996
 30
0.0
 11
9.789258250324428
 21
12.23857465900996
 31
0.0
  0
LINE
  5
2542
330
1F
100
AcDbEntity
  8
Converter
100
AcDbLine
 10
9.849258250324426
 20
12.23857465900996
 30
0.0
 11
9.889258250324425
 21
12.23857465900996
 31
0.0
  0
LINE
  5
2543
330
1F
100
AcDbEntity
  8
Converter
100
AcDbLine
 10
10.24925825032443
 20
12.23857465900995
 30
0.0
 11
10.28925825032443
 21
12.23857465900995
 31
0.0
  0
LINE
  5
2544
330
1F
100
AcDbEntity
  8
Converter
100
AcDbLine
 10
10.28925825032443
 20
12.23857465900995
 30
0.0
 11
10.28925825032442
 21
12.03857465900995
 31
0.0
  0
LINE
  5
2545
330
1F
100
AcDbEntity
  8
Converter
100
AcDbLine
 10
10.24925825032443
 20
12.23857465900995
 30
0.0
 11
10.24925825032442
 21
12.03857465900995
 31
0.0
  0
LINE
  5
2546
330
1F
100
AcDbEntity
  8
Converter
100
AcDbLine
 10
9.889258250324425
 20
12.23857465900996
 30
0.0
 11
9.889258250324422
 21
12.03857465900996
 31
0.0
  0
LINE
  5
2547
330
1F
100
AcDbEntity
  8
Converter
100
AcDbLine
 10
9.849258250324426
 20
12.23857465900996
 30
0.0
 11
9.849258250324423
 21
12.03857465900996
 31
0.0
  0
LINE
  5
2548
330
1F
100
AcDbEntity
  8
Converter
100
AcDbLine
 10
9.789258250324428
 20
12.23857465900996
 30
0.0
 11
9.789258250324424
 21
12.03857465900996
 31
0.0
  0
LINE
  5
2549
330
1F
100
AcDbEntity
  8
Converter
100
AcDbLine
 10
9.749258250324428
 20
12.23857465900996
 30
0.0
 11
9.749258250324425
 21
12.03857465900996
 31
0.0
  0
LINE
  5
254A
330
1F
100
AcDbEntity
  8
Converter
100
AcDbLine
 10
9.539258250324428
 20
12.23857465900996
 30
0.0
 11
9.53925825032442
 21
12.03857465900997
 31
0.0
  0
LINE
  5
254B
330
1F
100
AcDbEntity
  8
Converter
100
AcDbLine
 10
9.499258250324428
 20
12.23857465900996
 30
0.0
 11
9.499258250324421
 21
12.03857465900997
 31
0.0
  0
LINE
  5
254C
330
1F
100
AcDbEntity
  8
Converter
100
AcDbLine
 10
4.529518336333794
 20
11.53857465900999
 30
0.0
 11
5.488096980096484
 21
11.53857465900999
 31
0.0
  0
ARC
  5
254D
330
1F
100
AcDbEntity
  8
Converter
100
AcDbCircle
 10
5.488096980096484
 20
11.60928533712865
 30
0.0
 40
0.0707106781186547
100
AcDbArc
 50
270.0
 51
0.0
  0
ARC
  5
254E
330
1F
100
AcDbEntity
  8
Converter
100
AcDbCircle
 10
4.529518336333794
 20
11.60928533712865
 30
0.0
 40
0.0707106781186547
100
AcDbArc
 50
180.0
 51
270.0
  0
LINE
  5
254F
330
1F
100
AcDbEntity
  8
Converter
100
AcDbLine
 10
5.558807658215142
 20
11.60928533712865
 30
0.0
 11
5.558807658215142
 21
12.03857465900999
 31
0.0
  0
LINE
  5
2550
330
1F
100
AcDbEntity
  8
Converter
100
AcDbLine
 10
5.558807658215142
 20
12.03857465900999
 30
0.0
 11
4.458807658215137
 21
12.03857465900999
 31
0.0
  0
LINE
  5
2551
330
1F
100
AcDbEntity
  8
Converter
100
AcDbLine
 10
4.458807658215139
 20
12.03857465900999
 30
0.0
 11
4.458807658215139
 21
11.60928533712865
 31
0.0
  0
LINE
  5
2552
330
1F
100
AcDbEntity
  8
Converter
100
AcDbLine
 10
5.378807658215141
 20
12.23857465901
 30
0.0
 11
5.338807658215142
 21
12.23857465901
 31
0.0
  0
LINE
  5
2553
330
1F
100
AcDbEntity
  8
Converter
100
AcDbLine
 10
5.128807658215139
 20
12.23857465900999
 30
0.0
 11
5.08880765821514
 21
12.23857465900999
 31
0.0
  0
LINE
  5
2554
330
1F
100
AcDbEntity
  8
Converter
100
AcDbLine
 10
5.028807658215141
 20
12.23857465900999
 30
0.0
 11
4.988807658215142
 21
12.23857465900999
 31
0.0
  0
LINE
  5
2555
330
1F
100
AcDbEntity
  8
Converter
100
AcDbLine
 10
4.628807658215139
 20
12.23857465900999
 30
0.0
 11
4.58880765821514
 21
12.23857465900999
 31
0.0
  0
LINE
  5
2556
330
1F
100
AcDbEntity
  8
Converter
100
AcDbLine
 10
4.58880765821514
 20
12.23857465900999
 30
0.0
 11
4.58880765821514
 21
12.03857465900999
 31
0.0
  0
LINE
  5
2557
330
1F
100
AcDbEntity
  8
Converter
100
AcDbLine
 10
4.628807658215139
 20
12.23857465900999
 30
0.0
 11
4.628807658215139
 21
12.03857465900999
 31
0.0
  0
LINE
  5
2558
330
1F
100
AcDbEntity
  8
Converter
100
AcDbLine
 10
4.988807658215142
 20
12.23857465900999
 30
0.0
 11
4.988807658215142
 21
12.03857465900999
 31
0.0
  0
LINE
  5
2559
330
1F
100
AcDbEntity
  8
Converter
100
AcDbLine
 10
5.028807658215141
 20
12.23857465900999
 30
0.0
 11
5.028807658215141
 21
12.03857465900999
 31
0.0
  0
LINE
  5
255A
330
1F
100
AcDbEntity
  8
Converter
100
AcDbLine
 10
5.08880765821514
 20
12.23857465900999
 30
0.0
 11
5.08880765821514
 21
12.03857465900999
 31
0.0
  0
LINE
  5
255B
330
1F
100
AcDbEntity
  8
Converter
100
AcDbLine
 10
5.128807658215139
 20
12.23857465900999
 30
0.0
 11
5.128807658215139
 21
12.03857465900999
 31
0.0
  0
LINE
  5
255C
330
1F
100
AcDbEntity
  8
Converter
100
AcDbLine
 10
5.338807658215142
 20
12.23857465901
 30
0.0
 11
5.338807658215142
 21
12.03857465901
 31
0.0
  0
LINE
  5
255D
330
1F
100
AcDbEntity
  8
Converter
100
AcDbLine
 10
5.378807658215141
 20
12.23857465901
 30
0.0
 11
5.378807658215141
 21
12.03857465901
 31
0.0
  0
LEADER
  5
255E
330
1F
100
AcDbEntity
  8
Dimensions
100
AcDbLeader
  3
Standard
 73
     0
 76
     3
 10
18.44580873298102
 20
11.49677447117659
 30
0.0
 10
18.77536946224498
 20
11.0634199011611
 30
0.0
 10
19.17997473953017
 20
11.0634199011611
 30
0.0
213
0.0
223
0.0625
233
0.0
1001
ACAD
1000
DSTYLE
1002
{
1070
     5
1000

1070
    77
1070
     0
1070
   147
1040
0.09
1002
}
  0
MTEXT
  5
255F
102
{ACAD_REACTORS
330
255E
102
}
330
1F
100
AcDbEntity
  8
Dimensions
100
AcDbMText
 10
19.25361856826868
 20
11.03267004789654
 30
0.0
 40
0.1
 41
0.0
 46
0.0
 71
     7
 72
     1
  1
Nickel^IPlated Metal
 73
     1
 44
1.0
  0
ARC
  5
2560
102
{ACAD_REACTORS
330
25A8
102
}
330
1F
100
AcDbEntity
  8
Converter
100
AcDbCircle
 10
28.90528447816098
 20
11.63757465900978
 30
0.0
 40
0.1
100
AcDbArc
 50
270.0
 51
0.0
  0
ARC
  5
2561
330
1F
100
AcDbEntity
  8
Converter
100
AcDbCircle
 10
27.00528447816099
 20
11.63757465900978
 30
0.0
 40
0.1
100
AcDbArc
 50
180.0
 51
270.0
  0
LINE
  5
2562
330
1F
100
AcDbEntity
  8
Converter
100
AcDbLine
 10
26.90528447816099
 20
11.63757465900978
 30
0.0
 11
26.90528447816099
 21
12.03757465900979
 31
0.0
  0
LINE
  5
2563
102
{ACAD_REACTORS
330
25AE
102
}
330
1F
100
AcDbEntity
  8
Converter
100
AcDbLine
 10
28.90528447816098
 20
11.53757465900979
 30
0.0
 11
27.00507442916847
 21
11.53757465900979
 31
0.0
  0
CIRCLE
  5
2564
102
{ACAD_REACTORS
330
25B1
330
25BE
102
}
330
1F
100
AcDbEntity
  8
Converter
100
AcDbCircle
 10
27.98028447816098
 20
16.77502002312897
 30
0.0
 40
0.02
  0
LINE
  5
2565
330
1F
100
AcDbEntity
  8
Converter
100
AcDbLine
 10
29.00528447816098
 20
16.32502002312898
 30
0.0
 11
26.90528447816098
 21
16.32502002312897
 31
0.0
  0
LEADER
  5
2566
330
1F
100
AcDbEntity
  8
Dimensions
100
AcDbLeader
  3
Standard
 73
     0
 76
     3
 10
28.60524740405977
 20
11.47164557683922
 30
0.0
 10
28.93480813332373
 20
11.03829100682373
 30
0.0
 10
29.33941341060892
 20
11.03829100682373
 30
0.0
213
0.0
223
0.0625
233
0.0
1001
ACAD
1000
DSTYLE
1002
{
1070
     5
1000

1070
    77
1070
     0
1070
   147
1040
0.09
1002
}
  0
MTEXT
  5
2567
102
{ACAD_REACTORS
330
2566
102
}
330
1F
100
AcDbEntity
  8
Dimensions
100
AcDbMText
 10
29.42941341060892
 20
10.97579100682373
 30
0.0
 40
0.1
 41
0.0
 46
0.0
 71
     7
 72
     1
  1
Nickel Plated Metal
 73
     1
 44
1.0
  0
LINE
  5
2568
330
1F
100
AcDbEntity
  8
0
100
AcDbLine
 10
25.15754027482314
 20
11.74433561293398
 30
0.0
 11
25.15754027482314
 21
11.86433561293398
 31
0.0
  0
LINE
  5
2569
330
1F
100
AcDbEntity
  8
0
100
AcDbLine
 10
25.15754027482314
 20
11.78742055063908
 30
0.0
 11
24.65754027482314
 21
11.78742055063908
 31
0.0
  0
LINE
  5
256A
330
1F
100
AcDbEntity
  8
0
100
AcDbLine
 10
24.65754027482314
 20
11.78742055063908
 30
0.0
 11
24.65754027482314
 21
11.82125067522888
 31
0.0
  0
LINE
  5
256B
330
1F
100
AcDbEntity
  8
0
100
AcDbLine
 10
24.65754027482314
 20
11.82125067522888
 30
0.0
 11
25.15754027482314
 21
11.82125067522888
 31
0.0
  0
LINE
  5
256C
330
1F
100
AcDbEntity
  8
0
100
AcDbLine
 10
26.90528447816099
 20
11.86433561293398
 30
0.0
 11
25.64965715386946
 21
11.86433561293398
 31
0.0
  0
LINE
  5
256D
330
1F
100
AcDbEntity
  8
0
100
AcDbLine
 10
26.90528447816099
 20
11.74433561293399
 30
0.0
 11
25.55632762406383
 21
11.74433561293398
 31
0.0
  0
LINE
  5
256E
330
1F
100
AcDbEntity
  8
0
100
AcDbLine
 10
26.08730623106155
 20
11.86433561293398
 30
0.0
 11
25.15754027482314
 21
11.86433561293398
 31
0.0
  0
LINE
  5
256F
330
1F
100
AcDbEntity
  8
0
100
AcDbLine
 10
25.99397670125592
 20
11.74433561293398
 30
0.0
 11
25.15754027482314
 21
11.74433561293398
 31
0.0
  0
LINE
  5
2570
330
1F
100
AcDbEntity
  8
0
100
AcDbLine
 10
26.25363339820363
 20
11.94446987997484
 30
0.0
 11
26.03565564399395
 21
11.66420134589311
 31
0.0
  0
LINE
  5
2571
330
1F
100
AcDbEntity
  8
0
100
AcDbLine
 10
26.14963034326358
 20
11.94446987997484
 30
0.0
 11
25.9316525890539
 21
11.66420134589311
 31
0.0
  0
LEADER
  5
2572
330
1F
100
AcDbEntity
  8
Dimensions
100
AcDbLeader
  3
Standard
 73
     0
 76
     3
 10
25.21598558544889
 20
11.64872953155366
 30
0.0
 10
25.66408139863121
 20
10.74698325747164
 30
0.0
 10
26.0686866759164
 20
10.74698325747164
 30
0.0
213
0.0
223
0.0625
233
0.0
1001
ACAD
1000
DSTYLE
1002
{
1070
     5
1000

1070
    77
1070
     0
1070
   147
1040
0.09
1002
}
  0
MTEXT
  5
2573
102
{ACAD_REACTORS
330
2572
102
}
330
1F
100
AcDbEntity
  8
Dimensions
100
AcDbMText
 10
24.51663670175515
 20
17.68592648540006
 30
0.0
 40
0.1
 41
0.0
 46
0.0
 71
     7
 72
     1
  1
#2 / M2.2 Clearance\PMounting Holes 2 Plc
 73
     1
 44
1.0
  0
LINE
  5
2574
102
{ACAD_REACTORS
330
25AB
102
}
330
1F
100
AcDbEntity
  8
Converter
100
AcDbLine
 10
26.65528447816099
 20
12.03757465900979
 30
0.0
 11
26.65528447816099
 21
12.00557465900977
 31
0.0
  0
LINE
  5
2575
330
1F
100
AcDbEntity
  8
Converter
100
AcDbLine
 10
26.90528447816098
 20
16.32502002312898
 30
0.0
 11
26.90528447816098
 21
17.42502002312898
 31
0.0
  0
LINE
  5
2576
102
{ACAD_REACTORS
330
25BB
330
25DA
102
}
330
1F
100
AcDbEntity
  8
Converter
100
AcDbLine
 10
29.00528447816098
 20
16.32502002312898
 30
0.0
 11
29.00528447816098
 21
17.42502002312898
 31
0.0
  0
LINE
  5
2577
102
{ACAD_REACTORS
330
25DA
102
}
330
1F
100
AcDbEntity
  8
Converter
100
AcDbLine
 10
29.00528447816098
 20
17.42502002312898
 30
0.0
 11
26.90528447816098
 21
17.42502002312898
 31
0.0
  0
CIRCLE
  5
2578
102
{ACAD_REACTORS
330
25A1
330
25BE
330
25C1
102
}
330
1F
100
AcDbEntity
  8
Converter
100
AcDbCircle
 10
26.78028447816098
 20
16.87502002312897
 30
0.0
 40
0.048
  0
CIRCLE
  5
2579
102
{ACAD_REACTORS
330
25A1
330
25BB
102
}
330
1F
100
AcDbEntity
  8
Converter
100
AcDbCircle
 10
29.13028447816098
 20
16.87502002312897
 30
0.0
 40
0.048
  0
ARC
  5
257A
330
1F
100
AcDbEntity
  8
Converter
100
AcDbCircle
 10
26.78028447816098
 20
16.87502002312897
 30
0.0
 40
0.125
100
AcDbArc
 50
90.0
 51
269.9999999999996
  0
LINE
  5
257B
330
1F
100
AcDbEntity
  8
Converter
100
AcDbLine
 10
26.78028447816098
 20
17.00002002312897
 30
0.0
 11
26.90528447816098
 21
17.00002002312897
 31
0.0
  0
LINE
  5
257C
330
1F
100
AcDbEntity
  8
Converter
100
AcDbLine
 10
26.78028447816098
 20
16.75002002312897
 30
0.0
 11
26.90528447816098
 21
16.75002002312897
 31
0.0
  0
ARC
  5
257D
330
1F
100
AcDbEntity
  8
Converter
100
AcDbCircle
 10
29.13028447816098
 20
16.87502002312898
 30
0.0
 40
0.125
100
AcDbArc
 50
270.0000000000004
 51
90.0
  0
LINE
  5
257E
330
1F
100
AcDbEntity
  8
Converter
100
AcDbLine
 10
29.13028447816098
 20
17.00002002312898
 30
0.0
 11
29.00528447816098
 21
17.00002002312898
 31
0.0
  0
LINE
  5
257F
330
1F
100
AcDbEntity
  8
Converter
100
AcDbLine
 10
29.13028447816098
 20
16.75002002312898
 30
0.0
 11
29.00528447816098
 21
16.75002002312897
 31
0.0
  0
LINE
  5
2580
330
1F
100
AcDbEntity
  8
Converter
100
AcDbLine
 10
28.06028447816098
 20
16.57502002312898
 30
0.0
 11
28.26028447816098
 21
16.57502002312898
 31
0.0
  0
LINE
  5
2581
330
1F
100
AcDbEntity
  8
Converter
100
AcDbLine
 10
28.26028447816098
 20
16.57502002312898
 30
0.0
 11
28.26028447816098
 21
16.77502002312898
 31
0.0
  0
LINE
  5
2582
330
1F
100
AcDbEntity
  8
Converter
100
AcDbLine
 10
28.26028447816098
 20
16.77502002312898
 30
0.0
 11
28.06028447816098
 21
16.77502002312898
 31
0.0
  0
LINE
  5
2583
330
1F
100
AcDbEntity
  8
Converter
100
AcDbLine
 10
28.06028447816098
 20
16.77502002312898
 30
0.0
 11
28.06028447816098
 21
16.57502002312898
 31
0.0
  0
CIRCLE
  5
2584
330
1F
100
AcDbEntity
  8
Converter
100
AcDbCircle
 10
28.16028447816098
 20
16.67502002312898
 30
0.0
 40
0.06
  0
LINE
  5
2585
330
1F
100
AcDbEntity
  8
Converter
100
AcDbLine
 10
28.16028447816098
 20
16.67502002312898
 30
0.0
 11
28.16028447816098
 21
16.67502002312898
 31
0.0
  0
LINE
  5
2586
102
{ACAD_REACTORS
330
25B4
102
}
330
1F
100
AcDbEntity
  8
Converter
100
AcDbLine
 10
28.11785807128979
 20
16.63259361625778
 30
0.0
 11
28.20271088503218
 21
16.71744643000016
 31
0.0
  0
LINE
  5
2587
330
1F
100
AcDbEntity
  8
Converter
100
AcDbLine
 10
27.99528447816099
 20
12.23757465900978
 30
0.0
 11
27.99528447816099
 21
12.03857465900978
 31
0.0
  0
LINE
  5
2588
330
1F
100
AcDbEntity
  8
Converter
100
AcDbLine
 10
27.95528447816098
 20
12.23757465900978
 30
0.0
 11
27.95528447816098
 21
12.03857465900978
 31
0.0
  0
LINE
  5
2589
330
1F
100
AcDbEntity
  8
Converter
100
AcDbLine
 10
27.95528447816098
 20
12.23757465900978
 30
0.0
 11
27.99528447816099
 21
12.23757465900978
 31
0.0
  0
LINE
  5
258A
330
1F
100
AcDbEntity
  8
Converter
100
AcDbLine
 10
28.34528447816099
 20
12.23757465900978
 30
0.0
 11
28.34528447816099
 21
12.03857465900978
 31
0.0
  0
LINE
  5
258B
330
1F
100
AcDbEntity
  8
Converter
100
AcDbLine
 10
28.30528447816098
 20
12.23757465900978
 30
0.0
 11
28.30528447816098
 21
12.03857465900978
 31
0.0
  0
LINE
  5
258C
330
1F
100
AcDbEntity
  8
Converter
100
AcDbLine
 10
28.30528447816098
 20
12.23757465900978
 30
0.0
 11
28.34528447816099
 21
12.23757465900978
 31
0.0
  0
LINE
  5
258D
330
1F
100
AcDbEntity
  8
Converter
100
AcDbLine
 10
28.49528447816099
 20
12.23757465900978
 30
0.0
 11
28.49528447816099
 21
12.03857465900978
 31
0.0
  0
LINE
  5
258E
330
1F
100
AcDbEntity
  8
Converter
100
AcDbLine
 10
28.45528447816099
 20
12.23757465900978
 30
0.0
 11
28.45528447816099
 21
12.03857465900978
 31
0.0
  0
LINE
  5
258F
330
1F
100
AcDbEntity
  8
Converter
100
AcDbLine
 10
28.45528447816099
 20
12.23757465900978
 30
0.0
 11
28.49528447816099
 21
12.23757465900978
 31
0.0
  0
LINE
  5
2590
330
1F
100
AcDbEntity
  8
Converter
100
AcDbLine
 10
28.84528447816099
 20
12.23757465900978
 30
0.0
 11
28.84528447816099
 21
12.03857465900978
 31
0.0
  0
LINE
  5
2591
330
1F
100
AcDbEntity
  8
Converter
100
AcDbLine
 10
28.80528447816098
 20
12.23757465900978
 30
0.0
 11
28.80528447816098
 21
12.03857465900978
 31
0.0
  0
LINE
  5
2592
102
{ACAD_REACTORS
330
25C6
102
}
330
1F
100
AcDbEntity
  8
Converter
100
AcDbLine
 10
28.80528447816098
 20
12.23757465900978
 30
0.0
 11
28.84528447816099
 21
12.23757465900978
 31
0.0
  0
LINE
  5
2593
330
1F
100
AcDbEntity
  8
Converter
100
AcDbLine
 10
26.90528447816099
 20
11.86433561293398
 30
0.0
 11
26.90528447816099
 21
11.74433561293399
 31
0.0
  0
LINE
  5
2594
330
1F
100
AcDbEntity
  8
0
100
AcDbLine
 10
24.615888142691
 20
16.47752002312897
 30
0.0
 11
24.615888142691
 21
16.59752002312897
 31
0.0
  0
LINE
  5
2595
330
1F
100
AcDbEntity
  8
0
100
AcDbLine
 10
24.615888142691
 20
16.52060496083406
 30
0.0
 11
24.115888142691
 21
16.52060496083406
 31
0.0
  0
LINE
  5
2596
330
1F
100
AcDbEntity
  8
0
100
AcDbLine
 10
24.115888142691
 20
16.52060496083406
 30
0.0
 11
24.115888142691
 21
16.55443508542387
 31
0.0
  0
LINE
  5
2597
330
1F
100
AcDbEntity
  8
0
100
AcDbLine
 10
24.115888142691
 20
16.55443508542387
 30
0.0
 11
24.615888142691
 21
16.55443508542387
 31
0.0
  0
LINE
  5
2598
330
1F
100
AcDbEntity
  8
0
100
AcDbLine
 10
26.90528447816098
 20
16.59752002312898
 30
0.0
 11
25.64965715386946
 21
16.59752002312897
 31
0.0
  0
LINE
  5
2599
330
1F
100
AcDbEntity
  8
0
100
AcDbLine
 10
26.90528447816098
 20
16.47752002312897
 30
0.0
 11
25.55632762406383
 21
16.47752002312897
 31
0.0
  0
LINE
  5
259A
330
1F
100
AcDbEntity
  8
0
100
AcDbLine
 10
25.5456540989294
 20
16.59752002312897
 30
0.0
 11
24.615888142691
 21
16.59752002312897
 31
0.0
  0
LINE
  5
259B
330
1F
100
AcDbEntity
  8
0
100
AcDbLine
 10
25.45232456912377
 20
16.47752002312897
 30
0.0
 11
24.615888142691
 21
16.47752002312897
 31
0.0
  0
LINE
  5
259C
330
1F
100
AcDbEntity
  8
Converter
100
AcDbLine
 10
26.90528447816098
 20
16.59752002312898
 30
0.0
 11
26.90528447816098
 21
16.47752002312897
 31
0.0
  0
LINE
  5
259D
330
1F
100
AcDbEntity
  8
0
100
AcDbLine
 10
25.71198126607148
 20
16.67765429016983
 30
0.0
 11
25.4940035118618
 21
16.3973857560881
 31
0.0
  0
LINE
  5
259E
330
1F
100
AcDbEntity
  8
0
100
AcDbLine
 10
25.60797821113143
 20
16.67765429016983
 30
0.0
 11
25.39000045692175
 21
16.3973857560881
 31
0.0
  0
DIMENSION
  5
259F
102
{ACAD_XDICTIONARY
360
25A0
102
}
102
{ACAD_REACTORS
330
25A1
102
}
330
1F
100
AcDbEntity
  8
Dimensions
100
AcDbDimension
280
     0
  2
*D37
 10
29.13028447816098
 20
18.24293181630888
 30
0.0
 11
27.95528447816098
 21
18.24293181630888
 31
0.0
 70
   160
 71
     5
 42
2.349999999999997
 73
     0
 74
     0
 75
     0
  3
Standard
100
AcDbAlignedDimension
 13
26.78028447816098
 23
16.87502002312897
 33
0.0
 14
29.13028447816098
 24
16.87502002312897
 34
0.0
100
AcDbRotatedDimension
1001
ACAD
1000
DSTYLE
1002
{
1070
   279
1070
     0
1002
}
  0
DIMENSION
  5
25A2
330
1F
100
AcDbEntity
  8
Dimensions
100
AcDbDimension
280
     0
  2
*D3
 10
28.48028447816098
 20
17.74293181630888
 30
0.0
 11
27.68185131105255
 21
17.74293181630888
 31
0.0
 70
   160
 71
     5
 42
1.699999999999999
 73
     0
 74
     0
 75
     0
  3
Standard
100
AcDbAlignedDimension
 13
26.78028447816098
 23
16.87502002312897
 33
0.0
 14
28.48028447816098
 24
17.27502002312897
 34
0.0
100
AcDbRotatedDimension
1001
ACAD
1000
DSTYLE
1002
{
1070
   279
1070
     0
1002
}
  0
DIMENSION
  5
25A3
330
1F
100
AcDbEntity
  8
Dimensions
100
AcDbDimension
280
     0
  2
*D4
 10
28.83028447816098
 20
17.99293181630888
 30
0.0
 11
27.86528447816098
 21
17.99293181630888
 31
0.0
 70
   160
 71
     5
 42
2.05
 73
     0
 74
     0
 75
     0
  3
Standard
100
AcDbAlignedDimension
 13
26.78028447816098
 23
16.87502002312897
 33
0.0
 14
28.83028447816098
 24
16.87502002312897
 34
0.0
100
AcDbRotatedDimension
1001
ACAD
1000
DSTYLE
1002
{
1070
   279
1070
     0
1002
}
  0
DIMENSION
  5
25A4
330
1F
100
AcDbEntity
  8
Dimensions
100
AcDbDimension
280
     0
  2
*D5
 10
30.24517853440178
 20
17.27502002312897
 30
0.0
 11
30.07376300469745
 21
17.57106696900979
 31
0.0
 70
   160
 71
     5
 42
0.3999999999999986
 73
     0
 74
     0
 75
     0
  3
Standard
100
AcDbAlignedDimension
 13
29.12986438017594
 23
16.87502002312897
 33
0.0
 14
28.48028447816098
 24
17.27502002312897
 34
0.0
 50
90.0
100
AcDbRotatedDimension
1001
ACAD
1000
DSTYLE
1002
{
1070
   287
1070
     4
1070
   279
1070
     1
1002
}
  0
LINE
  5
25A5
330
1F
100
AcDbEntity
  8
Dimensions
100
AcDbLine
 10
28.87528447816098
 20
16.87502002312897
 30
0.0
 11
29.07986438017594
 21
16.87502002312897
 31
0.0
  0
DIMENSION
  5
25A6
102
{ACAD_XDICTIONARY
360
25A7
102
}
102
{ACAD_REACTORS
330
25A8
102
}
330
1F
100
AcDbEntity
  8
Dimensions
100
AcDbDimension
280
     0
  2
*D38
 10
29.00528447816098
 20
11.32483500355101
 30
0.0
 11
27.95528447816098
 21
11.32483500355101
 31
0.0
 70
    32
 71
     5
 42
2.099999999999997
 73
     0
 74
     0
 75
     0
  3
Standard
100
AcDbAlignedDimension
 13
26.90528447816099
 23
11.60109656685818
 33
0.0
 14
29.00528447816098
 24
11.63757465900978
 34
0.0
100
AcDbRotatedDimension
  0
DIMENSION
  5
25A9
102
{ACAD_XDICTIONARY
360
25AA
102
}
102
{ACAD_REACTORS
330
25AB
102
}
330
1F
100
AcDbEntity
  8
Dimensions
100
AcDbDimension
280
     0
  2
*D39
 10
29.25528447816099
 20
12.48923467544952
 30
0.0
 11
27.95528447816098
 21
12.48923467544952
 31
0.0
 70
    32
 71
     5
 42
2.599999999999997
 73
     0
 74
     0
 75
     0
  3
Standard
100
AcDbAlignedDimension
 13
26.65528447816099
 23
12.03757465900979
 33
0.0
 14
29.25528447816099
 24
12.03757465900979
 34
0.0
100
AcDbRotatedDimension
  0
DIMENSION
  5
25AC
102
{ACAD_XDICTIONARY
360
25AD
102
}
102
{ACAD_REACTORS
330
25AE
102
}
330
1F
100
AcDbEntity
  8
Dimensions
100
AcDbDimension
280
     0
  2
*D40
 10
29.4655891435734
 20
12.03757465900979
 30
0.0
 11
29.85931642874764
 21
11.39150135114242
 31
0.0
 70
   160
 71
     5
 42
0.5
 73
     0
 74
     0
 75
     0
  3
Standard
100
AcDbAlignedDimension
 13
28.90528447816098
 23
11.53757465900979
 33
0.0
 14
29.25444428219091
 24
12.03757465900979
 34
0.0
 50
90.0
100
AcDbRotatedDimension
1001
ACAD
1000
DSTYLE
1002
{
1070
   287
1070
     4
1070
   279
1070
     1
1002
}
  0
DIMENSION
  5
25AF
102
{ACAD_XDICTIONARY
360
25B0
102
}
102
{ACAD_REACTORS
330
25B1
102
}
330
1F
100
AcDbEntity
  8
Dimensions
100
AcDbDimension
280
     0
  2
*D41
 10
27.98028447816098
 20
16.13348120423323
 30
0.0
 11
26.10886565142156
 21
16.13348120423323
 31
0.0
 70
   160
 71
     5
 42
1.199999999999999
 73
     0
 74
     0
 75
     0
  3
Standard
100
AcDbAlignedDimension
 13
26.78028447816098
 23
16.87502002312897
 33
0.0
 14
27.98028447816098
 24
16.77502002312897
 34
0.0
100
AcDbRotatedDimension
1001
ACAD
1000
DSTYLE
1002
{
1070
   279
1070
     0
1002
}
  0
DIMENSION
  5
25B2
102
{ACAD_XDICTIONARY
360
25B3
102
}
102
{ACAD_REACTORS
330
25B4
102
}
330
1F
100
AcDbEntity
  8
Dimensions
100
AcDbDimension
280
     0
  2
*D42
 10
28.16028447816098
 20
15.88348120423323
 30
0.0
 11
26.10886565142156
 21
15.88348120423323
 31
0.0
 70
   160
 71
     5
 42
1.379999999999999
 73
     0
 74
     0
 75
     0
  3
Standard
100
AcDbAlignedDimension
 13
26.78028447816098
 23
16.87502002312897
 33
0.0
 14
28.16028447816098
 24
16.67502002312898
 34
0.0
100
AcDbRotatedDimension
1001
ACAD
1000
DSTYLE
1002
{
1070
   279
1070
     0
1002
}
  0
DIMENSION
  5
25B5
330
1F
100
AcDbEntity
  8
Dimensions
100
AcDbDimension
280
     0
  2
*D6
 10
28.33028447816099
 20
15.63348120423323
 30
0.0
 11
26.10886565142156
 21
15.63348120423323
 31
0.0
 70
   160
 71
     5
 42
1.55
 73
     0
 74
     0
 75
     0
  3
Standard
100
AcDbAlignedDimension
 13
26.78028447816098
 23
16.87502002312897
 33
0.0
 14
28.33028447816099
 24
16.52502002312897
 34
0.0
100
AcDbRotatedDimension
1001
ACAD
1000
DSTYLE
1002
{
1070
   279
1070
     0
1002
}
  0
DIMENSION
  5
25B6
330
1F
100
AcDbEntity
  8
Dimensions
100
AcDbDimension
280
     0
  2
*D7
 10
28.48028447816098
 20
15.38348120423323
 30
0.0
 11
26.10886565142156
 21
15.38348120423323
 31
0.0
 70
   160
 71
     5
 42
1.699999999999999
 73
     0
 74
     0
 75
     0
  3
Standard
100
AcDbAlignedDimension
 13
26.78028447816098
 23
16.87502002312897
 33
0.0
 14
28.48028447816098
 24
16.77502002312897
 34
0.0
100
AcDbRotatedDimension
1001
ACAD
1000
DSTYLE
1002
{
1070
   279
1070
     0
1002
}
  0
DIMENSION
  5
25B7
330
1F
100
AcDbEntity
  8
Dimensions
100
AcDbDimension
280
     0
  2
*D8
 10
29.69583474998893
 20
16.52502002312897
 30
0.0
 11
29.15861783320858
 21
15.89606310300406
 31
0.0
 70
   160
 71
     5
 42
0.3500000000000014
 73
     0
 74
     0
 75
     0
  3
Standard
100
AcDbAlignedDimension
 13
29.12986438017594
 23
16.87502002312897
 33
0.0
 14
28.33028447816099
 24
16.52502002312897
 34
0.0
 50
90.0
100
AcDbRotatedDimension
  0
DIMENSION
  5
25B8
330
1F
100
AcDbEntity
  8
Dimensions
100
AcDbDimension
280
     0
  2
*D9
 10
29.46667053829502
 20
16.87502002312897
 30
0.0
 11
28.92945362151466
 21
16.10226215689666
 31
0.0
 70
   160
 71
     5
 42
0.1000000000000014
 73
     0
 74
     0
 75
     0
  3
Standard
100
AcDbAlignedDimension
 13
28.48028447816098
 23
16.77502002312897
 33
0.0
 14
29.12986438017594
 24
16.87502002312897
 34
0.0
 50
90.0
100
AcDbRotatedDimension
1001
ACAD
1000
DSTYLE
1002
{
1070
   279
1070
     0
1002
}
  0
DIMENSION
  5
25B9
102
{ACAD_XDICTIONARY
360
25BA
102
}
102
{ACAD_REACTORS
330
25BB
102
}
330
1F
100
AcDbEntity
  8
Dimensions
100
AcDbDimension
280
     0
  2
*D43
 10
29.91972413550099
 20
16.87502002312897
 30
0.0
 11
29.33589057479157
 21
15.69330073225956
 31
0.0
 70
   160
 71
     5
 42
0.5499999999999972
 73
     0
 74
     0
 75
     0
  3
Standard
100
AcDbAlignedDimension
 13
29.00528447816098
 23
16.32502002312898
 33
0.0
 14
29.13028447816098
 24
16.87502002312897
 34
0.0
 50
90.0
100
AcDbRotatedDimension
  0
DIMENSION
  5
25BC
102
{ACAD_XDICTIONARY
360
25BD
102
}
102
{ACAD_REACTORS
330
25BE
102
}
330
1F
100
AcDbEntity
  8
Dimensions
100
AcDbDimension
280
     0
  2
*D44
 10
26.48165857914065
 20
16.77502002312897
 30
0.0
 11
26.26215744857317
 21
17.31044377195859
 31
0.0
 70
   160
 71
     5
 42
0.1000000000000014
 73
     0
 74
     0
 75
     0
  3
Standard
100
AcDbAlignedDimension
 13
26.78028447816098
 23
16.87502002312897
 33
0.0
 14
27.98028447816098
 24
16.77502002312897
 34
0.0
 50
90.0
100
AcDbRotatedDimension
1001
ACAD
1000
DSTYLE
1002
{
1070
   287
1070
     4
1070
   279
1070
     1
1002
}
  0
DIMENSION
  5
25BF
102
{ACAD_XDICTIONARY
360
25C0
102
}
102
{ACAD_REACTORS
330
25C1
102
}
330
1F
100
AcDbEntity
  8
Dimensions
100
AcDbDimension
280
     0
  2
*D45
 10
26.24306756138063
 20
16.67502002312898
 30
0.0
 11
26.17709144743564
 21
17.08123107761039
 31
0.0
 70
   160
 71
     5
 42
0.1999999999999957
 73
     0
 74
     0
 75
     0
  3
Standard
100
AcDbAlignedDimension
 13
26.78028447816098
 23
16.87502002312897
 33
0.0
 14
28.16028447816098
 24
16.67502002312898
 34
0.0
 50
90.0
100
AcDbRotatedDimension
1001
ACAD
1000
DSTYLE
1002
{
1070
   287
1070
     4
1070
   279
1070
     1
1002
}
  0
LEADER
  5
25C2
330
1F
100
AcDbEntity
  8
Dimensions
100
AcDbLeader
  3
Standard
 73
     0
 76
     3
 10
26.69329586322969
 20
17.03011152707325
 30
0.0
 10
26.38295948164585
 20
17.7862534597092
 30
0.0
 10
25.88295948164585
 20
17.7862534597092
 30
0.0
213
0.0
223
0.0625
233
0.0
1001
ACAD
1000
DSTYLE
1002
{
1070
     5
1000

1070
    77
1070
     0
1070
   147
1040
0.09
1002
}
  0
MTEXT
  5
25C3
330
1F
100
AcDbEntity
  8
Dimensions
100
AcDbMText
 10
26.19790259634068
 20
10.57573364391869
 30
0.0
 40
0.1
 41
0.0
 46
0.0
 71
     7
 72
     1
  1
22 AWG, 30K SILICONE\P10 Inch Min Length
 73
     1
 44
1.0
  0
DIMENSION
  5
25C4
102
{ACAD_XDICTIONARY
360
25C5
102
}
102
{ACAD_REACTORS
330
25C6
102
}
330
1F
100
AcDbEntity
  8
Dimensions
100
AcDbDimension
280
     0
  2
*D46
 10
29.4655891435734
 20
12.23757465900978
 30
0.0
 11
30.60829037140423
 21
12.43757465900979
 31
0.0
 70
    32
  1
<> Min. Pin Length
 71
     5
 42
0.1999999999999957
 73
     0
 74
     0
 75
     0
  3
Standard
100
AcDbAlignedDimension
 13
29.25444428219091
 23
12.03757465900979
 33
0.0
 14
28.84528447816099
 24
12.23757465900978
 34
0.0
 50
90.0
100
AcDbRotatedDimension
  0
LEADER
  5
25C7
330
1F
100
AcDbEntity
  8
Dimensions
100
AcDbLeader
  3
Standard
 73
     0
 76
     3
 10
28.808728438353
 20
12.28708918507761
 30
0.0
 10
28.61977583515957
 20
12.7653619134859
 30
0.0
 10
28.11977583515957
 20
12.7653619134859
 30
0.0
213
0.0
223
0.0625
233
0.0
1001
ACAD
1000
DSTYLE
1002
{
1070
     5
1000

1070
    77
1070
     0
1070
   147
1040
0.09
1002
}
  0
MTEXT
  5
25C8
102
{ACAD_XDICTIONARY
360
25C9
102
}
330
1F
100
AcDbEntity
  8
Dimensions
100
AcDbMText
 10
26.92454771539937
 20
12.66164682034395
 30
0.0
 40
0.1
 41
0.0
 46
0.0
 71
     7
 72
     1
  1
PIN - 0.04 [1.02] Dia.\PTin Plated Brass\PMatte Finish 5 Plc
 73
     1
 44
1.0
  0
LEADER
  5
25CA
330
1F
100
AcDbEntity
  8
Dimensions
100
AcDbLeader
  3
Standard
 73
     0
 76
     3
 10
28.11708030569014
 20
16.80120294673401
 30
0.0
 10
28.02260400409342
 20
17.04033931093814
 30
0.0
 10
27.77260400409342
 20
17.04033931093814
 30
0.0
213
0.0
223
0.0625
233
0.0
1001
ACAD
1000
DSTYLE
1002
{
1070
     5
1000

1070
    77
1070
     0
1070
   147
1040
0.09
1002
}
  0
MTEXT
  5
25CB
102
{ACAD_XDICTIONARY
360
25CC
102
}
330
1F
100
AcDbEntity
  8
Dimensions
100
AcDbMText
 10
27.14090741025152
 20
16.99522565436503
 30
0.0
 40
0.1
 41
0.0
 46
0.0
 71
     7
 72
     1
  1
Cal. ADJ
 73
     1
 44
1.0
  0
LINE
  5
25CD
330
1F
100
AcDbEntity
  8
Converter
100
AcDbLine
 10
26.90528447816099
 20
12.03757465900979
 30
0.0
 11
29.00528447816098
 21
12.03757465900979
 31
0.0
  0
LINE
  5
25CE
330
1F
100
AcDbEntity
  8
Converter
100
AcDbLine
 10
29.00528447816098
 20
12.03757465900979
 30
0.0
 11
29.00528447816098
 21
11.63757465900978
 31
0.0
  0
LINE
  5
25CF
330
1F
100
AcDbEntity
  8
Converter
100
AcDbLine
 10
26.90528447816099
 20
12.03757465900979
 30
0.0
 11
26.65528447816099
 21
12.03757465900979
 31
0.0
  0
LINE
  5
25D0
330
1F
100
AcDbEntity
  8
Converter
100
AcDbLine
 10
26.65528447816099
 20
12.00557465900977
 30
0.0
 11
26.90528447816099
 21
12.00557465900977
 31
0.0
  0
LINE
  5
25D1
330
1F
100
AcDbEntity
  8
Converter
100
AcDbLine
 10
29.25528447816099
 20
12.03757465900979
 30
0.0
 11
29.25528447816099
 21
12.00557465900977
 31
0.0
  0
LINE
  5
25D2
330
1F
100
AcDbEntity
  8
Converter
100
AcDbLine
 10
29.00528447816098
 20
12.03757465900979
 30
0.0
 11
29.25528447816099
 21
12.03757465900979
 31
0.0
  0
LINE
  5
25D3
330
1F
100
AcDbEntity
  8
Converter
100
AcDbLine
 10
29.25528447816099
 20
12.00557465900977
 30
0.0
 11
29.00528447816098
 21
12.00557465900977
 31
0.0
  0
CIRCLE
  5
25D4
330
1F
100
AcDbEntity
  8
Converter
100
AcDbCircle
 10
28.33028447816099
 20
16.52502002312897
 30
0.0
 40
0.02
  0
CIRCLE
  5
25D5
330
1F
100
AcDbEntity
  8
Converter
100
AcDbCircle
 10
28.48028447816098
 20
16.77502002312897
 30
0.0
 40
0.02
  0
CIRCLE
  5
25D6
330
1F
100
AcDbEntity
  8
Converter
100
AcDbCircle
 10
28.83028447816098
 20
16.87502002312897
 30
0.0
 40
0.02
  0
CIRCLE
  5
25D7
330
1F
100
AcDbEntity
  8
Converter
100
AcDbCircle
 10
28.48028447816098
 20
17.27502002312897
 30
0.0
 40
0.02
  0
DIMENSION
  5
25D8
102
{ACAD_XDICTIONARY
360
25D9
102
}
102
{ACAD_REACTORS
330
25DA
102
}
330
1F
100
AcDbEntity
  8
Dimensions
100
AcDbDimension
280
     0
  2
*D47
 10
30.5311656880496
 20
17.42502002312898
 30
0.0
 11
30.5311656880496
 21
16.62434406584124
 31
0.0
 70
   160
 71
     5
 42
1.100000000000001
 73
     0
 74
     0
 75
     0
  3
Standard
100
AcDbAlignedDimension
 13
29.00528447816098
 23
16.32502002312898
 33
0.0
 14
29.00528447816098
 24
17.42502002312898
 34
0.0
 50
90.0
100
AcDbRotatedDimension
  0
LINE
  5
25DB
330
1F
100
AcDbEntity
  8
Converter
100
AcDbLine
 10
31.46479909609697
 20
11.53757465900974
 30
0.0
 11
30.50622045233428
 21
11.53757465900976
 31
0.0
  0
ARC
  5
25DC
330
1F
100
AcDbEntity
  8
Converter
100
AcDbCircle
 10
30.50622045233428
 20
11.60828533712841
 30
0.0
 40
0.0707106781186547
100
AcDbArc
 50
179.9999999999992
 51
269.9999999999992
  0
ARC
  5
25DD
330
1F
100
AcDbEntity
  8
Converter
100
AcDbCircle
 10
31.46479909609697
 20
11.60828533712839
 30
0.0
 40
0.0707106781186547
100
AcDbArc
 50
269.9999999999992
 51
359.9999999999992
  0
LINE
  5
25DE
330
1F
100
AcDbEntity
  8
Converter
100
AcDbLine
 10
30.43550977421562
 20
11.60828533712841
 30
0.0
 11
30.43550977421563
 21
12.03757465900976
 31
0.0
  0
LINE
  5
25DF
330
1F
100
AcDbEntity
  8
Converter
100
AcDbLine
 10
30.43550977421563
 20
12.03757465900976
 30
0.0
 11
31.53550977421563
 21
12.03757465900974
 31
0.0
  0
LINE
  5
25E0
330
1F
100
AcDbEntity
  8
Converter
100
AcDbLine
 10
31.53550977421563
 20
12.03757465900974
 30
0.0
 11
31.53550977421563
 21
11.60828533712839
 31
0.0
  0
LINE
  5
25E1
330
1F
100
AcDbEntity
  8
Converter
100
AcDbLine
 10
30.61550977421564
 20
12.23757465900975
 30
0.0
 11
30.65550977421563
 21
12.23757465900975
 31
0.0
  0
LINE
  5
25E2
330
1F
100
AcDbEntity
  8
Converter
100
AcDbLine
 10
30.86550977421564
 20
12.23757465900975
 30
0.0
 11
30.90550977421563
 21
12.23757465900975
 31
0.0
  0
LINE
  5
25E3
330
1F
100
AcDbEntity
  8
Converter
100
AcDbLine
 10
30.96550977421563
 20
12.23757465900975
 30
0.0
 11
31.00550977421562
 21
12.23757465900975
 31
0.0
  0
LINE
  5
25E4
330
1F
100
AcDbEntity
  8
Converter
100
AcDbLine
 10
31.36550977421564
 20
12.23757465900974
 30
0.0
 11
31.40550977421563
 21
12.23757465900974
 31
0.0
  0
LINE
  5
25E5
330
1F
100
AcDbEntity
  8
Converter
100
AcDbLine
 10
31.40550977421563
 20
12.23757465900974
 30
0.0
 11
31.40550977421563
 21
12.03757465900974
 31
0.0
  0
LINE
  5
25E6
330
1F
100
AcDbEntity
  8
Converter
100
AcDbLine
 10
31.36550977421564
 20
12.23757465900974
 30
0.0
 11
31.36550977421562
 21
12.03757465900974
 31
0.0
  0
LINE
  5
25E7
330
1F
100
AcDbEntity
  8
Converter
100
AcDbLine
 10
31.00550977421562
 20
12.23757465900975
 30
0.0
 11
31.00550977421562
 21
12.03757465900974
 31
0.0
  0
LINE
  5
25E8
330
1F
100
AcDbEntity
  8
Converter
100
AcDbLine
 10
30.96550977421563
 20
12.23757465900975
 30
0.0
 11
30.96550977421563
 21
12.03757465900974
 31
0.0
  0
LINE
  5
25E9
330
1F
100
AcDbEntity
  8
Converter
100
AcDbLine
 10
30.90550977421563
 20
12.23757465900975
 30
0.0
 11
30.90550977421563
 21
12.03757465900974
 31
0.0
  0
LINE
  5
25EA
330
1F
100
AcDbEntity
  8
Converter
100
AcDbLine
 10
30.86550977421564
 20
12.23757465900975
 30
0.0
 11
30.86550977421563
 21
12.03757465900974
 31
0.0
  0
LINE
  5
25EB
330
1F
100
AcDbEntity
  8
Converter
100
AcDbLine
 10
30.65550977421563
 20
12.23757465900975
 30
0.0
 11
30.65550977421563
 21
12.03757465900976
 31
0.0
  0
LINE
  5
25EC
330
1F
100
AcDbEntity
  8
Converter
100
AcDbLine
 10
30.61550977421564
 20
12.23757465900975
 30
0.0
 11
30.61550977421563
 21
12.03757465900976
 31
0.0
  0
LINE
  5
25ED
330
1F
100
AcDbEntity
  8
Converter
100
AcDbLine
 10
31.11050977421567
 20
12.03757465900974
 30
0.0
 11
31.11050977421567
 21
12.00557465900975
 31
0.0
  0
LINE
  5
25EE
330
1F
100
AcDbEntity
  8
Converter
100
AcDbLine
 10
30.86050977421567
 20
12.03757465900974
 30
0.0
 11
30.86050977421567
 21
12.00557465900975
 31
0.0
  0
LINE
  5
25EF
330
1F
100
AcDbEntity
  8
Converter
100
AcDbLine
 10
30.86050977421567
 20
12.00557465900975
 30
0.0
 11
31.11050977421567
 21
12.00557465900975
 31
0.0
  0
LINE
  5
25F0
330
1F
100
AcDbEntity
  8
Converter
100
AcDbLine
 10
30.43550977421563
 20
12.00657465900975
 30
0.0
 11
31.53550977421563
 21
12.00657465900974
 31
0.0
  0
LINE
  5
25F1
330
1F
100
AcDbEntity
  8
Converter
100
AcDbLine
 10
26.90528447816099
 20
12.00657465900978
 30
0.0
 11
29.00528447816098
 21
12.00657465900978
 31
0.0
  0
LINE
  5
25F2
330
1F
100
AcDbEntity
  8
Converter
100
AcDbLine
 10
23.04634113634568
 20
11.53757465900974
 30
0.0
 11
24.00491978010838
 21
11.53757465900976
 31
0.0
  0
ARC
  5
25F3
330
1F
100
AcDbEntity
  8
Converter
100
AcDbCircle
 10
24.00491978010838
 20
11.60828533712842
 30
0.0
 40
0.0707106781186547
100
AcDbArc
 50
270.0000000000008
 51
0.0000000000008142
  0
ARC
  5
25F4
330
1F
100
AcDbEntity
  8
Converter
100
AcDbCircle
 10
23.04634113634568
 20
11.6082853371284
 30
0.0
 40
0.0707106781186547
100
AcDbArc
 50
180.0000000000008
 51
270.0000000000008
  0
LINE
  5
25F5
330
1F
100
AcDbEntity
  8
Converter
100
AcDbLine
 10
24.07563045822703
 20
11.60828533712842
 30
0.0
 11
24.07563045822703
 21
12.03757465900976
 31
0.0
  0
LINE
  5
25F6
330
1F
100
AcDbEntity
  8
Converter
100
AcDbLine
 10
24.07563045822703
 20
12.03757465900976
 30
0.0
 11
22.97563045822702
 21
12.03757465900974
 31
0.0
  0
LINE
  5
25F7
330
1F
100
AcDbEntity
  8
Converter
100
AcDbLine
 10
22.97563045822703
 20
12.03757465900974
 30
0.0
 11
22.97563045822703
 21
11.6082853371284
 31
0.0
  0
LINE
  5
25F8
330
1F
100
AcDbEntity
  8
Converter
100
AcDbLine
 10
23.89563045822702
 20
12.23757465900976
 30
0.0
 11
23.85563045822702
 21
12.23757465900976
 31
0.0
  0
LINE
  5
25F9
330
1F
100
AcDbEntity
  8
Converter
100
AcDbLine
 10
23.64563045822702
 20
12.23757465900975
 30
0.0
 11
23.60563045822702
 21
12.23757465900975
 31
0.0
  0
LINE
  5
25FA
330
1F
100
AcDbEntity
  8
Converter
100
AcDbLine
 10
23.54563045822702
 20
12.23757465900975
 30
0.0
 11
23.50563045822703
 21
12.23757465900975
 31
0.0
  0
LINE
  5
25FB
330
1F
100
AcDbEntity
  8
Converter
100
AcDbLine
 10
23.14563045822702
 20
12.23757465900975
 30
0.0
 11
23.10563045822702
 21
12.23757465900975
 31
0.0
  0
LINE
  5
25FC
330
1F
100
AcDbEntity
  8
Converter
100
AcDbLine
 10
23.10563045822702
 20
12.23757465900975
 30
0.0
 11
23.10563045822703
 21
12.03757465900974
 31
0.0
  0
LINE
  5
25FD
330
1F
100
AcDbEntity
  8
Converter
100
AcDbLine
 10
23.14563045822702
 20
12.23757465900975
 30
0.0
 11
23.14563045822703
 21
12.03757465900974
 31
0.0
  0
LINE
  5
25FE
330
1F
100
AcDbEntity
  8
Converter
100
AcDbLine
 10
23.50563045822703
 20
12.23757465900975
 30
0.0
 11
23.50563045822703
 21
12.03757465900976
 31
0.0
  0
LINE
  5
25FF
330
1F
100
AcDbEntity
  8
Converter
100
AcDbLine
 10
23.54563045822702
 20
12.23757465900975
 30
0.0
 11
23.54563045822703
 21
12.03757465900976
 31
0.0
  0
LINE
  5
2600
330
1F
100
AcDbEntity
  8
Converter
100
AcDbLine
 10
23.60563045822702
 20
12.23757465900975
 30
0.0
 11
23.60563045822702
 21
12.03757465900976
 31
0.0
  0
LINE
  5
2601
330
1F
100
AcDbEntity
  8
Converter
100
AcDbLine
 10
23.64563045822702
 20
12.23757465900975
 30
0.0
 11
23.64563045822702
 21
12.03757465900976
 31
0.0
  0
LINE
  5
2602
330
1F
100
AcDbEntity
  8
Converter
100
AcDbLine
 10
23.85563045822702
 20
12.23757465900976
 30
0.0
 11
23.85563045822703
 21
12.03757465900976
 31
0.0
  0
LINE
  5
2603
330
1F
100
AcDbEntity
  8
Converter
100
AcDbLine
 10
23.89563045822702
 20
12.23757465900976
 30
0.0
 11
23.89563045822703
 21
12.03757465900976
 31
0.0
  0
LINE
  5
2604
330
1F
100
AcDbEntity
  8
Converter
100
AcDbLine
 10
23.40063045822698
 20
12.03757465900975
 30
0.0
 11
23.40063045822699
 21
12.00557465900975
 31
0.0
  0
LINE
  5
2605
330
1F
100
AcDbEntity
  8
Converter
100
AcDbLine
 10
23.65063045822699
 20
12.03757465900976
 30
0.0
 11
23.65063045822699
 21
12.00557465900975
 31
0.0
  0
LINE
  5
2606
330
1F
100
AcDbEntity
  8
Converter
100
AcDbLine
 10
23.65063045822699
 20
12.00557465900975
 30
0.0
 11
23.40063045822699
 21
12.00557465900975
 31
0.0
  0
LINE
  5
2607
330
1F
100
AcDbEntity
  8
Converter
100
AcDbLine
 10
24.07563045822703
 20
12.00657465900977
 30
0.0
 11
22.97563045822702
 21
12.00657465900974
 31
0.0
  0
CIRCLE
  5
2608
330
1F
100
AcDbEntity
  8
Converter
100
AcDbCircle
 10
23.86313045822702
 20
11.80433561293398
 30
0.0
 40
0.125
  0
CIRCLE
  5
2609
330
1F
100
AcDbEntity
  8
Converter
100
AcDbCircle
 10
23.86313045822702
 20
11.80433561293398
 30
0.0
 40
0.0599999999999952
  0
MTEXT
  5
260A
330
1F
100
AcDbEntity
  8
Converter
100
AcDbMText
 10
28.36316154213648
 20
17.20912017482264
 30
0.0
 40
0.1
 41
0.0
 46
0.0
 71
     7
 72
     1
  1
2
 73
     1
 44
1.0
  0
MTEXT
  5
260B
330
1F
100
AcDbEntity
  8
Converter
100
AcDbMText
 10
28.3867297168911
 20
16.73378182369468
 30
0.0
 40
0.1
 41
0.0
 46
0.0
 71
     7
 72
     1
  1
1
 73
     1
 44
1.0
  0
MTEXT
  5
260C
330
1F
100
AcDbEntity
  8
Converter
100
AcDbMText
 10
28.71657666743653
 20
16.83869884347652
 30
0.0
 40
0.1
 41
0.0
 46
0.0
 71
     7
 72
     1
  1
5
 73
     1
 44
1.0
  0
MTEXT
  5
260D
330
1F
100
AcDbEntity
  8
Converter
100
AcDbMText
 10
28.30831426192904
 20
16.56248873098337
 30
0.0
 40
0.1
 41
0.0
 46
0.0
 71
     7
 72
     1
  1
3
 73
     1
 44
1.0
  0
MTEXT
  5
260E
330
1F
100
AcDbEntity
  8
Converter
100
AcDbMText
 10
27.9328581130993
 20
16.86168841522409
 30
0.0
 40
0.1
 41
0.0
 46
0.0
 71
     7
 72
     1
  1
4
 73
     1
 44
1.0
  0
TEXT
  5
260F
330
1F
100
AcDbEntity
  8
Frame Text
100
AcDbText
 10
32.54360747389671
 20
1.815632111898953
 30
0.0
 40
0.125
  1
American Power Design
 72
     1
 11
33.48004164852154
 21
1.878132111898953
 31
0.0
100
AcDbText
 73
     2
  0
LINE
  5
2610
330
1F
100
AcDbEntity
  8
Frame
100
AcDbLine
 10
30.33000933025714
 20
2.084788402694179
 30
0.0
 11
30.33000933025714
 21
0.5496273853582033
 31
0.0
  0
LINE
  5
2611
330
1F
100
AcDbEntity
  8
Frame
100
AcDbLine
 10
31.49318902416171
 20
2.084788402694179
 30
0.0
 11
31.49318902416171
 21
1.258163239513269
 31
0.0
  0
LINE
  5
2612
330
1F
100
AcDbEntity
  8
Frame
100
AcDbLine
 10
32.43790349636846
 20
2.084788402694179
 30
0.0
 11
32.43790349636846
 21
0.5496273853582033
 31
0.0
  0
TEXT
  5
2613
330
1F
100
AcDbEntity
  8
Frame
100
AcDbText
 10
30.76166030486335
 20
1.95507820476611
 30
0.0
 40
0.0354267927077533
  1
SPECIFIED
 72
     1
 11
30.89228754086728
 21
1.95507820476611
 31
0.0
100
AcDbText
  0
TEXT
  5
2614
330
1F
100
AcDbEntity
  8
Frame Text
100
AcDbText
 10
32.50622954029659
 20
0.7548689570576439
 30
0.0
 40
0.09
  1
1:1
100
AcDbText
  0
LINE
  5
2615
330
1F
100
AcDbEntity
  8
Frame
100
AcDbLine
 10
32.43790349636846
 20
1.671475821103724
 30
0.0
 11
34.52217980067461
 21
1.671475821103724
 31
0.0
  0
LINE
  5
2616
330
1F
100
AcDbEntity
  8
Frame
100
AcDbLine
 10
32.43790349636846
 20
0.9806533633025367
 30
0.0
 11
34.52217980067461
 21
0.9806533633025367
 31
0.0
  0
LINE
  5
2617
330
1F
100
AcDbEntity
  8
Frame
100
AcDbLine
 10
32.43790349636846
 20
0.6884207304667811
 30
0.0
 11
34.52217980067461
 21
0.6884207304667811
 31
0.0
  0
TEXT
  5
2618
330
1F
100
AcDbEntity
  8
Frame
100
AcDbText
 10
32.47876656800443
 20
1.605532811783188
 30
0.0
 40
0.0354267927077533
  1
TITLE
100
AcDbText
  0
TEXT
  5
2619
330
1F
100
AcDbEntity
  8
Frame
100
AcDbText
 10
32.46992060912194
 20
0.9161019241607029
 30
0.0
 40
0.0354267927077533
  1
SCALE
100
AcDbText
  0
TEXT
  5
261A
330
1F
100
AcDbEntity
  8
Frame
100
AcDbText
 10
32.50452391886813
 20
0.5993331214453921
 30
0.0
 40
0.0354267927077533
  1
SHEET       OF       
100
AcDbText
  0
LINE
  5
261B
330
1F
100
AcDbEntity
  8
Frame
100
AcDbLine
 10
30.33000933025714
 20
1.258163239513269
 30
0.0
 11
32.43790349636846
 21
1.258163239513269
 31
0.0
  0
LINE
  5
261C
330
1F
100
AcDbEntity
  8
Frame
100
AcDbLine
 10
30.33000933025714
 20
0.903895312435738
 30
0.0
 11
32.43790349636846
 21
0.903895312435738
 31
0.0
  0
TEXT
  5
261D
330
1F
100
AcDbEntity
  8
Frame
100
AcDbText
 10
30.44374539047305
 20
1.854127684029027
 30
0.0
 40
0.0354267927077533
  1
DIMENSIONS IN INCHES [MM]
100
AcDbText
  0
TEXT
  5
261E
330
1F
100
AcDbEntity
  8
Frame
100
AcDbText
 10
30.44374539047305
 20
1.672146782435506
 30
0.0
 40
0.0354267927077533
  1
TOLERANCES
100
AcDbText
  0
TEXT
  5
261F
330
1F
100
AcDbEntity
  8
Frame
100
AcDbText
 10
30.4130447096456
 20
1.53697173098215
 30
0.0
 40
0.0354267927077533
  1
FRAC =                          .XX =
100
AcDbText
  0
TEXT
  5
2620
330
1F
100
AcDbEntity
  8
Frame
100
AcDbText
 10
30.41486593647435
 20
1.380976078529322
 30
0.0
 40
0.0354267927077533
  1
.XXX =                         ANGLE =
100
AcDbText
  0
TEXT
  5
2621
330
1F
100
AcDbEntity
  8
Frame
100
AcDbText
 10
30.36437759828434
 20
1.191965670404801
 30
0.0
 40
0.0354267927077533
  1
MATERIAL
100
AcDbText
  0
TEXT
  5
2622
330
1F
100
AcDbEntity
  8
Frame
100
AcDbText
 10
30.36437759828434
 20
0.842713477505681
 30
0.0
 40
0.0354267927077533
  1
FINISH
100
AcDbText
  0
LINE
  5
2623
330
1F
100
AcDbEntity
  8
Frame
100
AcDbLine
 10
31.49318902416171
 20
1.391013712167344
 30
0.0
 11
32.43790349636846
 21
1.391013712167344
 31
0.0
  0
LINE
  5
2624
330
1F
100
AcDbEntity
  8
Frame
100
AcDbLine
 10
31.49318902416171
 20
1.52386418482142
 30
0.0
 11
32.43790349636846
 21
1.52386418482142
 31
0.0
  0
LINE
  5
2625
330
1F
100
AcDbEntity
  8
Frame
100
AcDbLine
 10
31.49318902416171
 20
1.656714657475495
 30
0.0
 11
32.43790349636846
 21
1.656714657475495
 31
0.0
  0
LINE
  5
2626
330
1F
100
AcDbEntity
  8
Frame
100
AcDbLine
 10
31.49318902416171
 20
1.789565130129568
 30
0.0
 11
32.43790349636846
 21
1.789565130129568
 31
0.0
  0
LINE
  5
2627
330
1F
100
AcDbEntity
  8
Frame
100
AcDbLine
 10
31.49318902416171
 20
1.922415602783646
 30
0.0
 11
32.43790349636846
 21
1.922415602783646
 31
0.0
  0
TEXT
  5
2628
330
1F
100
AcDbEntity
  8
Frame
100
AcDbText
 10
31.51405732756475
 20
1.7013964769537
 30
0.0
 40
0.0354267927077533
  1
DWN
100
AcDbText
  0
TEXT
  5
2629
330
1F
100
AcDbEntity
  8
Frame
100
AcDbText
 10
31.51817251227805
 20
1.568856526051336
 30
0.0
 40
0.0354267927077533
  1
CHK
100
AcDbText
  0
TEXT
  5
262A
330
1F
100
AcDbEntity
  8
Frame
100
AcDbText
 10
31.51817251227805
 20
1.440713635131514
 30
0.0
 40
0.0354267927077533
  1
CH DR
100
AcDbText
  0
TEXT
  5
262B
330
1F
100
AcDbEntity
  8
Frame
100
AcDbText
 10
31.52280209508052
 20
1.335812346976561
 30
0.0
 40
0.0354267927077533
  1
COG
100
AcDbText
  0
TEXT
  5
262C
330
1F
100
AcDbEntity
  8
Frame
100
AcDbText
 10
31.52280209508052
 20
1.276767692463639
 30
0.0
 40
0.0354267927077533
  1
ENG
100
AcDbText
  0
TEXT
  5
262D
330
1F
100
AcDbEntity
  8
Frame
100
AcDbText
 10
31.73216211737006
 20
1.828911216447444
 30
0.0
 40
0.0531401890616299
  1
APPROVAL
100
AcDbText
  0
TEXT
  5
262E
330
1F
100
AcDbEntity
  8
Frame
100
AcDbText
 10
32.28565446130998
 20
1.308498421826174
 30
0.0
 40
0.0354267927077533
  1
DATE
100
AcDbText
  0
TEXT
  5
262F
330
1F
100
AcDbEntity
  8
Frame
100
AcDbText
 10
32.28565446130998
 20
1.574199367134324
 30
0.0
 40
0.0354267927077533
  1
DATE
100
AcDbText
  0
TEXT
  5
2630
330
1F
100
AcDbEntity
  8
Frame
100
AcDbText
 10
32.28565446130998
 20
1.441348894480247
 30
0.0
 40
0.0354267927077533
  1
DATE
100
AcDbText
  0
TEXT
  5
2631
330
1F
100
AcDbEntity
  8
Frame
100
AcDbText
 10
32.28565446130998
 20
1.707049839788398
 30
0.0
 40
0.0354267927077533
  1
DATE
100
AcDbText
  0
TEXT
  5
2632
330
1F
100
AcDbEntity
  8
Frame Text
100
AcDbText
 10
32.69774378934787
 20
0.5698835578553183
 30
0.0
 40
0.1
  1
1  1
100
AcDbText
  0
LINE
  5
2633
330
1F
100
AcDbEntity
  8
Frame
100
AcDbLine
 10
32.73312676893308
 20
0.9806533633025367
 30
0.0
 11
32.73312676893308
 21
0.6884207304667811
 31
0.0
  0
TEXT
  5
2634
330
1F
100
AcDbEntity
  8
Frame Text
100
AcDbText
 10
32.80840862400761
 20
0.7151827389939829
 30
0.0
 40
0.1476116362823053
  1
D
100
AcDbText
  0
TEXT
  5
2635
330
1F
100
AcDbEntity
  8
Frame
100
AcDbText
 10
33.03398057551097
 20
0.9164196342471644
 30
0.0
 40
0.0354267927077533
  1
FILE
100
AcDbText
  0
LINE
  5
2636
330
1F
100
AcDbEntity
  8
Frame
100
AcDbLine
 10
32.99882771424123
 20
0.9806533633025367
 30
0.0
 11
32.99882771424123
 21
0.6884207304667811
 31
0.0
  0
LINE
  5
2637
330
1F
100
AcDbEntity
  8
Frame
100
AcDbLine
 10
33.57746532846786
 20
0.6884207304667811
 30
0.0
 11
33.57746532846786
 21
0.5496273853582033
 31
0.0
  0
TEXT
  5
2638
330
1F
100
AcDbEntity
  8
Frame
100
AcDbText
 10
33.73749448192976
 20
0.5993331214453921
 30
0.0
 40
0.0354267927077533
  1
DO NOT SCALE PRINT
100
AcDbText
  0
TEXT
  5
2639
330
1F
100
AcDbEntity
  8
Frame
100
AcDbText
 10
34.2664307880501
 20
0.9161019241607029
 30
0.0
 40
0.0354267927077533
  1
REV.
100
AcDbText
  0
LINE
  5
263A
330
1F
100
AcDbEntity
  8
Frame
100
AcDbLine
 10
34.22695652811001
 20
0.9806533633025367
 30
0.0
 11
34.22695652811001
 21
0.6884207304667811
 31
0.0
  0
LINE
  5
263B
330
1F
100
AcDbEntity
  8
Frame
100
AcDbLine
 10
30.33000933025715
 20
2.084788402694179
 30
0.0
 11
34.52217980067461
 21
2.084788402694179
 31
0.0
  0
TEXT
  5
263C
330
1F
100
AcDbEntity
  8
Frame
100
AcDbText
 10
31.51817251227805
 20
2.001024707192694
 30
0.0
 40
0.0531401890616299
  1
STANDARD
100
AcDbText
  0
TEXT
  5
263D
330
1F
100
AcDbEntity
  8
Frame
100
AcDbText
 10
30.65839755119822
 20
2.017031671626194
 30
0.0
 40
0.0354267927077533
  1
UNLESS OTHERWISE
 72
     1
 11
30.91414226281224
 21
2.017031671626194
 31
0.0
100
AcDbText
  0
TEXT
  5
263E
330
1F
100
AcDbEntity
  8
Frame Text
100
AcDbText
 10
30.63267244498518
 20
1.37056894805954
 30
0.0
 40
0.05
  1
%%p.005
100
AcDbText
  0
TEXT
  5
263F
330
1F
100
AcDbEntity
  8
Frame Text
100
AcDbText
 10
34.33531133603595
 20
0.7540821385500767
 30
0.0
 40
0.12
  1
-
100
AcDbText
  0
TEXT
  5
2640
330
1F
100
AcDbEntity
  8
Frame Text
100
AcDbText
 10
32.88160294112467
 20
1.259834449342433
 30
0.0
 40
0.125
  1
E3 Dimensions
 72
     1
 11
33.46878745681362
 21
1.322334449342433
 31
0.0
100
AcDbText
 73
     2
  0
TEXT
  5
2641
330
1F
100
AcDbEntity
  8
Frame Text
100
AcDbText
 10
31.16584489026328
 20
1.531987222266378
 30
0.0
 40
0.05
  1
%%p.05
100
AcDbText
  0
TEXT
  5
2642
330
1F
100
AcDbEntity
  8
Frame Text
100
AcDbText
 10
30.64720949163891
 20
1.527519142081354
 30
0.0
 40
0.05
  1
%%p1/64
100
AcDbText
  0
TEXT
  5
2643
330
1F
100
AcDbEntity
  8
Frame Text
100
AcDbText
 10
31.23459556624357
 20
1.372083305781126
 30
0.0
 40
0.05
  1
%%p1°0
100
AcDbText
  0
TEXT
  5
2644
330
1F
100
AcDbEntity
  8
Frame
100
AcDbText
 10
32.76315863659531
 20
0.9161019241607029
 30
0.0
 40
0.0354267927077533
  1
SIZE
100
AcDbText
  0
TEXT
  5
2645
330
1F
100
AcDbEntity
  8
Frame Text
100
AcDbText
 10
33.26489709354929
 20
0.7740943926759396
 30
0.0
 40
0.1
  1
e3_cadd
100
AcDbText
  0
TEXT
  5
2646
330
1F
100
AcDbEntity
  8
Frame Text
100
AcDbText
 10
31.68615572715032
 20
1.699805068323
 30
0.0
 40
0.05
  1
ON FILE
100
AcDbText
  0
TEXT
  5
2647
330
1F
100
AcDbEntity
  8
Frame Text
100
AcDbText
 10
31.68615572715032
 20
1.56552103914946
 30
0.0
 40
0.05
  1
ON FILE
100
AcDbText
  0
LINE
  5
2648
330
1F
100
AcDbEntity
  8
Frame
100
AcDbLine
 10
34.5221798006746
 20
22.54962738535821
 30
0.0
 11
34.52217980067461
 21
0.549627385358205
 31
0.0
  0
LINE
  5
2649
330
1F
100
AcDbEntity
  8
Frame
100
AcDbLine
 10
34.52217980067461
 20
0.549627385358205
 30
0.0
 11
0.522179800674607
 21
0.5496273853582086
 31
0.0
  0
LINE
  5
264A
330
1F
100
AcDbEntity
  8
Frame
100
AcDbLine
 10
0.522179800674607
 20
0.5496273853582086
 30
0.0
 11
0.5221798006746084
 21
22.54962738535821
 31
0.0
  0
LINE
  5
264B
330
1F
100
AcDbEntity
  8
Frame
100
AcDbLine
 10
0.5221798006746084
 20
22.54962738535821
 30
0.0
 11
34.52217980067461
 21
22.54962738535821
 31
0.0
  0
LINE
  5
264C
330
1F
100
AcDbEntity
  8
Grid
100
AcDbLine
 10
9.610575843424161
 20
8.569893898035649
 30
0.0
 11
9.610575843424173
 21
6.466980781070587
 31
0.0
  0
LINE
  5
264D
330
1F
100
AcDbEntity
  8
Grid
100
AcDbLine
 10
5.527490065115402
 20
8.569893898035648
 30
0.0
 11
5.527490065115403
 21
6.466980781070578
 31
0.0
  0
MTEXT
  5
264E
330
1F
100
AcDbEntity
  8
PinOut
100
AcDbMText
 10
5.906089388395821
 20
8.399267650762132
 30
0.0
 40
0.125
 41
0.0
 46
0.0
 71
     5
 72
     1
  1
PIN #
 73
     1
 44
1.0
  0
LINE
  5
264F
330
1F
100
AcDbEntity
  8
Grid
100
AcDbLine
 10
9.610575843424161
 20
8.569893898035649
 30
0.0
 11
5.527490065115403
 21
8.569893898035649
 31
0.0
  0
LINE
  5
2650
330
1F
100
AcDbEntity
  8
Grid
100
AcDbLine
 10
6.284688711676233
 20
8.569893898035649
 30
0.0
 11
6.28468871167624
 21
6.46698078107058
 31
0.0
  0
MTEXT
  5
2651
330
1F
100
AcDbEntity
  8
PinOut
100
AcDbMText
 10
7.925698556642148
 20
8.39908740562876
 30
0.0
 40
0.125
 41
0.0
 46
0.0
 71
     5
 72
     1
  1
FUNCTION
 73
     1
 44
1.0
  0
LINE
  5
2652
330
1F
100
AcDbEntity
  8
Grid
100
AcDbLine
 10
9.610575843424165
 20
8.219408378541469
 30
0.0
 11
5.527490065115403
 21
8.219408378541471
 31
0.0
  0
LINE
  5
2653
330
1F
100
AcDbEntity
  8
Grid
100
AcDbLine
 10
9.610575843424165
 20
7.868922859047293
 30
0.0
 11
5.527490065115403
 21
7.868922859047293
 31
0.0
  0
LINE
  5
2654
330
1F
100
AcDbEntity
  8
Grid
100
AcDbLine
 10
9.610575843424168
 20
7.518437339553114
 30
0.0
 11
5.527490065115403
 21
7.518437339553114
 31
0.0
  0
LINE
  5
2655
330
1F
100
AcDbEntity
  8
Grid
100
AcDbLine
 10
9.610575843424168
 20
7.167951820058936
 30
0.0
 11
5.527490065115403
 21
7.167951820058936
 31
0.0
  0
MTEXT
  5
2656
330
1F
100
AcDbEntity
  8
PinOut
100
AcDbMText
 10
5.889278796282605
 20
8.050043847201626
 30
0.0
 40
0.125
 41
0.0
 46
0.0
 71
     5
 72
     1
  1
1
 73
     1
 44
1.0
  0
MTEXT
  5
2657
330
1F
100
AcDbEntity
  8
PinOut
100
AcDbMText
 10
5.905545919570274
 20
7.699558327707448
 30
0.0
 40
0.125
 41
0.0
 46
0.0
 71
     5
 72
     1
  1
2
 73
     1
 44
1.0
  0
MTEXT
  5
2658
330
1F
100
AcDbEntity
  8
PinOut
100
AcDbMText
 10
5.899958320435453
 20
7.347991337412983
 30
0.0
 40
0.125
 41
0.0
 46
0.0
 71
     5
 72
     1
  1
3
 73
     1
 44
1.0
  0
MTEXT
  5
2659
330
1F
100
AcDbEntity
  8
PinOut
100
AcDbMText
 10
5.906717512937257
 20
6.998587288719091
 30
0.0
 40
0.125
 41
0.0
 46
0.0
 71
     5
 72
     1
  1
4
 73
     1
 44
1.0
  0
MTEXT
  5
265A
330
1F
100
AcDbEntity
  8
PinOut
100
AcDbMText
 10
7.96070240272971
 20
7.345554767306259
 30
0.0
 40
0.125
 41
0.0
 46
0.0
 71
     5
 72
     1
  1
CONTROL / PROGRAMMING VOLTAGE
 73
     1
 44
1.0
  0
MTEXT
  5
265B
330
1F
100
AcDbEntity
  8
PinOut
100
AcDbMText
 10
7.895870500860974
 20
7.698116366640411
 30
0.0
 40
0.125
 41
0.0
 46
0.0
 71
     5
 72
     1
  1
GND
 73
     1
 44
1.0
  0
MTEXT
  5
265C
330
1F
100
AcDbEntity
  8
PinOut
100
AcDbMText
 10
7.895870500860974
 20
8.048601886134568
 30
0.0
 40
0.125
 41
0.0
 46
0.0
 71
     5
 72
     1
  1
+ INPUT
 73
     1
 44
1.0
  0
LINE
  5
265D
330
1F
100
AcDbEntity
  8
Grid
100
AcDbLine
 10
9.610575843424172
 20
6.817466300564772
 30
0.0
 11
5.527490065115403
 21
6.817466300564758
 31
0.0
  0
MTEXT
  5
265E
330
1F
100
AcDbEntity
  8
PinOut
100
AcDbMText
 10
7.895870500860967
 20
6.992218786278312
 30
0.0
 40
0.125
 41
0.0
 46
0.0
 71
     5
 72
     1
  1
HV OUTPUT
 73
     1
 44
1.0
  0
MTEXT
  5
265F
330
1F
100
AcDbEntity
  8
PinOut
100
AcDbMText
 10
5.906717512937257
 20
6.648101769224913
 30
0.0
 40
0.125
 41
0.0
 46
0.0
 71
     5
 72
     1
  1
5
 73
     1
 44
1.0
  0
LINE
  5
2660
330
1F
100
AcDbEntity
  8
Grid
100
AcDbLine
 10
9.610575843424173
 20
6.466980781070592
 30
0.0
 11
5.527490065115403
 21
6.46698078107058
 31
0.0
  0
MTEXT
  5
2661
330
1F
100
AcDbEntity
  8
PinOut
100
AcDbMText
 10
7.895870500860967
 20
6.641733266784134
 30
0.0
 40
0.125
 41
0.0
 46
0.0
 71
     5
 72
     1
  1
CASE GND
 73
     1
 44
1.0
  0
MTEXT
  5
2662
102
{ACAD_XDICTIONARY
360
2663
102
}
330
1F
100
AcDbEntity
  8
PinOut
100
AcDbMText
 10
7.586488165614483
 20
20.12127131144958
 30
0.0
 40
0.25
 41
0.0
 46
0.0
 71
     5
 72
     1
  1
OUTPUT VOLTAGES FROM 100V TO 2000VDC
 73
     1
 44
1.0
1001
AcadAnnotative
1000
AnnotativeData
1002
{
1070
     1
1070
     0
1002
}
  0
LINE
  5
2666
330
1F
100
AcDbEntity
  8
Grid
100
AcDbLine
 10
19.69372268982899
 20
8.569893898035646
 30
0.0
 11
19.69372268982901
 21
6.466980781070583
 31
0.0
  0
LINE
  5
2667
330
1F
100
AcDbEntity
  8
Grid
100
AcDbLine
 10
15.61063691152023
 20
8.569893898035644
 30
0.0
 11
15.61063691152024
 21
6.466980781070574
 31
0.0
  0
MTEXT
  5
2668
330
1F
100
AcDbEntity
  8
PinOut
100
AcDbMText
 10
15.98923623480066
 20
8.399267650762128
 30
0.0
 40
0.125
 41
0.0
 46
0.0
 71
     5
 72
     1
  1
PIN #
 73
     1
 44
1.0
  0
LINE
  5
2669
330
1F
100
AcDbEntity
  8
Grid
100
AcDbLine
 10
19.69372268982899
 20
8.569893898035646
 30
0.0
 11
15.61063691152024
 21
8.569893898035646
 31
0.0
  0
LINE
  5
266A
330
1F
100
AcDbEntity
  8
Grid
100
AcDbLine
 10
16.36783555808107
 20
8.569893898035646
 30
0.0
 11
16.36783555808107
 21
6.466980781070576
 31
0.0
  0
MTEXT
  5
266B
330
1F
100
AcDbEntity
  8
PinOut
100
AcDbMText
 10
18.00884540304698
 20
8.399087405628756
 30
0.0
 40
0.125
 41
0.0
 46
0.0
 71
     5
 72
     1
  1
FUNCTION
 73
     1
 44
1.0
  0
LINE
  5
266C
330
1F
100
AcDbEntity
  8
Grid
100
AcDbLine
 10
19.693722689829
 20
8.219408378541466
 30
0.0
 11
15.61063691152024
 21
8.219408378541467
 31
0.0
  0
LINE
  5
266D
330
1F
100
AcDbEntity
  8
Grid
100
AcDbLine
 10
19.693722689829
 20
7.868922859047289
 30
0.0
 11
15.61063691152024
 21
7.868922859047289
 31
0.0
  0
LINE
  5
266E
330
1F
100
AcDbEntity
  8
Grid
100
AcDbLine
 10
19.693722689829
 20
7.518437339553111
 30
0.0
 11
15.61063691152024
 21
7.518437339553111
 31
0.0
  0
LINE
  5
266F
330
1F
100
AcDbEntity
  8
Grid
100
AcDbLine
 10
19.693722689829
 20
7.167951820058933
 30
0.0
 11
15.61063691152024
 21
7.167951820058933
 31
0.0
  0
MTEXT
  5
2670
330
1F
100
AcDbEntity
  8
PinOut
100
AcDbMText
 10
15.97242564268744
 20
8.050043847201623
 30
0.0
 40
0.125
 41
0.0
 46
0.0
 71
     5
 72
     1
  1
1
 73
     1
 44
1.0
  0
MTEXT
  5
2671
330
1F
100
AcDbEntity
  8
PinOut
100
AcDbMText
 10
15.98869276597511
 20
7.699558327707444
 30
0.0
 40
0.125
 41
0.0
 46
0.0
 71
     5
 72
     1
  1
2
 73
     1
 44
1.0
  0
MTEXT
  5
2672
330
1F
100
AcDbEntity
  8
PinOut
100
AcDbMText
 10
15.98310516684029
 20
7.347991337412979
 30
0.0
 40
0.125
 41
0.0
 46
0.0
 71
     5
 72
     1
  1
3
 73
     1
 44
1.0
  0
MTEXT
  5
2673
330
1F
100
AcDbEntity
  8
PinOut
100
AcDbMText
 10
15.98986435934209
 20
6.998587288719088
 30
0.0
 40
0.125
 41
0.0
 46
0.0
 71
     5
 72
     1
  1
4
 73
     1
 44
1.0
  0
MTEXT
  5
2674
330
1F
100
AcDbEntity
  8
PinOut
100
AcDbMText
 10
18.04384924913454
 20
7.345554767306255
 30
0.0
 40
0.125
 41
0.0
 46
0.0
 71
     5
 72
     1
  1
CONTROL / PROGRAMMING VOLTAGE
 73
     1
 44
1.0
  0
MTEXT
  5
2675
330
1F
100
AcDbEntity
  8
PinOut
100
AcDbMText
 10
17.97901734726581
 20
7.698116366640407
 30
0.0
 40
0.125
 41
0.0
 46
0.0
 71
     5
 72
     1
  1
GND
 73
     1
 44
1.0
  0
MTEXT
  5
2676
330
1F
100
AcDbEntity
  8
PinOut
100
AcDbMText
 10
17.97901734726581
 20
8.048601886134564
 30
0.0
 40
0.125
 41
0.0
 46
0.0
 71
     5
 72
     1
  1
+ INPUT
 73
     1
 44
1.0
  0
LINE
  5
2677
330
1F
100
AcDbEntity
  8
Grid
100
AcDbLine
 10
19.693722689829
 20
6.817466300564769
 30
0.0
 11
15.61063691152024
 21
6.817466300564754
 31
0.0
  0
MTEXT
  5
2678
330
1F
100
AcDbEntity
  8
PinOut
100
AcDbMText
 10
17.9790173472658
 20
6.992218786278309
 30
0.0
 40
0.125
 41
0.0
 46
0.0
 71
     5
 72
     1
  1
HV OUTPUT
 73
     1
 44
1.0
  0
MTEXT
  5
2679
330
1F
100
AcDbEntity
  8
PinOut
100
AcDbMText
 10
15.98986435934209
 20
6.64810176922491
 30
0.0
 40
0.125
 41
0.0
 46
0.0
 71
     5
 72
     1
  1
5
 73
     1
 44
1.0
  0
LINE
  5
267A
330
1F
100
AcDbEntity
  8
Grid
100
AcDbLine
 10
19.69372268982901
 20
6.466980781070589
 30
0.0
 11
15.61063691152024
 21
6.466980781070576
 31
0.0
  0
MTEXT
  5
267B
330
1F
100
AcDbEntity
  8
PinOut
100
AcDbMText
 10
17.9790173472658
 20
6.641733266784131
 30
0.0
 40
0.125
 41
0.0
 46
0.0
 71
     5
 72
     1
  1
CASE GND
 73
     1
 44
1.0
  0
MTEXT
  5
267C
102
{ACAD_XDICTIONARY
360
267D
102
}
330
1F
100
AcDbEntity
  8
PinOut
100
AcDbMText
 10
17.66963501201932
 20
20.12127131144958
 30
0.0
 40
0.25
 41
0.0
 46
0.0
 71
     5
 72
     1
  1
OUTPUT VOLTAGES FROM 2100V TO 4000VDC
 73
     1
 44
1.0
1001
AcadAnnotative
1000
AnnotativeData
1002
{
1070
     1
1070
     0
1002
}
  0
LINE
  5
2680
330
1F
100
AcDbEntity
  8
Grid
100
AcDbLine
 10
30.12682736731537
 20
8.569893898035646
 30
0.0
 11
30.12682736731539
 21
6.466980781070583
 31
0.0
  0
LINE
  5
2681
330
1F
100
AcDbEntity
  8
Grid
100
AcDbLine
 10
26.04374158900661
 20
8.569893898035644
 30
0.0
 11
26.04374158900661
 21
6.466980781070574
 31
0.0
  0
MTEXT
  5
2682
330
1F
100
AcDbEntity
  8
PinOut
100
AcDbMText
 10
26.42234091228703
 20
8.399267650762128
 30
0.0
 40
0.125
 41
0.0
 46
0.0
 71
     5
 72
     1
  1
PIN #
 73
     1
 44
1.0
  0
LINE
  5
2683
330
1F
100
AcDbEntity
  8
Grid
100
AcDbLine
 10
30.12682736731537
 20
8.569893898035646
 30
0.0
 11
26.04374158900661
 21
8.569893898035646
 31
0.0
  0
LINE
  5
2684
330
1F
100
AcDbEntity
  8
Grid
100
AcDbLine
 10
26.80094023556744
 20
8.569893898035646
 30
0.0
 11
26.80094023556745
 21
6.466980781070576
 31
0.0
  0
MTEXT
  5
2685
330
1F
100
AcDbEntity
  8
PinOut
100
AcDbMText
 10
28.44195008053336
 20
8.399087405628756
 30
0.0
 40
0.125
 41
0.0
 46
0.0
 71
     5
 72
     1
  1
FUNCTION
 73
     1
 44
1.0
  0
LINE
  5
2686
330
1F
100
AcDbEntity
  8
Grid
100
AcDbLine
 10
30.12682736731538
 20
8.219408378541466
 30
0.0
 11
26.04374158900661
 21
8.219408378541467
 31
0.0
  0
LINE
  5
2687
330
1F
100
AcDbEntity
  8
Grid
100
AcDbLine
 10
30.12682736731538
 20
7.868922859047289
 30
0.0
 11
26.04374158900661
 21
7.868922859047289
 31
0.0
  0
LINE
  5
2688
330
1F
100
AcDbEntity
  8
Grid
100
AcDbLine
 10
30.12682736731538
 20
7.518437339553111
 30
0.0
 11
26.04374158900661
 21
7.518437339553111
 31
0.0
  0
LINE
  5
2689
330
1F
100
AcDbEntity
  8
Grid
100
AcDbLine
 10
30.12682736731538
 20
7.167951820058933
 30
0.0
 11
26.04374158900661
 21
7.167951820058933
 31
0.0
  0
MTEXT
  5
268A
330
1F
100
AcDbEntity
  8
PinOut
100
AcDbMText
 10
26.40553032017382
 20
8.050043847201623
 30
0.0
 40
0.125
 41
0.0
 46
0.0
 71
     5
 72
     1
  1
1
 73
     1
 44
1.0
  0
MTEXT
  5
268B
330
1F
100
AcDbEntity
  8
PinOut
100
AcDbMText
 10
26.42179744346149
 20
7.699558327707444
 30
0.0
 40
0.125
 41
0.0
 46
0.0
 71
     5
 72
     1
  1
2
 73
     1
 44
1.0
  0
MTEXT
  5
268C
330
1F
100
AcDbEntity
  8
PinOut
100
AcDbMText
 10
26.41620984432667
 20
7.347991337412979
 30
0.0
 40
0.125
 41
0.0
 46
0.0
 71
     5
 72
     1
  1
3
 73
     1
 44
1.0
  0
MTEXT
  5
268D
330
1F
100
AcDbEntity
  8
PinOut
100
AcDbMText
 10
26.42296903682847
 20
6.998587288719088
 30
0.0
 40
0.125
 41
0.0
 46
0.0
 71
     5
 72
     1
  1
4
 73
     1
 44
1.0
  0
MTEXT
  5
268E
330
1F
100
AcDbEntity
  8
PinOut
100
AcDbMText
 10
28.47695392662092
 20
7.345554767306255
 30
0.0
 40
0.125
 41
0.0
 46
0.0
 71
     5
 72
     1
  1
CONTROL / PROGRAMMING VOLTAGE
 73
     1
 44
1.0
  0
MTEXT
  5
268F
330
1F
100
AcDbEntity
  8
PinOut
100
AcDbMText
 10
28.41212202475219
 20
7.698116366640407
 30
0.0
 40
0.125
 41
0.0
 46
0.0
 71
     5
 72
     1
  1
GND
 73
     1
 44
1.0
  0
MTEXT
  5
2690
330
1F
100
AcDbEntity
  8
PinOut
100
AcDbMText
 10
28.41212202475219
 20
8.048601886134564
 30
0.0
 40
0.125
 41
0.0
 46
0.0
 71
     5
 72
     1
  1
+ INPUT
 73
     1
 44
1.0
  0
LINE
  5
2691
330
1F
100
AcDbEntity
  8
Grid
100
AcDbLine
 10
30.12682736731538
 20
6.817466300564769
 30
0.0
 11
26.04374158900661
 21
6.817466300564754
 31
0.0
  0
MTEXT
  5
2692
330
1F
100
AcDbEntity
  8
PinOut
100
AcDbMText
 10
28.41212202475218
 20
6.992218786278309
 30
0.0
 40
0.125
 41
0.0
 46
0.0
 71
     5
 72
     1
  1
HV RETURN
 73
     1
 44
1.0
  0
MTEXT
  5
2693
330
1F
100
AcDbEntity
  8
PinOut
100
AcDbMText
 10
26.42296903682847
 20
6.64810176922491
 30
0.0
 40
0.125
 41
0.0
 46
0.0
 71
     5
 72
     1
  1
5
 73
     1
 44
1.0
  0
LINE
  5
2694
330
1F
100
AcDbEntity
  8
Grid
100
AcDbLine
 10
30.12682736731539
 20
6.466980781070589
 30
0.0
 11
26.04374158900661
 21
6.466980781070576
 31
0.0
  0
MTEXT
  5
2695
330
1F
100
AcDbEntity
  8
PinOut
100
AcDbMText
 10
28.41212202475218
 20
6.641733266784131
 30
0.0
 40
0.125
 41
0.0
 46
0.0
 71
     5
 72
     1
  1
CASE GND
 73
     1
 44
1.0
  0
MTEXT
  5
2696
102
{ACAD_XDICTIONARY
360
2697
102
}
330
1F
100
AcDbEntity
  8
PinOut
100
AcDbMText
 10
28.1027396895057
 20
20.12127131144958
 30
0.0
 40
0.25
 41
0.0
 46
0.0
 71
     5
 72
     1
  1
OUTPUT VOLTAGES FROM 4100V TO 8000VDC
 73
     1
 44
1.0
1001
AcadAnnotative
1000
AnnotativeData
1002
{
1070
     1
1070
     0
1002
}
  0
ENDSEC
  0
SECTION
  2
OBJECTS
  0
DICTIONARY
  5
C
330
0
100
AcDbDictionary
281
     1
  3
ACAD_CIP_PREVIOUS_PRODUCT_INFO
350
330
  3
ACAD_COLOR
350
73
  3
ACAD_DETAILVIEWSTYLE
350
32B
  3
ACAD_GROUP
350
D
  3
ACAD_IMAGE_VARS
350
DC
  3
ACAD_LAYOUT
350
1A
  3
ACAD_MATERIAL
350
72
  3
ACAD_MLEADERSTYLE
350
B5
  3
ACAD_MLINESTYLE
350
17
  3
ACAD_PLOTSETTINGS
350
19
  3
ACAD_PLOTSTYLENAME
350
E
  3
ACAD_SCALELIST
350
B6
  3
ACAD_SECTIONVIEWSTYLE
350
328
  3
ACAD_TABLESTYLE
350
86
  3
ACAD_VISUALSTYLE
350
99
  3
ACDB_RECOMPOSE_DATA
350
29D3
  3
AcDbVariableDictionary
350
66
  3
APPDATA
350
E1
  0
DICTIONARY
  5
3C6
330
2
100
AcDbDictionary
280
     1
281
     1
  3
ACAD_LAYERSTATES
360
3C7
  0
DICTIONARY
  5
E6
330
E5
100
AcDbDictionary
280
     1
281
     1
  3
ADSK_XREC_LAYER_RECONCILED
360
E7
  0
DICTIONARY
  5
EA
330
E9
100
AcDbDictionary
280
     1
281
     1
  3
ADSK_XREC_LAYER_RECONCILED
360
EB
  0
DICTIONARY
  5
ED
330
EC
100
AcDbDictionary
280
     1
281
     1
  3
ADSK_XREC_LAYER_RECONCILED
360
EE
  0
DICTIONARY
  5
F2
330
F1
100
AcDbDictionary
280
     1
281
     1
  3
ADSK_XREC_LAYER_RECONCILED
360
F3
  0
DICTIONARY
  5
221D
330
221C
100
AcDbDictionary
280
     1
281
     1
  0
DICTIONARY
  5
221F
330
221E
100
AcDbDictionary
280
     1
281
     1
  0
DICTIONARY
  5
2221
330
2220
100
AcDbDictionary
280
     1
281
     1
  0
DICTIONARY
  5
2223
330
2222
100
AcDbDictionary
280
     1
281
     1
  0
DICTIONARY
  5
504
330
1F
100
AcDbDictionary
280
     1
281
     1
  3
ACAD_SORTENTS
360
505
  0
DICTIONARY
  5
10BF
330
10BC
100
AcDbDictionary
280
     1
281
     1
  3
ACAD_SORTENTS
360
10C0
  0
DICTIONARY
  5
2486
330
2485
100
AcDbDictionary
280
     1
281
     1
  3
ACAD_DIMASSOC
360
2487
  0
DICTIONARY
  5
2489
330
2488
100
AcDbDictionary
280
     1
281
     1
  3
ACAD_DIMASSOC
360
248A
  0
DICTIONARY
  5
248C
330
248B
100
AcDbDictionary
280
     1
281
     1
  3
ACAD_DIMASSOC
360
248D
  0
DICTIONARY
  5
248F
330
248E
100
AcDbDictionary
280
     1
281
     1
  3
ACAD_DIMASSOC
360
2490
  0
DICTIONARY
  5
2492
330
2491
100
AcDbDictionary
280
     1
281
     1
  3
ACAD_DIMASSOC
360
2493
  0
DICTIONARY
  5
2495
330
2494
100
AcDbDictionary
280
     1
281
     1
  3
ACAD_DIMASSOC
360
2496
  0
DICTIONARY
  5
2498
330
2497
100
AcDbDictionary
280
     1
281
     1
  3
ACAD_DIMASSOC
360
2499
  0
DICTIONARY
  5
249B
330
249A
100
AcDbDictionary
280
     1
281
     1
  3
ACAD_DIMASSOC
360
249C
  0
DICTIONARY
  5
249E
330
249D
100
AcDbDictionary
280
     1
281
     1
  3
ACAD_DIMASSOC
360
249F
  0
DICTIONARY
  5
24A1
330
24A0
100
AcDbDictionary
280
     1
281
     1
  3
ACAD_DIMASSOC
360
24A2
  0
DICTIONARY
  5
24A6
330
24A5
100
AcDbDictionary
280
     1
281
     1
  3
ACAD_DIMASSOC
360
24A7
  0
DICTIONARY
  5
24A9
330
24A8
100
AcDbDictionary
280
     1
281
     1
  3
ACAD_DIMASSOC
360
24AA
  0
DICTIONARY
  5
24AC
330
24AB
100
AcDbDictionary
280
     1
281
     1
  3
ACAD_DIMASSOC
360
24AD
  0
DICTIONARY
  5
24B0
330
24AF
100
AcDbDictionary
280
     1
281
     1
  3
ACAD_MTEXT_2008_RT
360
29CE
  0
DICTIONARY
  5
24B9
330
24B8
100
AcDbDictionary
280
     1
281
     1
  3
ACAD_MTEXT_2008_RT
360
29CF
  0
DICTIONARY
  5
2502
330
2501
100
AcDbDictionary
280
     1
281
     1
  3
ACAD_DIMASSOC
360
2503
  0
DICTIONARY
  5
2505
330
2504
100
AcDbDictionary
280
     1
281
     1
  3
ACAD_DIMASSOC
360
2506
  0
DICTIONARY
  5
2508
330
2507
100
AcDbDictionary
280
     1
281
     1
  3
ACAD_DIMASSOC
360
2509
  0
DICTIONARY
  5
250B
330
250A
100
AcDbDictionary
280
     1
281
     1
  3
ACAD_DIMASSOC
360
250C
  0
DICTIONARY
  5
250E
330
250D
100
AcDbDictionary
280
     1
281
     1
  3
ACAD_DIMASSOC
360
250F
  0
DICTIONARY
  5
2511
330
2510
100
AcDbDictionary
280
     1
281
     1
  3
ACAD_DIMASSOC
360
2512
  0
DICTIONARY
  5
2514
330
2513
100
AcDbDictionary
280
     1
281
     1
  3
ACAD_DIMASSOC
360
2515
  0
DICTIONARY
  5
2517
330
2516
100
AcDbDictionary
280
     1
281
     1
  3
ACAD_DIMASSOC
360
2518
  0
DICTIONARY
  5
251A
330
2519
100
AcDbDictionary
280
     1
281
     1
  3
ACAD_DIMASSOC
360
251B
  0
DICTIONARY
  5
251D
330
251C
100
AcDbDictionary
280
     1
281
     1
  3
ACAD_DIMASSOC
360
251E
  0
DICTIONARY
  5
2521
330
2520
100
AcDbDictionary
280
     1
281
     1
  3
ACAD_DIMASSOC
360
2522
  0
DICTIONARY
  5
2524
330
2523
100
AcDbDictionary
280
     1
281
     1
  3
ACAD_DIMASSOC
360
2525
  0
DICTIONARY
  5
2527
330
2526
100
AcDbDictionary
280
     1
281
     1
  3
ACAD_DIMASSOC
360
2528
  0
DICTIONARY
  5
252A
330
2529
100
AcDbDictionary
280
     1
281
     1
  3
ACAD_DIMASSOC
360
252B
  0
DICTIONARY
  5
252E
330
252D
100
AcDbDictionary
280
     1
281
     1
  3
ACAD_MTEXT_2008_RT
360
29D0
  0
DICTIONARY
  5
2539
330
2538
100
AcDbDictionary
280
     1
281
     1
  3
ACAD_MTEXT_2008_RT
360
29D1
  0
DICTIONARY
  5
25A0
330
259F
100
AcDbDictionary
280
     1
281
     1
  3
ACAD_DIMASSOC
360
25A1
  0
DICTIONARY
  5
25A7
330
25A6
100
AcDbDictionary
280
     1
281
     1
  3
ACAD_DIMASSOC
360
25A8
  0
DICTIONARY
  5
25AA
330
25A9
100
AcDbDictionary
280
     1
281
     1
  3
ACAD_DIMASSOC
360
25AB
  0
DICTIONARY
  5
25AD
330
25AC
100
AcDbDictionary
280
     1
281
     1
  3
ACAD_DIMASSOC
360
25AE
  0
DICTIONARY
  5
25B0
330
25AF
100
AcDbDictionary
280
     1
281
     1
  3
ACAD_DIMASSOC
360
25B1
  0
DICTIONARY
  5
25B3
330
25B2
100
AcDbDictionary
280
     1
281
     1
  3
ACAD_DIMASSOC
360
25B4
  0
DICTIONARY
  5
25BA
330
25B9
100
AcDbDictionary
280
     1
281
     1
  3
ACAD_DIMASSOC
360
25BB
  0
DICTIONARY
  5
25BD
330
25BC
100
AcDbDictionary
280
     1
281
     1
  3
ACAD_DIMASSOC
360
25BE
  0
DICTIONARY
  5
25C0
330
25BF
100
AcDbDictionary
280
     1
281
     1
  3
ACAD_DIMASSOC
360
25C1
  0
DICTIONARY
  5
25C5
330
25C4
100
AcDbDictionary
280
     1
281
     1
  3
ACAD_DIMASSOC
360
25C6
  0
DICTIONARY
  5
25C9
330
25C8
100
AcDbDictionary
280
     1
281
     1
  3
ACAD_MTEXT_2008_RT
360
29D2
  0
DICTIONARY
  5
25CC
330
25CB
100
AcDbDictionary
280
     1
281
     1
  0
DICTIONARY
  5
25D9
330
25D8
100
AcDbDictionary
280
     1
281
     1
  3
ACAD_DIMASSOC
360
25DA
  0
DICTIONARY
  5
2663
330
2662
100
AcDbDictionary
280
     1
281
     1
  3
AcDbContextDataManager
360
2664
  0
DICTIONARY
  5
267D
330
267C
100
AcDbDictionary
280
     1
281
     1
  3
AcDbContextDataManager
360
267E
  0
DICTIONARY
  5
2697
330
2696
100
AcDbDictionary
280
     1
281
     1
  3
AcDbContextDataManager
360
2698
  0
XRECORD
  5
330
102
{ACAD_REACTORS
330
C
102
}
330
C
100
AcDbXrecord
280
     1
300
ACDLT
300
2013
300
ACDLT_F_S
  0
DICTIONARY
  5
73
102
{ACAD_REACTORS
330
C
102
}
330
C
100
AcDbDictionary
281
     1
  0
DICTIONARY
  5
32B
102
{ACAD_REACTORS
330
C
102
}
330
C
100
AcDbDictionary
281
     1
  3
Imperial24
350
32C
  0
DICTIONARY
  5
D
102
{ACAD_REACTORS
330
C
102
}
330
C
100
AcDbDictionary
281
     1
  0
RASTERVARIABLES
  5
DC
102
{ACAD_REACTORS
330
C
102
}
330
C
100
AcDbRasterVariables
 90
        0
 70
     1
 71
     1
 72
     5
  0
DICTIONARY
  5
1A
102
{ACAD_REACTORS
330
C
102
}
330
C
100
AcDbDictionary
281
     1
  3
Model
350
22
  3
Sheet1
350
59
  3
Sheet2
350
5E
  0
DICTIONARY
  5
72
102
{ACAD_REACTORS
330
C
102
}
330
C
100
AcDbDictionary
281
     1
  3
ByBlock
350
E2
  3
ByLayer
350
96
  3
Global
350
98
  0
DICTIONARY
  5
B5
102
{ACAD_REACTORS
330
C
102
}
330
C
100
AcDbDictionary
281
     1
  3
Standard
350
327
  0
DICTIONARY
  5
17
102
{ACAD_REACTORS
330
C
102
}
330
C
100
AcDbDictionary
281
     1
  3
Standard
350
18
  0
DICTIONARY
  5
19
102
{ACAD_REACTORS
330
C
102
}
330
C
100
AcDbDictionary
281
     1
  0
ACDBDICTIONARYWDFLT
  5
E
102
{ACAD_REACTORS
330
C
102
}
330
C
100
AcDbDictionary
281
     1
  3
Normal
350
F
100
AcDbDictionaryWithDefault
340
F
  0
DICTIONARY
  5
B6
102
{ACAD_REACTORS
330
C
102
}
330
C
100
AcDbDictionary
281
     1
  3
A0
350
B7
  3
A1
350
B8
  3
A2
350
B9
  3
A3
350
BA
  3
A4
350
BB
  3
A5
350
BC
  3
A6
350
BD
  3
A7
350
BE
  3
A8
350
BF
  3
A9
350
C0
  3
B0
350
C1
  3
B1
350
C2
  3
B2
350
C3
  3
B3
350
C4
  3
B4
350
C5
  3
B5
350
C6
  3
B6
350
C7
  3
B7
350
C8
  3
B8
350
C9
  3
B9
350
CA
  3
C0
350
CB
  3
C1
350
CC
  3
C2
350
CD
  3
C3
350
CE
  3
C4
350
CF
  3
C5
350
D0
  3
C6
350
D1
  3
C7
350
D2
  3
C8
350
D3
  3
C9
350
D4
  3
D0
350
D5
  3
D1
350
D6
  3
D2
350
D7
  0
DICTIONARY
  5
328
102
{ACAD_REACTORS
330
C
102
}
330
C
100
AcDbDictionary
281
     1
  3
Imperial24
350
32A
  0
DICTIONARY
  5
86
102
{ACAD_REACTORS
330
C
102
}
330
C
100
AcDbDictionary
281
     1
  3
Standard
350
87
  0
DICTIONARY
  5
99
102
{ACAD_REACTORS
330
C
102
}
330
C
100
AcDbDictionary
281
     1
  3
2dWireframe
350
9F
  3
3D Hidden
350
A1
  3
3dWireframe
350
A0
  3
Basic
350
9E
  3
Brighten
350
A5
  3
ColorChange
350
A9
  3
Conceptual
350
A2
  3
Dim
350
A4
  3
EdgeColorOff
350
326
  3
Facepattern
350
A8
  3
Flat
350
9A
  3
FlatWithEdges
350
9B
  3
Gouraud
350
9C
  3
GouraudWithEdges
350
9D
  3
Hidden
350
31E
  3
JitterOff
350
324
  3
Linepattern
350
A7
  3
OverhangOff
350
325
  3
Realistic
350
A3
  3
Shaded
350
323
  3
Shaded with edges
350
322
  3
Shades of Gray
350
31F
  3
Sketchy
350
320
  3
Thicken
350
A6
  3
Wireframe
350
FF
  3
X-Ray
350
321
  0
XRECORD
  5
29D3
102
{ACAD_REACTORS
330
C
102
}
330
C
100
AcDbXrecord
280
     1
 90
        1
330
87
330
24AF
330
24B8
330
252D
330
2538
330
25C8
  0
DICTIONARY
  5
66
102
{ACAD_REACTORS
330
C
102
}
330
C
100
AcDbDictionary
281
     1
  3
CANNOSCALE
350
D8
  3
CMLEADERSTYLE
350
3CC
  3
CTABLESTYLE
350
89
  3
CVIEWDETAILSTYLE
350
3CD
  3
CVIEWSECTIONSTYLE
350
3CE
  3
DIMASSOC
350
67
  3
HIDETEXT
350
6B
  3
LIGHTSINBLOCKS
350
DF
  3
XCLIPFRAME
350
E0
  0
DICTIONARY
  5
E1
102
{ACAD_REACTORS
330
C
102
}
330
C
100
AcDbDictionary
281
     1
  0
DICTIONARY
  5
3C7
102
{ACAD_REACTORS
330
3C6
102
}
330
3C6
100
AcDbDictionary
281
     1
  0
XRECORD
  5
E7
102
{ACAD_REACTORS
330
E6
102
}
330
E6
100
AcDbXrecord
280
     1
290
     1
  0
XRECORD
  5
EB
102
{ACAD_REACTORS
330
EA
102
}
330
EA
100
AcDbXrecord
280
     1
290
     1
  0
XRECORD
  5
EE
102
{ACAD_REACTORS
330
ED
102
}
330
ED
100
AcDbXrecord
280
     1
290
     1
  0
XRECORD
  5
F3
102
{ACAD_REACTORS
330
F2
102
}
330
F2
100
AcDbXrecord
280
     1
290
     1
  0
SORTENTSTABLE
  5
505
102
{ACAD_REACTORS
330
504
102
}
330
504
100
AcDbSortentsTable
330
1F
  0
SORTENTSTABLE
  5
10C0
102
{ACAD_REACTORS
330
10BF
102
}
330
10BF
100
AcDbSortentsTable
330
10BC
  0
DIMASSOC
  5
2487
102
{ACAD_REACTORS
330
2486
102
}
330
2486
100
AcDbDimAssoc
330
2485
 90
        3
 70
     0
 71
     0
  1
AcDbOsnapPointRef
 72
    13
331
246A
 73
     2
 91
        0
 40
0.0
 10
0.0
 20
0.0
 30
2.000000000000000E+50
 75
     0
  1
AcDbOsnapPointRef
 72
     3
331
246C
 73
     2
 91
        0
 40
0.0
 10
0.0
 20
0.0
 30
0.0
 75
     0
  0
DIMASSOC
  5
248A
102
{ACAD_REACTORS
330
2489
102
}
330
2489
100
AcDbDimAssoc
330
2488
 90
        3
 70
     0
 71
     0
  1
AcDbOsnapPointRef
 72
    13
331
246A
 73
     2
 91
        0
 40
0.0
 10
0.0
 20
0.0
 30
2.000000000000000E+50
 75
     0
  1
AcDbOsnapPointRef
 72
     3
331
246D
 73
     2
 91
        0
 40
0.0
 10
0.0
 20
0.0
 30
0.0
 75
     0
  0
DIMASSOC
  5
248D
102
{ACAD_REACTORS
330
248C
102
}
330
248C
100
AcDbDimAssoc
330
248B
 90
        3
 70
     0
 71
     0
  1
AcDbOsnapPointRef
 72
    13
331
246A
 73
     2
 91
        0
 40
0.0
 10
0.0
 20
0.0
 30
2.000000000000000E+50
 75
     0
  1
AcDbOsnapPointRef
 72
     2
331
2483
 73
     2
 91
        0
 40
0.5000000000000034
 10
0.0
 20
0.0
 30
0.0
 75
     0
  0
DIMASSOC
  5
2490
102
{ACAD_REACTORS
330
248F
102
}
330
248F
100
AcDbDimAssoc
330
248E
 90
        3
 70
     0
 71
     0
  1
AcDbOsnapPointRef
 72
    13
331
246A
 73
     2
 91
        0
 40
0.0
 10
0.0
 20
0.0
 30
2.000000000000000E+50
 75
     0
  1
AcDbOsnapPointRef
 72
     3
331
246E
 73
     2
 91
        0
 40
0.0
 10
0.0
 20
0.0
 30
0.0
 75
     0
  0
DIMASSOC
  5
2493
102
{ACAD_REACTORS
330
2492
102
}
330
2492
100
AcDbDimAssoc
330
2491
 90
        3
 70
     0
 71
     0
  1
AcDbOsnapPointRef
 72
    13
331
246A
 73
     2
 91
        0
 40
0.0
 10
0.0
 20
0.0
 30
2.000000000000000E+50
 75
     0
  1
AcDbOsnapPointRef
 72
     3
331
246F
 73
     2
 91
        0
 40
0.0
 10
0.0
 20
0.0
 30
0.0
 75
     0
  0
DIMASSOC
  5
2496
102
{ACAD_REACTORS
330
2495
102
}
330
2495
100
AcDbDimAssoc
330
2494
 90
        3
 70
     0
 71
     0
  1
AcDbOsnapPointRef
 72
     1
331
2469
 73
     2
 91
        0
 40
1.0
 10
0.0
 20
0.0
 30
2.000000000000000E+50
 75
     0
  1
AcDbOsnapPointRef
 72
     3
331
2470
 73
     2
 91
        0
 40
0.0
 10
0.0
 20
0.0
 30
0.0
 75
     0
  0
DIMASSOC
  5
2499
102
{ACAD_REACTORS
330
2498
102
}
330
2498
100
AcDbDimAssoc
330
2497
 90
        3
 70
     0
 71
     0
  1
AcDbOsnapPointRef
 72
     3
331
246F
 73
     2
 91
        0
 40
0.0
 10
0.0
 20
0.0
 30
0.0
 75
     0
  1
AcDbOsnapPointRef
 72
     1
331
2469
 73
     2
 91
        0
 40
1.0
 10
0.0
 20
0.0
 30
2.000000000000000E+50
 75
     0
  0
DIMASSOC
  5
249C
102
{ACAD_REACTORS
330
249B
102
}
330
249B
100
AcDbDimAssoc
330
249A
 90
        3
 70
     0
 71
     0
  1
AcDbOsnapPointRef
 72
     3
331
246E
 73
     2
 91
        0
 40
0.0
 10
0.0
 20
0.0
 30
0.0
 75
     0
  1
AcDbOsnapPointRef
 72
     1
331
2469
 73
     2
 91
        0
 40
1.0
 10
0.0
 20
0.0
 30
2.000000000000000E+50
 75
     0
  0
DIMASSOC
  5
249F
102
{ACAD_REACTORS
330
249E
102
}
330
249E
100
AcDbDimAssoc
330
249D
 90
        2
 70
     0
 71
     0
  1
AcDbOsnapPointRef
 72
     1
331
2482
 73
     2
 91
        0
 40
0.0
 10
0.0
 20
0.0
 30
2.000000000000000E+50
 75
     0
  0
DIMASSOC
  5
24A2
102
{ACAD_REACTORS
330
24A1
102
}
330
24A1
100
AcDbDimAssoc
330
24A0
 90
        2
 70
     0
 71
     0
  1
AcDbOsnapPointRef
 72
     3
331
246C
 73
     2
 91
        0
 40
0.0
 10
0.0
 20
0.0
 30
0.0
 75
     0
  0
DIMASSOC
  5
24A7
102
{ACAD_REACTORS
330
24A6
102
}
330
24A6
100
AcDbDimAssoc
330
24A5
 90
        3
 70
     0
 71
     0
  1
AcDbOsnapPointRef
 72
     1
331
2467
 73
     2
 91
        0
 40
1.0
 10
0.0
 20
0.0
 30
2.000000000000000E+50
 75
     0
  1
AcDbOsnapPointRef
 72
    13
331
2465
 73
     2
 91
        0
 40
0.0
 10
0.0
 20
0.0
 30
2.000000000000000E+50
 75
     0
  0
DIMASSOC
  5
24AA
102
{ACAD_REACTORS
330
24A9
102
}
330
24A9
100
AcDbDimAssoc
330
24A8
 90
        3
 70
     0
 71
     0
  1
AcDbOsnapPointRef
 72
    13
331
2463
 73
     2
 91
        0
 40
4.712388980384689
 10
0.0
 20
0.0
 30
2.000000000000000E+50
 75
     0
  1
AcDbOsnapPointRef
 72
    13
331
2466
 73
     2
 91
        0
 40
0.0
 10
0.0
 20
0.0
 30
2.000000000000000E+50
 75
     0
  0
DIMASSOC
  5
24AD
102
{ACAD_REACTORS
330
24AC
102
}
330
24AC
100
AcDbDimAssoc
330
24AB
 90
        3
 70
     0
 71
     0
  1
AcDbOsnapPointRef
 72
    13
331
2475
 73
     2
 91
        0
 40
0.0
 10
0.0
 20
0.0
 30
2.000000000000000E+50
 75
     0
  1
AcDbOsnapPointRef
 72
    13
331
2467
 73
     2
 91
        0
 40
0.0
 10
0.0
 20
0.0
 30
2.000000000000000E+50
 75
     0
  0
XRECORD
  5
29CE
102
{ACAD_REACTORS
330
24B0
102
}
330
24B0
100
AcDbXrecord
280
     1
 40
154248.0
  1
PIN - 0.04 [1.02] Dia.\P\pxql;Tin Plated Brass\PMatte Finish 5 Plc
  0
XRECORD
  5
29CF
102
{ACAD_REACTORS
330
24B9
102
}
330
24B9
100
AcDbXrecord
280
     1
 40
2387.0
  1
\pxql;Cal. ADJ
  0
DIMASSOC
  5
2503
102
{ACAD_REACTORS
330
2502
102
}
330
2502
100
AcDbDimAssoc
330
2501
 90
        3
 70
     0
 71
     0
  1
AcDbOsnapPointRef
 72
    13
331
24E6
 73
     2
 91
        0
 40
0.0
 10
0.0
 20
0.0
 30
2.000000000000000E+50
 75
     0
  1
AcDbOsnapPointRef
 72
     3
331
24E8
 73
     2
 91
        0
 40
0.0
 10
0.0
 20
0.0
 30
0.0
 75
     0
  0
DIMASSOC
  5
2506
102
{ACAD_REACTORS
330
2505
102
}
330
2505
100
AcDbDimAssoc
330
2504
 90
        3
 70
     0
 71
     0
  1
AcDbOsnapPointRef
 72
    13
331
24E6
 73
     2
 91
        0
 40
0.0
 10
0.0
 20
0.0
 30
2.000000000000000E+50
 75
     0
  1
AcDbOsnapPointRef
 72
     3
331
24E9
 73
     2
 91
        0
 40
0.0
 10
0.0
 20
0.0
 30
0.0
 75
     0
  0
DIMASSOC
  5
2509
102
{ACAD_REACTORS
330
2508
102
}
330
2508
100
AcDbDimAssoc
330
2507
 90
        3
 70
     0
 71
     0
  1
AcDbOsnapPointRef
 72
    13
331
24E6
 73
     2
 91
        0
 40
0.0
 10
0.0
 20
0.0
 30
2.000000000000000E+50
 75
     0
  1
AcDbOsnapPointRef
 72
     2
331
24FF
 73
     2
 91
        0
 40
0.5000000000000034
 10
0.0
 20
0.0
 30
0.0
 75
     0
  0
DIMASSOC
  5
250C
102
{ACAD_REACTORS
330
250B
102
}
330
250B
100
AcDbDimAssoc
330
250A
 90
        3
 70
     0
 71
     0
  1
AcDbOsnapPointRef
 72
    13
331
24E6
 73
     2
 91
        0
 40
0.0
 10
0.0
 20
0.0
 30
2.000000000000000E+50
 75
     0
  1
AcDbOsnapPointRef
 72
     3
331
24EA
 73
     2
 91
        0
 40
0.0
 10
0.0
 20
0.0
 30
0.0
 75
     0
  0
DIMASSOC
  5
250F
102
{ACAD_REACTORS
330
250E
102
}
330
250E
100
AcDbDimAssoc
330
250D
 90
        3
 70
     0
 71
     0
  1
AcDbOsnapPointRef
 72
    13
331
24E6
 73
     2
 91
        0
 40
0.0
 10
0.0
 20
0.0
 30
2.000000000000000E+50
 75
     0
  1
AcDbOsnapPointRef
 72
     3
331
24EB
 73
     2
 91
        0
 40
0.0
 10
0.0
 20
0.0
 30
0.0
 75
     0
  0
DIMASSOC
  5
2512
102
{ACAD_REACTORS
330
2511
102
}
330
2511
100
AcDbDimAssoc
330
2510
 90
        3
 70
     0
 71
     0
  1
AcDbOsnapPointRef
 72
     1
331
24E5
 73
     2
 91
        0
 40
1.0
 10
0.0
 20
0.0
 30
2.000000000000000E+50
 75
     0
  1
AcDbOsnapPointRef
 72
     3
331
24EC
 73
     2
 91
        0
 40
0.0
 10
0.0
 20
0.0
 30
0.0
 75
     0
  0
DIMASSOC
  5
2515
102
{ACAD_REACTORS
330
2514
102
}
330
2514
100
AcDbDimAssoc
330
2513
 90
        3
 70
     0
 71
     0
  1
AcDbOsnapPointRef
 72
     3
331
24EB
 73
     2
 91
        0
 40
0.0
 10
0.0
 20
0.0
 30
0.0
 75
     0
  1
AcDbOsnapPointRef
 72
     1
331
24E5
 73
     2
 91
        0
 40
1.0
 10
0.0
 20
0.0
 30
2.000000000000000E+50
 75
     0
  0
DIMASSOC
  5
2518
102
{ACAD_REACTORS
330
2517
102
}
330
2517
100
AcDbDimAssoc
330
2516
 90
        3
 70
     0
 71
     0
  1
AcDbOsnapPointRef
 72
     3
331
24EA
 73
     2
 91
        0
 40
0.0
 10
0.0
 20
0.0
 30
0.0
 75
     0
  1
AcDbOsnapPointRef
 72
     1
331
24E5
 73
     2
 91
        0
 40
1.0
 10
0.0
 20
0.0
 30
2.000000000000000E+50
 75
     0
  0
DIMASSOC
  5
251B
102
{ACAD_REACTORS
330
251A
102
}
330
251A
100
AcDbDimAssoc
330
2519
 90
        3
 70
     0
 71
     0
  1
AcDbOsnapPointRef
 72
    13
331
24E7
 73
     2
 91
        0
 40
0.0
 10
0.0
 20
0.0
 30
2.000000000000000E+50
 75
     0
  1
AcDbOsnapPointRef
 72
     1
331
24FE
 73
     2
 91
        0
 40
0.0
 10
0.0
 20
0.0
 30
2.000000000000000E+50
 75
     0
  0
DIMASSOC
  5
251E
102
{ACAD_REACTORS
330
251D
102
}
330
251D
100
AcDbDimAssoc
330
251C
 90
        3
 70
     0
 71
     0
  1
AcDbOsnapPointRef
 72
    13
331
24E7
 73
     2
 91
        0
 40
0.0
 10
0.0
 20
0.0
 30
2.000000000000000E+50
 75
     0
  1
AcDbOsnapPointRef
 72
     3
331
24E8
 73
     2
 91
        0
 40
0.0
 10
0.0
 20
0.0
 30
0.0
 75
     0
  0
DIMASSOC
  5
2522
102
{ACAD_REACTORS
330
2521
102
}
330
2521
100
AcDbDimAssoc
330
2520
 90
        3
 70
     0
 71
     0
  1
AcDbOsnapPointRef
 72
    13
331
24E6
 73
     2
 91
        0
 40
0.0
 10
0.0
 20
0.0
 30
2.000000000000000E+50
 75
     0
  1
AcDbOsnapPointRef
 72
    13
331
24E7
 73
     2
 91
        0
 40
0.0
 10
0.0
 20
0.0
 30
2.000000000000000E+50
 75
     0
  0
DIMASSOC
  5
2525
102
{ACAD_REACTORS
330
2524
102
}
330
2524
100
AcDbDimAssoc
330
2523
 90
        3
 70
     0
 71
     0
  1
AcDbOsnapPointRef
 72
     1
331
24E3
 73
     2
 91
        0
 40
1.0
 10
0.0
 20
0.0
 30
2.000000000000000E+50
 75
     0
  1
AcDbOsnapPointRef
 72
    13
331
24E1
 73
     2
 91
        0
 40
0.0
 10
0.0
 20
0.0
 30
2.000000000000000E+50
 75
     0
  0
DIMASSOC
  5
2528
102
{ACAD_REACTORS
330
2527
102
}
330
2527
100
AcDbDimAssoc
330
2526
 90
        3
 70
     0
 71
     0
  1
AcDbOsnapPointRef
 72
    13
331
24DF
 73
     2
 91
        0
 40
4.712388980384689
 10
0.0
 20
0.0
 30
2.000000000000000E+50
 75
     0
  1
AcDbOsnapPointRef
 72
    13
331
24E2
 73
     2
 91
        0
 40
0.0
 10
0.0
 20
0.0
 30
2.000000000000000E+50
 75
     0
  0
DIMASSOC
  5
252B
102
{ACAD_REACTORS
330
252A
102
}
330
252A
100
AcDbDimAssoc
330
2529
 90
        3
 70
     0
 71
     0
  1
AcDbOsnapPointRef
 72
    13
331
24F1
 73
     2
 91
        0
 40
0.0
 10
0.0
 20
0.0
 30
2.000000000000000E+50
 75
     0
  1
AcDbOsnapPointRef
 72
    13
331
24E3
 73
     2
 91
        0
 40
0.0
 10
0.0
 20
0.0
 30
2.000000000000000E+50
 75
     0
  0
XRECORD
  5
29D0
102
{ACAD_REACTORS
330
252E
102
}
330
252E
100
AcDbXrecord
280
     1
 40
154248.0
  1
PIN - 0.04 [1.02] Dia.\P\pxql;Tin Plated Brass\PMatte Finish 5 Plc
  0
XRECORD
  5
29D1
102
{ACAD_REACTORS
330
2539
102
}
330
2539
100
AcDbXrecord
280
     1
 40
2387.0
  1
\pxql;Cal. ADJ
  0
DIMASSOC
  5
25A1
102
{ACAD_REACTORS
330
25A0
102
}
330
25A0
100
AcDbDimAssoc
330
259F
 90
        3
 70
     0
 71
     0
  1
AcDbOsnapPointRef
 72
     3
331
2578
 73
     2
 91
        0
 40
0.0
 10
0.0
 20
0.0
 30
0.0
 75
     0
  1
AcDbOsnapPointRef
 72
     3
331
2579
 73
     2
 91
        0
 40
0.0
 10
0.0
 20
0.0
 30
0.0
 75
     0
  0
DIMASSOC
  5
25A8
102
{ACAD_REACTORS
330
25A7
102
}
330
25A7
100
AcDbDimAssoc
330
25A6
 90
        2
 70
     0
 71
     0
  1
AcDbOsnapPointRef
 72
     1
331
2560
 73
     2
 91
        0
 40
6.283185307179586
 10
0.0
 20
0.0
 30
2.000000000000000E+50
 75
     0
  0
DIMASSOC
  5
25AB
102
{ACAD_REACTORS
330
25AA
102
}
330
25AA
100
AcDbDimAssoc
330
25A9
 90
        1
 70
     0
 71
     0
  1
AcDbOsnapPointRef
 72
    13
331
2574
 73
     2
 91
        0
 40
0.0
 10
0.0
 20
0.0
 30
2.000000000000000E+50
 75
     0
  0
DIMASSOC
  5
25AE
102
{ACAD_REACTORS
330
25AD
102
}
330
25AD
100
AcDbDimAssoc
330
25AC
 90
        1
 70
     0
 71
     0
  1
AcDbOsnapPointRef
 72
    13
331
2563
 73
     2
 91
        0
 40
0.0
 10
0.0
 20
0.0
 30
2.000000000000000E+50
 75
     0
  0
DIMASSOC
  5
25B1
102
{ACAD_REACTORS
330
25B0
102
}
330
25B0
100
AcDbDimAssoc
330
25AF
 90
        2
 70
     0
 71
     0
  1
AcDbOsnapPointRef
 72
     3
331
2564
 73
     2
 91
        0
 40
0.0
 10
0.0
 20
0.0
 30
0.0
 75
     0
  0
DIMASSOC
  5
25B4
102
{ACAD_REACTORS
330
25B3
102
}
330
25B3
100
AcDbDimAssoc
330
25B2
 90
        2
 70
     0
 71
     0
  1
AcDbOsnapPointRef
 72
     2
331
2586
 73
     2
 91
        0
 40
0.5000000000000217
 10
0.0
 20
0.0
 30
0.0
 75
     0
  0
DIMASSOC
  5
25BB
102
{ACAD_REACTORS
330
25BA
102
}
330
25BA
100
AcDbDimAssoc
330
25B9
 90
        3
 70
     0
 71
     0
  1
AcDbOsnapPointRef
 72
    13
331
2576
 73
     2
 91
        0
 40
0.0
 10
0.0
 20
0.0
 30
2.000000000000000E+50
 75
     0
  1
AcDbOsnapPointRef
 72
     3
331
2579
 73
     2
 91
        0
 40
0.0
 10
0.0
 20
0.0
 30
0.0
 75
     0
  0
DIMASSOC
  5
25BE
102
{ACAD_REACTORS
330
25BD
102
}
330
25BD
100
AcDbDimAssoc
330
25BC
 90
        3
 70
     0
 71
     0
  1
AcDbOsnapPointRef
 72
     3
331
2578
 73
     2
 91
        0
 40
0.0
 10
0.0
 20
0.0
 30
0.0
 75
     0
  1
AcDbOsnapPointRef
 72
     3
331
2564
 73
     2
 91
        0
 40
0.0
 10
0.0
 20
0.0
 30
0.0
 75
     0
  0
DIMASSOC
  5
25C1
102
{ACAD_REACTORS
330
25C0
102
}
330
25C0
100
AcDbDimAssoc
330
25BF
 90
        1
 70
     0
 71
     0
  1
AcDbOsnapPointRef
 72
     3
331
2578
 73
     2
 91
        0
 40
0.0
 10
0.0
 20
0.0
 30
0.0
 75
     0
  0
DIMASSOC
  5
25C6
102
{ACAD_REACTORS
330
25C5
102
}
330
25C5
100
AcDbDimAssoc
330
25C4
 90
        2
 70
     0
 71
     0
  1
AcDbOsnapPointRef
 72
     1
331
2592
 73
     2
 91
        0
 40
1.0
 10
0.0
 20
0.0
 30
2.000000000000000E+50
 75
     0
  0
XRECORD
  5
29D2
102
{ACAD_REACTORS
330
25C9
102
}
330
25C9
100
AcDbXrecord
280
     1
 40
154248.0
  1
PIN - 0.04 [1.02] Dia.\P\pxql;Tin Plated Brass\PMatte Finish 5 Plc
  0
DIMASSOC
  5
25DA
102
{ACAD_REACTORS
330
25D9
102
}
330
25D9
100
AcDbDimAssoc
330
25D8
 90
        3
 70
     0
 71
     0
  1
AcDbOsnapPointRef
 72
    13
331
2576
 73
     2
 91
        0
 40
0.0
 10
0.0
 20
0.0
 30
2.000000000000000E+50
 75
     0
  1
AcDbOsnapPointRef
 72
    13
331
2577
 73
     2
 91
        0
 40
0.0
 10
0.0
 20
0.0
 30
2.000000000000000E+50
 75
     0
  0
DICTIONARY
  5
2664
102
{ACAD_REACTORS
330
2663
102
}
330
2663
100
AcDbDictionary
281
     1
  3
ACDB_ANNOTATIONSCALES
350
2665
  0
DICTIONARY
  5
267E
102
{ACAD_REACTORS
330
267D
102
}
330
267D
100
AcDbDictionary
281
     1
  3
ACDB_ANNOTATIONSCALES
350
267F
  0
DICTIONARY
  5
2698
102
{ACAD_REACTORS
330
2697
102
}
330
2697
100
AcDbDictionary
281
     1
  3
ACDB_ANNOTATIONSCALES
350
2699
  0
ACDBDETAILVIEWSTYLE
  5
32C
102
{ACAD_REACTORS
330
32B
102
}
330
32B
100
AcDbModelDocViewStyle
 70
     0
  3
Imperial24
290
     0
100
AcDbDetailViewStyle
 70
     0
 71
     0
 90
        3
 71
     1
340
11
 62
   256
 40
0.24
340
0
 62
   256
 40
0.24
300

 40
0.36
280
     3
 71
     2
340
16
 90
       25
 62
   256
 71
     3
340
11
 62
   256
 40
0.24
 90
        1
 40
0.75
 90
        1
300
%<\AcVar ViewType \f "%tc1">% %<\AcVar ViewDetailId>%\PSCALE %<\AcVar ViewScale \f "%sn">%
 71
     4
340
16
 90
       25
 62
   256
340
16
 90
       25
 62
   256
280
     0
  0
LAYOUT
  5
22
102
{ACAD_XDICTIONARY
360
297C
102
}
102
{ACAD_REACTORS
330
1A
102
}
330
1A
100
AcDbPlotSettings
  1

  2
none_device
  4
ANSI_A_(8.50_x_11.00_Inches)
  6

 40
6.349999999999999
 41
19.05
 42
6.349999999999999
 43
19.05
 44
215.9
 45
279.4
 46
11.11250000000002
 47
0.0000000000000142
 48
0.0
 49
0.0
140
0.0
141
0.0
142
1.0
143
1.263157894736842
 70
 11444
 72
     0
 73
     1
 74
     1
  7
monochrome.ctb
 75
     0
147
0.7916666666666666
 76
     0
 77
     2
 78
   300
148
-702.8076765758875
149
-496.2830551296954
100
AcDbLayout
  1
Model
 70
     1
 71
     0
 10
0.0
 20
0.0
 11
12.0
 21
9.0
 12
0.0
 22
0.0
 32
0.0
 14
-2.515948950185261
 24
0.7574228077398134
 34
0.0
 15
7.738106080898005
 25
9.435020921765595
 35
0.0
146
0.0
 13
0.0
 23
0.0
 33
0.0
 16
1.0
 26
0.0
 36
0.0
 17
0.0
 27
1.0
 37
0.0
 76
     0
330
1F
331
94
  0
LAYOUT
  5
59
102
{ACAD_REACTORS
330
1A
102
}
330
1A
100
AcDbPlotSettings
  1

  2
None
  4

  6

 40
0.0
 41
0.0
 42
0.0
 43
0.0
 44
0.0
 45
0.0
 46
0.0
 47
0.0
 48
0.0
 49
0.0
140
0.0
141
0.0
142
1.0
143
1.0
 70
   688
 72
     0
 73
     0
 74
     5
  7

 75
    16
147
1.0
 76
     0
 77
     2
 78
   300
148
0.0
149
0.0
100
AcDbLayout
  1
Sheet1
 70
     1
 71
     1
 10
0.0
 20
0.0
 11
12.0
 21
9.0
 12
0.0
 22
0.0
 32
0.0
 14
0.0
 24
0.0
 34
0.0
 15
0.0
 25
0.0
 35
0.0
146
0.0
 13
0.0
 23
0.0
 33
0.0
 16
1.0
 26
0.0
 36
0.0
 17
0.0
 27
1.0
 37
0.0
 76
     0
330
58
  0
LAYOUT
  5
5E
102
{ACAD_REACTORS
330
1A
102
}
330
1A
100
AcDbPlotSettings
  1

  2
None
  4

  6

 40
0.0
 41
0.0
 42
0.0
 43
0.0
 44
0.0
 45
0.0
 46
0.0
 47
0.0
 48
0.0
 49
0.0
140
0.0
141
0.0
142
1.0
143
1.0
 70
   688
 72
     0
 73
     0
 74
     5
  7

 75
    16
147
1.0
 76
     0
 77
     2
 78
   300
148
0.0
149
0.0
100
AcDbLayout
  1
Sheet2
 70
     1
 71
     2
 10
0.0
 20
0.0
 11
12.0
 21
9.0
 12
0.0
 22
0.0
 32
0.0
 14
0.0
 24
0.0
 34
0.0
 15
0.0
 25
0.0
 35
0.0
146
0.0
 13
0.0
 23
0.0
 33
0.0
 16
1.0
 26
0.0
 36
0.0
 17
0.0
 27
1.0
 37
0.0
 76
     0
330
5D
  0
MATERIAL
  5
E2
102
{ACAD_REACTORS
330
72
102
}
330
72
100
AcDbMaterial
  1
ByBlock
 73
     1
 78
     1
172
     1
176
     1
270
     1
274
     1
  0
MATERIAL
  5
96
102
{ACAD_REACTORS
330
72
102
}
330
72
100
AcDbMaterial
  1
ByLayer
 73
     1
 78
     1
172
     1
176
     1
270
     1
274
     1
 94
       63
  0
MATERIAL
  5
98
102
{ACAD_REACTORS
330
72
102
}
330
72
100
AcDbMaterial
  1
Global
 73
     1
 78
     1
172
     1
176
     1
270
     1
274
     1
 94
       63
  0
MLEADERSTYLE
  5
327
102
{ACAD_REACTORS
330
B5
102
}
330
B5
100
AcDbMLeaderStyle
179
     2
170
     2
171
     1
172
     0
 90
        2
 40
0.0
 41
0.0
173
     1
 91
-1056964608
340
14
 92
       -2
290
     1
 42
0.09
291
     1
 43
0.36
  3
Standard
 44
0.18
300

342
11
174
     1
178
     6
175
     1
176
     0
 93
-1056964608
 45
0.18
292
     0
297
     0
 46
0.18
 94
-1056964608
 47
1.0
 49
1.0
140
1.0
293
     1
141
0.0
294
     1
177
     0
142
1.0
295
     0
296
     0
143
0.125
271
     0
272
     9
273
     9
298
     1
  0
MLINESTYLE
  5
18
102
{ACAD_REACTORS
330
17
102
}
330
17
100
AcDbMlineStyle
  2
STANDARD
 70
     0
  3

 62
   256
 51
90.0
 52
90.0
 71
     2
 49
0.5
 62
   256
  6
BYLAYER
 49
-0.5
 62
   256
  6
BYLAYER
  0
ACDBPLACEHOLDER
  5
F
102
{ACAD_REACTORS
330
E
102
}
330
E
  0
SCALE
  5
B7
102
{ACAD_REACTORS
330
B6
102
}
330
B6
100
AcDbScale
 70
     0
300
1:1
140
1.0
141
1.0
290
     1
  0
SCALE
  5
B8
102
{ACAD_REACTORS
330
B6
102
}
330
B6
100
AcDbScale
 70
     0
300
1:2
140
1.0
141
2.0
290
     0
  0
SCALE
  5
B9
102
{ACAD_REACTORS
330
B6
102
}
330
B6
100
AcDbScale
 70
     0
300
1:4
140
1.0
141
4.0
290
     0
  0
SCALE
  5
BA
102
{ACAD_REACTORS
330
B6
102
}
330
B6
100
AcDbScale
 70
     0
300
1:5
140
1.0
141
5.0
290
     0
  0
SCALE
  5
BB
102
{ACAD_REACTORS
330
B6
102
}
330
B6
100
AcDbScale
 70
     0
300
1:8
140
1.0
141
8.0
290
     0
  0
SCALE
  5
BC
102
{ACAD_REACTORS
330
B6
102
}
330
B6
100
AcDbScale
 70
     0
300
1:10
140
1.0
141
10.0
290
     0
  0
SCALE
  5
BD
102
{ACAD_REACTORS
330
B6
102
}
330
B6
100
AcDbScale
 70
     0
300
1:16
140
1.0
141
16.0
290
     0
  0
SCALE
  5
BE
102
{ACAD_REACTORS
330
B6
102
}
330
B6
100
AcDbScale
 70
     0
300
1:20
140
1.0
141
20.0
290
     0
  0
SCALE
  5
BF
102
{ACAD_REACTORS
330
B6
102
}
330
B6
100
AcDbScale
 70
     0
300
1:30
140
1.0
141
30.0
290
     0
  0
SCALE
  5
C0
102
{ACAD_REACTORS
330
B6
102
}
330
B6
100
AcDbScale
 70
     0
300
1:40
140
1.0
141
40.0
290
     0
  0
SCALE
  5
C1
102
{ACAD_REACTORS
330
B6
102
}
330
B6
100
AcDbScale
 70
     0
300
1:50
140
1.0
141
50.0
290
     0
  0
SCALE
  5
C2
102
{ACAD_REACTORS
330
B6
102
}
330
B6
100
AcDbScale
 70
     0
300
1:100
140
1.0
141
100.0
290
     0
  0
SCALE
  5
C3
102
{ACAD_REACTORS
330
B6
102
}
330
B6
100
AcDbScale
 70
     0
300
2:1
140
2.0
141
1.0
290
     0
  0
SCALE
  5
C4
102
{ACAD_REACTORS
330
B6
102
}
330
B6
100
AcDbScale
 70
     0
300
4:1
140
4.0
141
1.0
290
     0
  0
SCALE
  5
C5
102
{ACAD_REACTORS
330
B6
102
}
330
B6
100
AcDbScale
 70
     0
300
8:1
140
8.0
141
1.0
290
     0
  0
SCALE
  5
C6
102
{ACAD_REACTORS
330
B6
102
}
330
B6
100
AcDbScale
 70
     0
300
10:1
140
10.0
141
1.0
290
     0
  0
SCALE
  5
C7
102
{ACAD_REACTORS
330
B6
102
}
330
B6
100
AcDbScale
 70
     0
300
100:1
140
100.0
141
1.0
290
     0
  0
SCALE
  5
C8
102
{ACAD_REACTORS
330
B6
102
}
330
B6
100
AcDbScale
 70
     0
300
1/128" = 1'-0"
140
0.0078125
141
12.0
290
     0
  0
SCALE
  5
C9
102
{ACAD_REACTORS
330
B6
102
}
330
B6
100
AcDbScale
 70
     0
300
1/64" = 1'-0"
140
0.015625
141
12.0
290
     0
  0
SCALE
  5
CA
102
{ACAD_REACTORS
330
B6
102
}
330
B6
100
AcDbScale
 70
     0
300
1/32" = 1'-0"
140
0.03125
141
12.0
290
     0
  0
SCALE
  5
CB
102
{ACAD_REACTORS
330
B6
102
}
330
B6
100
AcDbScale
 70
     0
300
1/16" = 1'-0"
140
0.0625
141
12.0
290
     0
  0
SCALE
  5
CC
102
{ACAD_REACTORS
330
B6
102
}
330
B6
100
AcDbScale
 70
     0
300
3/32" = 1'-0"
140
0.09375
141
12.0
290
     0
  0
SCALE
  5
CD
102
{ACAD_REACTORS
330
B6
102
}
330
B6
100
AcDbScale
 70
     0
300
1/8" = 1'-0"
140
0.125
141
12.0
290
     0
  0
SCALE
  5
CE
102
{ACAD_REACTORS
330
B6
102
}
330
B6
100
AcDbScale
 70
     0
300
3/16" = 1'-0"
140
0.1875
141
12.0
290
     0
  0
SCALE
  5
CF
102
{ACAD_REACTORS
330
B6
102
}
330
B6
100
AcDbScale
 70
     0
300
1/4" = 1'-0"
140
0.25
141
12.0
290
     0
  0
SCALE
  5
D0
102
{ACAD_REACTORS
330
B6
102
}
330
B6
100
AcDbScale
 70
     0
300
3/8" = 1'-0"
140
0.375
141
12.0
290
     0
  0
SCALE
  5
D1
102
{ACAD_REACTORS
330
B6
102
}
330
B6
100
AcDbScale
 70
     0
300
1/2" = 1'-0"
140
0.5
141
12.0
290
     0
  0
SCALE
  5
D2
102
{ACAD_REACTORS
330
B6
102
}
330
B6
100
AcDbScale
 70
     0
300
3/4" = 1'-0"
140
0.75
141
12.0
290
     0
  0
SCALE
  5
D3
102
{ACAD_REACTORS
330
B6
102
}
330
B6
100
AcDbScale
 70
     0
300
1" = 1'-0"
140
1.0
141
12.0
290
     0
  0
SCALE
  5
D4
102
{ACAD_REACTORS
330
B6
102
}
330
B6
100
AcDbScale
 70
     0
300
1-1/2" = 1'-0"
140
1.5
141
12.0
290
     0
  0
SCALE
  5
D5
102
{ACAD_REACTORS
330
B6
102
}
330
B6
100
AcDbScale
 70
     0
300
3" = 1'-0"
140
3.0
141
12.0
290
     0
  0
SCALE
  5
D6
102
{ACAD_REACTORS
330
B6
102
}
330
B6
100
AcDbScale
 70
     0
300
6" = 1'-0"
140
6.0
141
12.0
290
     0
  0
SCALE
  5
D7
102
{ACAD_REACTORS
330
B6
102
}
330
B6
100
AcDbScale
 70
     0
300
1'-0" = 1'-0"
140
12.0
141
12.0
290
     0
  0
ACDBSECTIONVIEWSTYLE
  5
32A
102
{ACAD_REACTORS
330
328
102
}
330
328
100
AcDbModelDocViewStyle
 70
     0
  3
Imperial24
290
     0
100
AcDbSectionViewStyle
 70
     0
 71
     0
 90
       78
 71
     1
340
11
 62
   256
 40
0.24
340
0
340
0
 62
   256
 40
0.24
300
I, O, Q, S, X, Z
 40
0.48
 90
        3
 40
0.18
 90
        1
 71
     2
340
329
 90
       25
 62
   256
340
16
 90
       50
 62
   256
 40
0.24
 40
0.0
 40
0.24
 71
     3
340
11
 62
   256
 40
0.24
 90
        1
 40
0.75
 90
        1
300
%<\AcVar ViewType \f "%tc1">% %<\AcVar ViewSectionStartId>%-%<\AcVar ViewSectionEndId>%\PSCALE %<\AcVar ViewScale \f "%sn">%
 71
     4
 62
   256
 62
   257
300
ANSI31
 40
1.0
 90
        0
290
     0
290
     0
 90
        6
 40
0.0
 40
1.570796326794896
 40
0.2617993877991494
 40
1.308996938995747
 40
-0.2617993877991494
 40
1.832595714594046
  0
TABLESTYLE
  5
87
102
{ACAD_XDICTIONARY
360
29CC
102
}
102
{ACAD_REACTORS
330
86
102
}
330
86
100
AcDbTableStyle
280
     0
  3
Standard
 70
     0
 71
     0
 40
0.06
 41
0.06
280
     0
281
     0
  7
Standard
140
0.18
170
     2
 62
     0
 63
     7
283
     0
 90
      512
 91
        0
  1

274
    -2
284
     1
 64
     0
275
    -2
285
     1
 65
     0
276
    -2
286
     1
 66
     0
277
    -2
287
     1
 67
     0
278
    -2
288
     1
 68
     0
279
    -2
289
     1
 69
     0
  7
Standard
140
0.25
170
     5
 62
     0
 63
     7
283
     0
 90
      512
 91
        0
  1

274
    -2
284
     1
 64
     0
275
    -2
285
     1
 65
     0
276
    -2
286
     1
 66
     0
277
    -2
287
     1
 67
     0
278
    -2
288
     1
 68
     0
279
    -2
289
     1
 69
     0
  7
Standard
140
0.18
170
     5
 62
     0
 63
     7
283
     0
 90
      512
 91
        0
  1

274
    -2
284
     1
 64
     0
275
    -2
285
     1
 65
     0
276
    -2
286
     1
 66
     0
277
    -2
287
     1
 67
     0
278
    -2
288
     1
 68
     0
279
    -2
289
     1
 69
     0
  0
VISUALSTYLE
  5
9F
102
{ACAD_REACTORS
330
99
102
}
330
99
100
AcDbVisualStyle
  2
2dWireframe
 70
     4
177
     3
291
     0
 70
    58
 90
        0
176
     1
 90
        2
176
     1
 90
        1
176
     1
 90
        0
176
     1
 40
0.6
176
     1
 40
30.0
176
     1
 62
     7
420
 16777215
176
     1
 90
        1
176
     1
 90
        4
176
     1
 62
     7
176
     1
 62
   257
176
     1
 90
        1
176
     1
 90
        1
176
     1
 40
1.0
176
     1
 90
        0
176
     1
 62
   257
176
     1
 40
1.0
176
     1
 90
        1
176
     1
 90
        6
176
     1
 90
        2
176
     1
 62
     7
176
     1
 90
        5
176
     1
 90
        0
176
     1
 90
        0
176
     1
290
     0
176
     1
 90
        1
176
     1
 40
0.0
176
     1
 90
        0
176
     1
290
     1
176
     1
290
     1
176
     1
290
     0
176
     1
290
     0
176
     1
290
     0
176
     1
290
     0
176
     1
290
     0
176
     1
290
     0
176
     1
290
     0
176
     1
 90
       50
176
     1
 40
0.0
176
     1
 40
1.0
176
     1
 90
        0
176
     1
 62
    18
420
        0
176
     1
 90
       50
176
     1
 90
        3
176
     1
 62
     5
420
      255
176
     1
290
     0
176
     1
 90
       50
176
     1
 90
       50
176
     1
 90
       50
176
     1
290
     0
176
     1
 90
       50
176
     1
 62
   256
176
     0
 40
1.0
176
     0
 90
        2
176
     1
  1
strokes_ogs.tif
176
     1
290
     0
176
     1
 40
1.0
176
     1
 40
1.0
176
     1
  0
VISUALSTYLE
  5
A1
102
{ACAD_REACTORS
330
99
102
}
330
99
100
AcDbVisualStyle
  2
3D Hidden
 70
     6
177
     3
291
     0
 70
    58
 90
        1
176
     1
 90
        2
176
     1
 90
        2
176
     1
 90
        0
176
     1
 40
0.6
176
     1
 40
30.0
176
     1
 62
     7
420
 16777215
176
     1
 90
        2
176
     1
 90
        2
176
     1
 62
     7
176
     1
 62
   257
176
     1
 90
        2
176
     1
 90
        1
176
     1
 40
40.0
176
     1
 90
        0
176
     1
 62
   257
176
     1
 40
1.0
176
     1
 90
        1
176
     1
 90
        6
176
     1
 90
        2
176
     1
 62
     7
176
     1
 90
        3
176
     1
 90
        0
176
     1
 90
        0
176
     1
290
     0
176
     1
 90
        1
176
     1
 40
0.0
176
     1
 90
        0
176
     1
290
     0
176
     1
290
     1
176
     1
290
     1
176
     1
290
     0
176
     1
290
     0
176
     1
290
     0
176
     1
290
     0
176
     1
290
     0
176
     1
290
     0
176
     1
 90
       50
176
     1
 40
0.0
176
     1
 40
1.0
176
     1
 90
        0
176
     1
 62
    18
420
        0
176
     1
 90
       50
176
     1
 90
        3
176
     1
 62
     5
420
      255
176
     1
290
     0
176
     1
 90
       50
176
     1
 90
       50
176
     1
 90
       50
176
     1
290
     0
176
     1
 90
       50
176
     1
 62
   256
176
     0
 40
1.0
176
     0
 90
        2
176
     1
  1
strokes_ogs.tif
176
     1
290
     0
176
     1
 40
1.0
176
     1
 40
1.0
176
     1
  0
VISUALSTYLE
  5
A0
102
{ACAD_REACTORS
330
99
102
}
330
99
100
AcDbVisualStyle
  2
3dWireframe
 70
     5
177
     3
291
     0
 70
    58
 90
        0
176
     1
 90
        2
176
     1
 90
        1
176
     1
 90
        0
176
     1
 40
0.6
176
     1
 40
30.0
176
     1
 62
     7
420
 16777215
176
     1
 90
        1
176
     1
 90
        4
176
     1
 62
     7
176
     1
 62
   257
176
     1
 90
        1
176
     1
 90
        1
176
     1
 40
1.0
176
     1
 90
        0
176
     1
 62
   257
176
     1
 40
1.0
176
     1
 90
        1
176
     1
 90
        6
176
     1
 90
        2
176
     1
 62
     7
176
     1
 90
        5
176
     1
 90
        0
176
     1
 90
        0
176
     1
290
     0
176
     1
 90
        1
176
     1
 40
0.0
176
     1
 90
        0
176
     1
290
     0
176
     1
290
     1
176
     1
290
     1
176
     1
290
     0
176
     1
290
     0
176
     1
290
     0
176
     1
290
     0
176
     1
290
     0
176
     1
290
     0
176
     1
 90
       50
176
     1
 40
0.0
176
     1
 40
1.0
176
     1
 90
        0
176
     1
 62
    18
420
        0
176
     1
 90
       50
176
     1
 90
        3
176
     1
 62
     5
420
      255
176
     1
290
     0
176
     1
 90
       50
176
     1
 90
       50
176
     1
 90
       50
176
     1
290
     0
176
     1
 90
       50
176
     1
 62
   256
176
     0
 40
1.0
176
     0
 90
        2
176
     1
  1
strokes_ogs.tif
176
     1
290
     0
176
     1
 40
1.0
176
     1
 40
1.0
176
     1
  0
VISUALSTYLE
  5
9E
102
{ACAD_REACTORS
330
99
102
}
330
99
100
AcDbVisualStyle
  2
Basic
 70
     7
177
     3
291
     1
 70
    58
 90
        1
176
     1
 90
        0
176
     1
 90
        1
176
     1
 90
        0
176
     1
 40
0.6
176
     1
 40
30.0
176
     1
 62
     7
420
 16777215
176
     1
 90
        0
176
     1
 90
        4
176
     1
 62
     7
176
     1
 62
   257
176
     1
 90
        1
176
     1
 90
        1
176
     1
 40
1.0
176
     1
 90
        8
176
     1
 62
     7
176
     1
 40
1.0
176
     1
 90
        1
176
     1
 90
        6
176
     1
 90
        2
176
     1
 62
     7
176
     1
 90
        5
176
     1
 90
        0
176
     1
 90
        0
176
     1
290
     0
176
     1
 90
        1
176
     1
 40
0.0
176
     1
 90
        0
176
     1
290
     0
176
     1
290
     1
176
     1
290
     1
176
     1
290
     0
176
     1
290
     0
176
     1
290
     0
176
     1
290
     0
176
     1
290
     0
176
     1
290
     0
176
     1
 90
       50
176
     1
 40
0.0
176
     1
 40
1.0
176
     1
 90
        0
176
     1
 62
    18
420
        0
176
     1
 90
       50
176
     1
 90
        3
176
     1
 62
     5
420
      255
176
     1
290
     0
176
     1
 90
       50
176
     1
 90
       50
176
     1
 90
       50
176
     1
290
     0
176
     1
 90
       50
176
     1
 62
   256
176
     0
 40
1.0
176
     0
 90
        2
176
     1
  1
strokes_ogs.tif
176
     1
290
     0
176
     1
 40
1.0
176
     1
 40
1.0
176
     1
  0
VISUALSTYLE
  5
A5
102
{ACAD_REACTORS
330
99
102
}
330
99
100
AcDbVisualStyle
  2
Brighten
 70
    12
177
     3
291
     1
 70
    58
 90
        2
176
     1
 90
        2
176
     1
 90
        1
176
     1
 90
        0
176
     1
 40
0.6
176
     1
 40
30.0
176
     1
 62
     7
420
 16777215
176
     1
 90
        1
176
     1
 90
        4
176
     1
 62
     7
176
     1
 62
   257
176
     1
 90
        1
176
     1
 90
        1
176
     1
 40
1.0
176
     1
 90
        8
176
     1
 62
     7
176
     1
 40
1.0
176
     1
 90
        1
176
     1
 90
        6
176
     1
 90
        2
176
     1
 62
     7
176
     1
 90
        5
176
     1
 90
        0
176
     1
 90
        0
176
     1
290
     0
176
     1
 90
        1
176
     1
 40
50.0
176
     1
 90
        0
176
     1
290
     0
176
     1
290
     1
176
     1
290
     1
176
     1
290
     0
176
     1
290
     0
176
     1
290
     0
176
     1
290
     0
176
     1
290
     0
176
     1
290
     0
176
     1
 90
       50
176
     1
 40
0.0
176
     1
 40
1.0
176
     1
 90
        0
176
     1
 62
    18
420
        0
176
     1
 90
       50
176
     1
 90
        3
176
     1
 62
     5
420
      255
176
     1
290
     0
176
     1
 90
       50
176
     1
 90
       50
176
     1
 90
       50
176
     1
290
     0
176
     1
 90
       50
176
     1
 62
   256
176
     0
 40
1.0
176
     0
 90
        2
176
     1
  1
strokes_ogs.tif
176
     1
290
     0
176
     1
 40
1.0
176
     1
 40
1.0
176
     1
  0
VISUALSTYLE
  5
A9
102
{ACAD_REACTORS
330
99
102
}
330
99
100
AcDbVisualStyle
  2
ColorChange
 70
    16
177
     3
291
     1
 70
    58
 90
        2
176
     1
 90
        2
176
     1
 90
        3
176
     1
 90
        0
176
     1
 40
0.6
176
     1
 40
30.0
176
     1
 62
     8
420
  8421504
176
     1
 90
        1
176
     1
 90
        4
176
     1
 62
     7
176
     1
 62
   257
176
     1
 90
        1
176
     1
 90
        1
176
     1
 40
1.0
176
     1
 90
        8
176
     1
 62
     8
420
  8421504
176
     1
 40
1.0
176
     1
 90
        1
176
     1
 90
        6
176
     1
 90
        2
176
     1
 62
     7
176
     1
 90
        5
176
     1
 90
        0
176
     1
 90
        0
176
     1
290
     0
176
     1
 90
        1
176
     1
 40
0.0
176
     1
 90
        0
176
     1
290
     0
176
     1
290
     1
176
     1
290
     1
176
     1
290
     0
176
     1
290
     0
176
     1
290
     0
176
     1
290
     0
176
     1
290
     0
176
     1
290
     0
176
     1
 90
       50
176
     1
 40
0.0
176
     1
 40
1.0
176
     1
 90
        0
176
     1
 62
    18
420
        0
176
     1
 90
       50
176
     1
 90
        3
176
     1
 62
     5
420
      255
176
     1
290
     0
176
     1
 90
       50
176
     1
 90
       50
176
     1
 90
       50
176
     1
290
     0
176
     1
 90
       50
176
     1
 62
   256
176
     0
 40
1.0
176
     0
 90
        2
176
     1
  1
strokes_ogs.tif
176
     1
290
     0
176
     1
 40
1.0
176
     1
 40
1.0
176
     1
  0
VISUALSTYLE
  5
A2
102
{ACAD_REACTORS
330
99
102
}
330
99
100
AcDbVisualStyle
  2
Conceptual
 70
     9
177
     3
291
     0
 70
    58
 90
        3
176
     1
 90
        2
176
     1
 90
        1
176
     1
 90
        0
176
     1
 40
0.6
176
     1
 40
30.0
176
     1
 62
     7
420
 16777215
176
     1
 90
        2
176
     1
 90
        2
176
     1
 62
     7
176
     1
 62
   257
176
     1
 90
        1
176
     1
 90
        1
176
     1
 40
40.0
176
     1
 90
        8
176
     1
 62
     7
176
     1
 40
1.0
176
     1
 90
        1
176
     1
 90
        6
176
     1
 90
        2
176
     1
 62
     7
176
     1
 90
        3
176
     1
 90
        0
176
     1
 90
        0
176
     1
290
     0
176
     1
 90
        1
176
     1
 40
0.0
176
     1
 90
        0
176
     1
290
     0
176
     1
290
     1
176
     1
290
     1
176
     1
290
     0
176
     1
290
     0
176
     1
290
     0
176
     1
290
     0
176
     1
290
     0
176
     1
290
     0
176
     1
 90
       50
176
     1
 40
0.0
176
     1
 40
1.0
176
     1
 90
        0
176
     1
 62
    18
420
        0
176
     1
 90
       50
176
     1
 90
        3
176
     1
 62
     5
420
      255
176
     1
290
     0
176
     1
 90
       50
176
     1
 90
       50
176
     1
 90
       50
176
     1
290
     0
176
     1
 90
       50
176
     1
 62
   256
176
     0
 40
1.0
176
     0
 90
        2
176
     1
  1
strokes_ogs.tif
176
     1
290
     0
176
     1
 40
1.0
176
     1
 40
1.0
176
     1
  0
VISUALSTYLE
  5
A4
102
{ACAD_REACTORS
330
99
102
}
330
99
100
AcDbVisualStyle
  2
Dim
 70
    11
177
     3
291
     1
 70
    58
 90
        2
176
     1
 90
        2
176
     1
 90
        1
176
     1
 90
        0
176
     1
 40
0.6
176
     1
 40
30.0
176
     1
 62
     7
420
 16777215
176
     1
 90
        1
176
     1
 90
        4
176
     1
 62
     7
176
     1
 62
   257
176
     1
 90
        1
176
     1
 90
        1
176
     1
 40
1.0
176
     1
 90
        8
176
     1
 62
     7
176
     1
 40
1.0
176
     1
 90
        1
176
     1
 90
        6
176
     1
 90
        2
176
     1
 62
     7
176
     1
 90
        5
176
     1
 90
        0
176
     1
 90
        0
176
     1
290
     0
176
     1
 90
        1
176
     1
 40
-50.0
176
     1
 90
        0
176
     1
290
     0
176
     1
290
     1
176
     1
290
     1
176
     1
290
     0
176
     1
290
     0
176
     1
290
     0
176
     1
290
     0
176
     1
290
     0
176
     1
290
     0
176
     1
 90
       50
176
     1
 40
0.0
176
     1
 40
1.0
176
     1
 90
        0
176
     1
 62
    18
420
        0
176
     1
 90
       50
176
     1
 90
        3
176
     1
 62
     5
420
      255
176
     1
290
     0
176
     1
 90
       50
176
     1
 90
       50
176
     1
 90
       50
176
     1
290
     0
176
     1
 90
       50
176
     1
 62
   256
176
     0
 40
1.0
176
     0
 90
        2
176
     1
  1
strokes_ogs.tif
176
     1
290
     0
176
     1
 40
1.0
176
     1
 40
1.0
176
     1
  0
VISUALSTYLE
  5
326
102
{ACAD_REACTORS
330
99
102
}
330
99
100
AcDbVisualStyle
  2
EdgeColorOff
 70
    22
177
     3
291
     1
 70
    58
 90
        2
176
     0
 90
        2
176
     0
 90
        0
176
     0
 90
        0
176
     0
 40
0.6
176
     0
 40
30.0
176
     0
 62
     7
420
 16777215
176
     0
 90
        1
176
     0
 90
        4
176
     0
 62
     7
176
     0
 62
   257
176
     0
 90
        1
176
     0
 90
        1
176
     0
 40
1.0
176
     0
 90
        8
176
     2
 62
     7
176
     0
 40
1.0
176
     0
 90
        1
176
     0
 90
        6
176
     0
 90
        2
176
     0
 62
     7
176
     0
 90
        5
176
     0
 90
        0
176
     0
 90
        0
176
     0
290
     0
176
     0
 90
        1
176
     0
 40
0.0
176
     0
 90
        0
176
     0
290
     0
176
     0
290
     1
176
     0
290
     1
176
     0
290
     0
176
     0
290
     0
176
     0
290
     0
176
     0
290
     0
176
     0
290
     0
176
     0
290
     0
176
     0
 90
       50
176
     0
 40
0.0
176
     0
 40
1.0
176
     0
 90
        0
176
     0
 62
    18
420
        0
176
     0
 90
       50
176
     0
 90
        3
176
     0
 62
     5
420
      255
176
     0
290
     0
176
     0
 90
       50
176
     0
 90
       50
176
     0
 90
       50
176
     0
290
     0
176
     0
 90
       50
176
     0
 62
   256
176
     0
 40
1.0
176
     0
 90
        2
176
     0
  1
strokes_ogs.tif
176
     0
290
     0
176
     0
 40
1.0
176
     0
 40
1.0
176
     0
  0
VISUALSTYLE
  5
A8
102
{ACAD_REACTORS
330
99
102
}
330
99
100
AcDbVisualStyle
  2
Facepattern
 70
    15
177
     3
291
     1
 70
    58
 90
        2
176
     1
 90
        2
176
     1
 90
        1
176
     1
 90
        0
176
     1
 40
0.6
176
     1
 40
30.0
176
     1
 62
     7
420
 16777215
176
     1
 90
        1
176
     1
 90
        4
176
     1
 62
     7
176
     1
 62
   257
176
     1
 90
        1
176
     1
 90
        1
176
     1
 40
1.0
176
     1
 90
        8
176
     1
 62
     7
176
     1
 40
1.0
176
     1
 90
        1
176
     1
 90
        6
176
     1
 90
        2
176
     1
 62
     7
176
     1
 90
        5
176
     1
 90
        0
176
     1
 90
        0
176
     1
290
     0
176
     1
 90
        1
176
     1
 40
0.0
176
     1
 90
        0
176
     1
290
     0
176
     1
290
     1
176
     1
290
     1
176
     1
290
     0
176
     1
290
     0
176
     1
290
     0
176
     1
290
     0
176
     1
290
     0
176
     1
290
     0
176
     1
 90
       50
176
     1
 40
0.0
176
     1
 40
1.0
176
     1
 90
        0
176
     1
 62
    18
420
        0
176
     1
 90
       50
176
     1
 90
        3
176
     1
 62
     5
420
      255
176
     1
290
     0
176
     1
 90
       50
176
     1
 90
       50
176
     1
 90
       50
176
     1
290
     0
176
     1
 90
       50
176
     1
 62
   256
176
     0
 40
1.0
176
     0
 90
        2
176
     1
  1
strokes_ogs.tif
176
     1
290
     0
176
     1
 40
1.0
176
     1
 40
1.0
176
     1
  0
VISUALSTYLE
  5
9A
102
{ACAD_REACTORS
330
99
102
}
330
99
100
AcDbVisualStyle
  2
Flat
 70
     0
177
     3
291
     1
 70
    58
 90
        2
176
     1
 90
        1
176
     1
 90
        1
176
     1
 90
        2
176
     1
 40
0.6
176
     1
 40
30.0
176
     1
 62
     7
420
 16777215
176
     1
 90
        0
176
     1
 90
        4
176
     1
 62
     7
176
     1
 62
   257
176
     1
 90
        1
176
     1
 90
        1
176
     1
 40
1.0
176
     1
 90
        8
176
     1
 62
     7
176
     1
 40
1.0
176
     1
 90
        1
176
     1
 90
        6
176
     1
 90
        2
176
     1
 62
     7
176
     1
 90
        5
176
     1
 90
        0
176
     1
 90
        0
176
     1
290
     0
176
     1
 90
        1
176
     1
 40
0.0
176
     1
 90
        0
176
     1
290
     0
176
     1
290
     1
176
     1
290
     1
176
     1
290
     0
176
     1
290
     0
176
     1
290
     0
176
     1
290
     0
176
     1
290
     0
176
     1
290
     0
176
     1
 90
       50
176
     1
 40
0.0
176
     1
 40
1.0
176
     1
 90
        0
176
     1
 62
    18
420
        0
176
     1
 90
       50
176
     1
 90
        3
176
     1
 62
     5
420
      255
176
     1
290
     0
176
     1
 90
       50
176
     1
 90
       50
176
     1
 90
       50
176
     1
290
     0
176
     1
 90
       50
176
     1
 62
   256
176
     0
 40
1.0
176
     0
 90
        2
176
     1
  1
strokes_ogs.tif
176
     1
290
     0
176
     1
 40
1.0
176
     1
 40
1.0
176
     1
  0
VISUALSTYLE
  5
9B
102
{ACAD_REACTORS
330
99
102
}
330
99
100
AcDbVisualStyle
  2
FlatWithEdges
 70
     1
177
     3
291
     1
 70
    58
 90
        2
176
     1
 90
        1
176
     1
 90
        1
176
     1
 90
        2
176
     1
 40
0.6
176
     1
 40
30.0
176
     1
 62
     7
420
 16777215
176
     1
 90
        1
176
     1
 90
        4
176
     1
 62
     7
176
     1
 62
   257
176
     1
 90
        1
176
     1
 90
        1
176
     1
 40
1.0
176
     1
 90
        0
176
     1
 62
   257
176
     1
 40
1.0
176
     1
 90
        1
176
     1
 90
        6
176
     1
 90
        2
176
     1
 62
     7
176
     1
 90
        5
176
     1
 90
        0
176
     1
 90
        0
176
     1
290
     0
176
     1
 90
        1
176
     1
 40
0.0
176
     1
 90
        0
176
     1
290
     0
176
     1
290
     1
176
     1
290
     1
176
     1
290
     0
176
     1
290
     0
176
     1
290
     0
176
     1
290
     0
176
     1
290
     0
176
     1
290
     0
176
     1
 90
       50
176
     1
 40
0.0
176
     1
 40
1.0
176
     1
 90
        0
176
     1
 62
    18
420
        0
176
     1
 90
       50
176
     1
 90
        3
176
     1
 62
     5
420
      255
176
     1
290
     0
176
     1
 90
       50
176
     1
 90
       50
176
     1
 90
       50
176
     1
290
     0
176
     1
 90
       50
176
     1
 62
   256
176
     0
 40
1.0
176
     0
 90
        2
176
     1
  1
strokes_ogs.tif
176
     1
290
     0
176
     1
 40
1.0
176
     1
 40
1.0
176
     1
  0
VISUALSTYLE
  5
9C
102
{ACAD_REACTORS
330
99
102
}
330
99
100
AcDbVisualStyle
  2
Gouraud
 70
     2
177
     3
291
     1
 70
    58
 90
        2
176
     1
 90
        2
176
     1
 90
        1
176
     1
 90
        2
176
     1
 40
0.6
176
     1
 40
30.0
176
     1
 62
     7
420
 16777215
176
     1
 90
        0
176
     1
 90
        4
176
     1
 62
     7
176
     1
 62
   257
176
     1
 90
        1
176
     1
 90
        1
176
     1
 40
1.0
176
     1
 90
        0
176
     1
 62
     7
176
     1
 40
1.0
176
     1
 90
        1
176
     1
 90
        6
176
     1
 90
        2
176
     1
 62
     7
176
     1
 90
        5
176
     1
 90
        0
176
     1
 90
        0
176
     1
290
     0
176
     1
 90
        1
176
     1
 40
0.0
176
     1
 90
        0
176
     1
290
     0
176
     1
290
     1
176
     1
290
     1
176
     1
290
     0
176
     1
290
     0
176
     1
290
     0
176
     1
290
     0
176
     1
290
     0
176
     1
290
     0
176
     1
 90
       50
176
     1
 40
0.0
176
     1
 40
1.0
176
     1
 90
        0
176
     1
 62
    18
420
        0
176
     1
 90
       50
176
     1
 90
        3
176
     1
 62
     5
420
      255
176
     1
290
     0
176
     1
 90
       50
176
     1
 90
       50
176
     1
 90
       50
176
     1
290
     0
176
     1
 90
       50
176
     1
 62
   256
176
     0
 40
1.0
176
     0
 90
        2
176
     1
  1
strokes_ogs.tif
176
     1
290
     0
176
     1
 40
1.0
176
     1
 40
1.0
176
     1
  0
VISUALSTYLE
  5
9D
102
{ACAD_REACTORS
330
99
102
}
330
99
100
AcDbVisualStyle
  2
GouraudWithEdges
 70
     3
177
     3
291
     1
 70
    58
 90
        2
176
     1
 90
        2
176
     1
 90
        1
176
     1
 90
        2
176
     1
 40
0.6
176
     1
 40
30.0
176
     1
 62
     7
420
 16777215
176
     1
 90
        1
176
     1
 90
        4
176
     1
 62
     7
176
     1
 62
   257
176
     1
 90
        1
176
     1
 90
        1
176
     1
 40
1.0
176
     1
 90
        0
176
     1
 62
   257
176
     1
 40
1.0
176
     1
 90
        1
176
     1
 90
        6
176
     1
 90
        2
176
     1
 62
     7
176
     1
 90
        5
176
     1
 90
        0
176
     1
 90
        0
176
     1
290
     0
176
     1
 90
        1
176
     1
 40
0.0
176
     1
 90
        0
176
     1
290
     0
176
     1
290
     1
176
     1
290
     1
176
     1
290
     0
176
     1
290
     0
176
     1
290
     0
176
     1
290
     0
176
     1
290
     0
176
     1
290
     0
176
     1
 90
       50
176
     1
 40
0.0
176
     1
 40
1.0
176
     1
 90
        0
176
     1
 62
    18
420
        0
176
     1
 90
       50
176
     1
 90
        3
176
     1
 62
     5
420
      255
176
     1
290
     0
176
     1
 90
       50
176
     1
 90
       50
176
     1
 90
       50
176
     1
290
     0
176
     1
 90
       50
176
     1
 62
   256
176
     0
 40
1.0
176
     0
 90
        2
176
     1
  1
strokes_ogs.tif
176
     1
290
     0
176
     1
 40
1.0
176
     1
 40
1.0
176
     1
  0
VISUALSTYLE
  5
31E
102
{ACAD_REACTORS
330
99
102
}
330
99
100
AcDbVisualStyle
  2
Hidden
 70
     6
177
     3
291
     0
 70
    58
 90
        1
176
     1
 90
        2
176
     1
 90
        2
176
     1
 90
        0
176
     1
 40
0.6
176
     1
 40
30.0
176
     1
 62
     7
420
 16777215
176
     1
 90
        2
176
     1
 90
        2
176
     1
 62
     7
176
     1
 62
   257
176
     1
 90
        2
176
     1
 90
        1
176
     1
 40
40.0
176
     1
 90
        0
176
     1
 62
   257
176
     1
 40
1.0
176
     1
 90
        1
176
     1
 90
        6
176
     1
 90
        2
176
     1
 62
     7
176
     1
 90
        3
176
     1
 90
        0
176
     1
 90
        0
176
     1
290
     0
176
     1
 90
        1
176
     1
 40
0.0
176
     1
 90
        0
176
     1
290
     0
176
     1
290
     1
176
     1
290
     1
176
     1
290
     0
176
     1
290
     0
176
     1
290
     0
176
     1
290
     0
176
     1
290
     0
176
     1
290
     0
176
     1
 90
       50
176
     1
 40
0.0
176
     1
 40
1.0
176
     1
 90
        0
176
     1
 62
    18
420
        0
176
     1
 90
       50
176
     1
 90
        3
176
     1
 62
     5
420
      255
176
     1
290
     0
176
     1
 90
       50
176
     1
 90
       50
176
     1
 90
       50
176
     1
290
     0
176
     1
 90
       50
176
     1
 62
   256
176
     0
 40
1.0
176
     0
 90
        2
176
     1
  1
strokes_ogs.tif
176
     1
290
     0
176
     1
 40
1.0
176
     1
 40
1.0
176
     1
  0
VISUALSTYLE
  5
324
102
{ACAD_REACTORS
330
99
102
}
330
99
100
AcDbVisualStyle
  2
JitterOff
 70
    20
177
     3
291
     1
 70
    58
 90
        2
176
     0
 90
        2
176
     0
 90
        0
176
     0
 90
        0
176
     0
 40
0.6
176
     0
 40
30.0
176
     0
 62
     7
420
 16777215
176
     0
 90
        1
176
     0
 90
        4
176
     0
 62
     7
176
     0
 62
   257
176
     0
 90
        1
176
     0
 90
        1
176
     0
 40
1.0
176
     0
 90
       10
176
     2
 62
     7
176
     0
 40
1.0
176
     0
 90
        1
176
     0
 90
        6
176
     0
 90
        2
176
     0
 62
     7
176
     0
 90
        5
176
     0
 90
        0
176
     0
 90
        0
176
     0
290
     0
176
     0
 90
        1
176
     0
 40
0.0
176
     0
 90
        0
176
     0
290
     0
176
     0
290
     1
176
     0
290
     1
176
     0
290
     0
176
     0
290
     0
176
     0
290
     0
176
     0
290
     0
176
     0
290
     0
176
     0
290
     0
176
     0
 90
       50
176
     0
 40
0.0
176
     0
 40
1.0
176
     0
 90
        0
176
     0
 62
    18
420
        0
176
     0
 90
       50
176
     0
 90
        3
176
     0
 62
     5
420
      255
176
     0
290
     0
176
     0
 90
       50
176
     0
 90
       50
176
     0
 90
       50
176
     0
290
     0
176
     0
 90
       50
176
     0
 62
   256
176
     0
 40
1.0
176
     0
 90
        2
176
     0
  1
strokes_ogs.tif
176
     0
290
     0
176
     0
 40
1.0
176
     0
 40
1.0
176
     0
  0
VISUALSTYLE
  5
A7
102
{ACAD_REACTORS
330
99
102
}
330
99
100
AcDbVisualStyle
  2
Linepattern
 70
    14
177
     3
291
     1
 70
    58
 90
        2
176
     1
 90
        2
176
     1
 90
        1
176
     1
 90
        0
176
     1
 40
0.6
176
     1
 40
30.0
176
     1
 62
     7
420
 16777215
176
     1
 90
        1
176
     1
 90
        4
176
     1
 62
     7
176
     1
 62
   257
176
     1
 90
        7
176
     1
 90
        7
176
     1
 40
1.0
176
     1
 90
        8
176
     1
 62
     7
176
     1
 40
1.0
176
     1
 90
        1
176
     1
 90
        6
176
     1
 90
        2
176
     1
 62
     7
176
     1
 90
        5
176
     1
 90
        0
176
     1
 90
        0
176
     1
290
     0
176
     1
 90
        1
176
     1
 40
0.0
176
     1
 90
        0
176
     1
290
     0
176
     1
290
     1
176
     1
290
     1
176
     1
290
     0
176
     1
290
     0
176
     1
290
     0
176
     1
290
     0
176
     1
290
     0
176
     1
290
     0
176
     1
 90
       50
176
     1
 40
0.0
176
     1
 40
1.0
176
     1
 90
        0
176
     1
 62
    18
420
        0
176
     1
 90
       50
176
     1
 90
        3
176
     1
 62
     5
420
      255
176
     1
290
     0
176
     1
 90
       50
176
     1
 90
       50
176
     1
 90
       50
176
     1
290
     0
176
     1
 90
       50
176
     1
 62
   256
176
     0
 40
1.0
176
     0
 90
        2
176
     1
  1
strokes_ogs.tif
176
     1
290
     0
176
     1
 40
1.0
176
     1
 40
1.0
176
     1
  0
VISUALSTYLE
  5
325
102
{ACAD_REACTORS
330
99
102
}
330
99
100
AcDbVisualStyle
  2
OverhangOff
 70
    21
177
     3
291
     1
 70
    58
 90
        2
176
     0
 90
        2
176
     0
 90
        0
176
     0
 90
        0
176
     0
 40
0.6
176
     0
 40
30.0
176
     0
 62
     7
420
 16777215
176
     0
 90
        1
176
     0
 90
        4
176
     0
 62
     7
176
     0
 62
   257
176
     0
 90
        1
176
     0
 90
        1
176
     0
 40
1.0
176
     0
 90
        9
176
     2
 62
     7
176
     0
 40
1.0
176
     0
 90
        1
176
     0
 90
        6
176
     0
 90
        2
176
     0
 62
     7
176
     0
 90
        5
176
     0
 90
        0
176
     0
 90
        0
176
     0
290
     0
176
     0
 90
        1
176
     0
 40
0.0
176
     0
 90
        0
176
     0
290
     0
176
     0
290
     1
176
     0
290
     1
176
     0
290
     0
176
     0
290
     0
176
     0
290
     0
176
     0
290
     0
176
     0
290
     0
176
     0
290
     0
176
     0
 90
       50
176
     0
 40
0.0
176
     0
 40
1.0
176
     0
 90
        0
176
     0
 62
    18
420
        0
176
     0
 90
       50
176
     0
 90
        3
176
     0
 62
     5
420
      255
176
     0
290
     0
176
     0
 90
       50
176
     0
 90
       50
176
     0
 90
       50
176
     0
290
     0
176
     0
 90
       50
176
     0
 62
   256
176
     0
 40
1.0
176
     0
 90
        2
176
     0
  1
strokes_ogs.tif
176
     0
290
     0
176
     0
 40
1.0
176
     0
 40
1.0
176
     0
  0
VISUALSTYLE
  5
A3
102
{ACAD_REACTORS
330
99
102
}
330
99
100
AcDbVisualStyle
  2
Realistic
 70
     8
177
     3
291
     0
 70
    58
 90
        2
176
     1
 90
        2
176
     1
 90
        1
176
     1
 90
        0
176
     1
 40
0.6
176
     1
 40
30.0
176
     1
 62
     7
420
 16777215
176
     1
 90
        1
176
     1
 90
        0
176
     1
 62
     7
176
     1
 62
   257
176
     1
 90
        1
176
     1
 90
        1
176
     1
 40
1.0
176
     1
 90
        8
176
     1
 62
     8
420
  7895160
176
     1
 40
1.0
176
     1
 90
        1
176
     1
 90
        6
176
     1
 90
        2
176
     1
 62
     7
176
     1
 90
        5
176
     1
 90
        0
176
     1
 90
        0
176
     1
290
     0
176
     1
 90
       13
176
     1
 40
0.0
176
     1
 90
        0
176
     1
290
     0
176
     1
290
     1
176
     1
290
     1
176
     1
290
     0
176
     1
290
     0
176
     1
290
     0
176
     1
290
     0
176
     1
290
     0
176
     1
290
     0
176
     1
 90
       50
176
     1
 40
0.0
176
     1
 40
1.0
176
     1
 90
        0
176
     1
 62
    18
420
        0
176
     1
 90
       50
176
     1
 90
        3
176
     1
 62
     5
420
      255
176
     1
290
     0
176
     1
 90
       50
176
     1
 90
       50
176
     1
 90
       50
176
     1
290
     0
176
     1
 90
       50
176
     1
 62
   256
176
     0
 40
1.0
176
     0
 90
        2
176
     1
  1
strokes_ogs.tif
176
     1
290
     0
176
     1
 40
1.0
176
     1
 40
1.0
176
     1
  0
VISUALSTYLE
  5
323
102
{ACAD_REACTORS
330
99
102
}
330
99
100
AcDbVisualStyle
  2
Shaded
 70
    27
177
     3
291
     0
 70
    58
 90
        2
176
     1
 90
        2
176
     1
 90
        1
176
     1
 90
        2
176
     1
 40
0.6
176
     1
 40
30.0
176
     1
 62
     7
420
 16777215
176
     1
 90
        0
176
     1
 90
        4
176
     1
 62
     7
176
     1
 62
   257
176
     1
 90
        1
176
     1
 90
        1
176
     1
 40
1.0
176
     1
 90
        8
176
     1
 62
   257
176
     1
 40
1.0
176
     1
 90
        1
176
     1
 90
        6
176
     1
 90
        2
176
     1
 62
     8
420
  7895160
176
     1
 90
        3
176
     1
 90
        0
176
     1
 90
        0
176
     1
290
     0
176
     1
 90
        5
176
     1
 40
0.0
176
     1
 90
        0
176
     1
290
     0
176
     1
290
     1
176
     1
290
     1
176
     1
290
     0
176
     1
290
     0
176
     1
290
     0
176
     1
290
     0
176
     1
290
     0
176
     1
290
     0
176
     1
 90
       50
176
     1
 40
0.0
176
     1
 40
1.0
176
     1
 90
        0
176
     1
 62
    18
420
        0
176
     1
 90
       50
176
     1
 90
        3
176
     1
 62
     5
420
      255
176
     1
290
     0
176
     1
 90
       50
176
     1
 90
       50
176
     1
 90
       50
176
     1
290
     0
176
     1
 90
       50
176
     1
 62
   256
176
     0
 40
1.0
176
     0
 90
        2
176
     1
  1
strokes_ogs.tif
176
     1
290
     0
176
     1
 40
1.0
176
     1
 40
1.0
176
     1
  0
VISUALSTYLE
  5
322
102
{ACAD_REACTORS
330
99
102
}
330
99
100
AcDbVisualStyle
  2
Shaded with edges
 70
    26
177
     3
291
     0
 70
    58
 90
        2
176
     1
 90
        2
176
     1
 90
        1
176
     1
 90
        2
176
     1
 40
0.6
176
     1
 40
30.0
176
     1
 62
     7
420
 16777215
176
     1
 90
        1
176
     1
 90
       10
176
     1
 62
     7
176
     1
 62
   257
176
     1
 90
        2
176
     1
 90
        1
176
     1
 40
1.0
176
     1
 90
        8
176
     1
 62
   257
176
     1
 40
1.0
176
     1
 90
        1
176
     1
 90
        6
176
     1
 90
        2
176
     1
 62
     7
176
     1
 90
        3
176
     1
 90
        0
176
     1
 90
        0
176
     1
290
     0
176
     1
 90
        5
176
     1
 40
0.0
176
     1
 90
        0
176
     1
290
     0
176
     1
290
     1
176
     1
290
     1
176
     1
290
     0
176
     1
290
     0
176
     1
290
     0
176
     1
290
     0
176
     1
290
     0
176
     1
290
     0
176
     1
 90
       50
176
     1
 40
0.0
176
     1
 40
1.0
176
     1
 90
        0
176
     1
 62
    18
420
        0
176
     1
 90
       50
176
     1
 90
        3
176
     1
 62
     5
420
      255
176
     1
290
     0
176
     1
 90
       50
176
     1
 90
       50
176
     1
 90
       50
176
     1
290
     0
176
     1
 90
       50
176
     1
 62
   256
176
     0
 40
1.0
176
     0
 90
        2
176
     1
  1
strokes_ogs.tif
176
     1
290
     0
176
     1
 40
1.0
176
     1
 40
1.0
176
     1
  0
VISUALSTYLE
  5
31F
102
{ACAD_REACTORS
330
99
102
}
330
99
100
AcDbVisualStyle
  2
Shades of Gray
 70
    23
177
     3
291
     0
 70
    58
 90
        2
176
     1
 90
        2
176
     1
 90
        3
176
     1
 90
        0
176
     1
 40
0.6
176
     1
 40
30.0
176
     1
 62
     7
420
 16777215
176
     1
 90
        2
176
     1
 90
        2
176
     1
 62
     7
176
     1
 62
     7
176
     1
 90
        1
176
     1
 90
        1
176
     1
 40
40.0
176
     1
 90
        8
176
     1
 62
     7
176
     1
 40
1.0
176
     1
 90
        1
176
     1
 90
        6
176
     1
 90
        2
176
     1
 62
     7
176
     1
 90
        3
176
     1
 90
        0
176
     1
 90
        0
176
     1
290
     0
176
     1
 90
        1
176
     1
 40
0.0
176
     1
 90
        0
176
     1
290
     0
176
     1
290
     1
176
     1
290
     1
176
     1
290
     0
176
     1
290
     0
176
     1
290
     0
176
     1
290
     0
176
     1
290
     0
176
     1
290
     0
176
     1
 90
       50
176
     1
 40
0.0
176
     1
 40
1.0
176
     1
 90
        0
176
     1
 62
    18
420
        0
176
     1
 90
       50
176
     1
 90
        3
176
     1
 62
     5
420
      255
176
     1
290
     0
176
     1
 90
       50
176
     1
 90
       50
176
     1
 90
       50
176
     1
290
     0
176
     1
 90
       50
176
     1
 62
   256
176
     0
 40
1.0
176
     0
 90
        2
176
     1
  1
strokes_ogs.tif
176
     1
290
     0
176
     1
 40
1.0
176
     1
 40
1.0
176
     1
  0
VISUALSTYLE
  5
320
102
{ACAD_REACTORS
330
99
102
}
330
99
100
AcDbVisualStyle
  2
Sketchy
 70
    24
177
     3
291
     0
 70
    58
 90
        1
176
     1
 90
        2
176
     1
 90
        2
176
     1
 90
        0
176
     1
 40
0.6
176
     1
 40
30.0
176
     1
 62
     7
420
 16777215
176
     1
 90
        2
176
     1
 90
        2
176
     1
 62
     7
176
     1
 62
     7
176
     1
 90
        1
176
     1
 90
        1
176
     1
 40
40.0
176
     1
 90
       11
176
     1
 62
     7
176
     1
 40
1.0
176
     1
 90
        1
176
     1
 90
        6
176
     1
 90
        2
176
     1
 62
     7
176
     1
 90
        6
176
     1
 90
        0
176
     1
 90
        0
176
     1
290
     0
176
     1
 90
        1
176
     1
 40
0.0
176
     1
 90
        0
176
     1
290
     0
176
     1
290
     1
176
     1
290
     1
176
     1
290
     0
176
     1
290
     0
176
     1
290
     0
176
     1
290
     0
176
     1
290
     0
176
     1
290
     0
176
     1
 90
       50
176
     1
 40
0.0
176
     1
 40
1.0
176
     1
 90
        0
176
     1
 62
    18
420
        0
176
     1
 90
       50
176
     1
 90
        3
176
     1
 62
     5
420
      255
176
     1
290
     0
176
     1
 90
       50
176
     1
 90
       50
176
     1
 90
       50
176
     1
290
     0
176
     1
 90
       50
176
     1
 62
   256
176
     0
 40
1.0
176
     0
 90
        2
176
     1
  1
strokes_ogs.tif
176
     1
290
     0
176
     1
 40
1.0
176
     1
 40
1.0
176
     1
  0
VISUALSTYLE
  5
A6
102
{ACAD_REACTORS
330
99
102
}
330
99
100
AcDbVisualStyle
  2
Thicken
 70
    13
177
     3
291
     1
 70
    58
 90
        2
176
     1
 90
        2
176
     1
 90
        1
176
     1
 90
        0
176
     1
 40
0.6
176
     1
 40
30.0
176
     1
 62
     7
420
 16777215
176
     1
 90
        1
176
     1
 90
        4
176
     1
 62
     7
176
     1
 62
   257
176
     1
 90
        1
176
     1
 90
        1
176
     1
 40
1.0
176
     1
 90
       12
176
     1
 62
     7
176
     1
 40
1.0
176
     1
 90
        1
176
     1
 90
        6
176
     1
 90
        2
176
     1
 62
     7
176
     1
 90
        5
176
     1
 90
        0
176
     1
 90
        0
176
     1
290
     0
176
     1
 90
        1
176
     1
 40
0.0
176
     1
 90
        0
176
     1
290
     0
176
     1
290
     1
176
     1
290
     1
176
     1
290
     0
176
     1
290
     0
176
     1
290
     0
176
     1
290
     0
176
     1
290
     0
176
     1
290
     0
176
     1
 90
       50
176
     1
 40
0.0
176
     1
 40
1.0
176
     1
 90
        0
176
     1
 62
    18
420
        0
176
     1
 90
       50
176
     1
 90
        3
176
     1
 62
     5
420
      255
176
     1
290
     0
176
     1
 90
       50
176
     1
 90
       50
176
     1
 90
       50
176
     1
290
     0
176
     1
 90
       50
176
     1
 62
   256
176
     0
 40
1.0
176
     0
 90
        2
176
     1
  1
strokes_ogs.tif
176
     1
290
     0
176
     1
 40
1.0
176
     1
 40
1.0
176
     1
  0
VISUALSTYLE
  5
FF
102
{ACAD_REACTORS
330
99
102
}
330
99
100
AcDbVisualStyle
  2
Wireframe
 70
     5
177
     3
291
     0
 70
    58
 90
        0
176
     1
 90
        2
176
     1
 90
        0
176
     1
 90
        0
176
     1
 40
0.6
176
     1
 40
30.0
176
     1
 62
     7
420
 16777215
176
     1
 90
        1
176
     1
 90
        4
176
     1
 62
     7
176
     1
 62
   257
176
     1
 90
        1
176
     1
 90
        1
176
     1
 40
1.0
176
     1
 90
        0
176
     1
 62
   257
176
     1
 40
1.0
176
     1
 90
        1
176
     1
 90
        6
176
     1
 90
        2
176
     1
 62
     7
176
     1
 90
        3
176
     1
 90
        0
176
     1
 90
        0
176
     1
290
     0
176
     1
 90
        1
176
     1
 40
0.0
176
     1
 90
        0
176
     1
290
     0
176
     1
290
     1
176
     1
290
     1
176
     1
290
     0
176
     1
290
     0
176
     1
290
     0
176
     1
290
     0
176
     1
290
     0
176
     1
290
     0
176
     1
 90
       50
176
     1
 40
0.0
176
     1
 40
1.0
176
     1
 90
        0
176
     1
 62
    18
420
        0
176
     1
 90
       50
176
     1
 90
        3
176
     1
 62
     5
420
      255
176
     1
290
     0
176
     1
 90
       50
176
     1
 90
       50
176
     1
 90
       50
176
     1
290
     0
176
     1
 90
       50
176
     1
 62
   256
176
     0
 40
1.0
176
     0
 90
        2
176
     1
  1
strokes_ogs.tif
176
     1
290
     0
176
     1
 40
1.0
176
     1
 40
1.0
176
     1
  0
VISUALSTYLE
  5
321
102
{ACAD_REACTORS
330
99
102
}
330
99
100
AcDbVisualStyle
  2
X-Ray
 70
    25
177
     3
291
     0
 70
    58
 90
        2
176
     1
 90
        2
176
     1
 90
        1
176
     1
 90
        1
176
     1
 40
0.5
176
     1
 40
30.0
176
     1
 62
     7
420
 16777215
176
     1
 90
        1
176
     1
 90
        0
176
     1
 62
     7
176
     1
 62
   257
176
     1
 90
        1
176
     1
 90
        1
176
     1
 40
1.0
176
     1
 90
        8
176
     1
 62
     7
176
     1
 40
1.0
176
     1
 90
        1
176
     1
 90
        6
176
     1
 90
        2
176
     1
 62
     7
176
     1
 90
        3
176
     1
 90
        0
176
     1
 90
        0
176
     1
290
     0
176
     1
 90
       13
176
     1
 40
0.0
176
     1
 90
        0
176
     1
290
     0
176
     1
290
     1
176
     1
290
     1
176
     1
290
     0
176
     1
290
     0
176
     1
290
     0
176
     1
290
     0
176
     1
290
     0
176
     1
290
     0
176
     1
 90
       50
176
     1
 40
0.0
176
     1
 40
1.0
176
     1
 90
        0
176
     1
 62
    18
420
        0
176
     1
 90
       50
176
     1
 90
        3
176
     1
 62
     5
420
      255
176
     1
290
     0
176
     1
 90
       50
176
     1
 90
       50
176
     1
 90
       50
176
     1
290
     0
176
     1
 90
       50
176
     1
 62
   256
176
     0
 40
1.0
176
     0
 90
        2
176
     1
  1
strokes_ogs.tif
176
     1
290
     0
176
     1
 40
1.0
176
     1
 40
1.0
176
     1
  0
DICTIONARYVAR
  5
D8
102
{ACAD_REACTORS
330
66
102
}
330
66
100
DictionaryVariables
280
     0
  1
1:1
  0
DICTIONARYVAR
  5
3CC
102
{ACAD_REACTORS
330
66
102
}
330
66
100
DictionaryVariables
280
     0
  1
STANDARD
  0
DICTIONARYVAR
  5
89
102
{ACAD_REACTORS
330
66
102
}
330
66
100
DictionaryVariables
280
     0
  1
STANDARD
  0
DICTIONARYVAR
  5
3CD
102
{ACAD_REACTORS
330
66
102
}
330
66
100
DictionaryVariables
280
     0
  1
Imperial24
  0
DICTIONARYVAR
  5
3CE
102
{ACAD_REACTORS
330
66
102
}
330
66
100
DictionaryVariables
280
     0
  1
Imperial24
  0
DICTIONARYVAR
  5
67
102
{ACAD_REACTORS
330
66
102
}
330
66
100
DictionaryVariables
280
     0
  1
2
  0
DICTIONARYVAR
  5
6B
102
{ACAD_REACTORS
330
66
102
}
330
66
100
DictionaryVariables
280
     0
  1
1
  0
DICTIONARYVAR
  5
DF
102
{ACAD_REACTORS
330
66
102
}
330
66
100
DictionaryVariables
280
     0
  1
0
  0
DICTIONARYVAR
  5
E0
102
{ACAD_REACTORS
330
66
102
}
330
66
100
DictionaryVariables
280
     0
  1
0
  0
DICTIONARY
  5
2665
102
{ACAD_REACTORS
330
2664
102
}
330
2664
100
AcDbDictionary
281
     1
  0
DICTIONARY
  5
267F
102
{ACAD_REACTORS
330
267E
102
}
330
267E
100
AcDbDictionary
281
     1
  0
DICTIONARY
  5
2699
102
{ACAD_REACTORS
330
2698
102
}
330
2698
100
AcDbDictionary
281
     1
  0
DICTIONARY
  5
297C
330
22
100
AcDbDictionary
280
     1
281
     1
  0
DICTIONARY
  5
29CC
330
87
100
AcDbDictionary
280
     1
281
     1
  3
ACAD_ROUNDTRIP_2008_TABLESTYLE_CELLSTYLEMAP
360
29CD
  0
CELLSTYLEMAP
  5
29CD
102
{ACAD_REACTORS
330
29CC
102
}
330
29CC
100
AcDbCellStyleMap
 90
        3
300
CELLSTYLE
  1
TABLEFORMAT_BEGIN
 90
        5
170
     1
 91
        0
 92
    32768
 62
   257
 93
        1
300
CONTENTFORMAT
  1
CONTENTFORMAT_BEGIN
 90
        0
 91
        0
 92
      512
 93
        0
300

 40
0.0
140
1.0
 94
        5
 62
     0
340
11
144
0.25
309
CONTENTFORMAT_END
171
     0
 94
        6
 95
        1
302
GRIDFORMAT
  1
GRIDFORMAT_BEGIN
 90
        0
 91
        1
 62
     0
 92
       -2
340
0
 93
        0
 40
0.045
309
GRIDFORMAT_END
 95
        2
302
GRIDFORMAT
  1
GRIDFORMAT_BEGIN
 90
        0
 91
        1
 62
     0
 92
       -2
340
0
 93
        0
 40
0.045
309
GRIDFORMAT_END
 95
        4
302
GRIDFORMAT
  1
GRIDFORMAT_BEGIN
 90
        0
 91
        1
 62
     0
 92
       -2
340
0
 93
        0
 40
0.045
309
GRIDFORMAT_END
 95
        8
302
GRIDFORMAT
  1
GRIDFORMAT_BEGIN
 90
        0
 91
        1
 62
     0
 92
       -2
340
0
 93
        0
 40
0.045
309
GRIDFORMAT_END
 95
       16
302
GRIDFORMAT
  1
GRIDFORMAT_BEGIN
 90
        0
 91
        1
 62
     0
 92
       -2
340
0
 93
        0
 40
0.045
309
GRIDFORMAT_END
 95
       32
302
GRIDFORMAT
  1
GRIDFORMAT_BEGIN
 90
        0
 91
        1
 62
     0
 92
       -2
340
0
 93
        0
 40
0.045
309
GRIDFORMAT_END
309
TABLEFORMAT_END
  1
CELLSTYLE_BEGIN
 90
        1
 91
        1
300
_TITLE
309
CELLSTYLE_END
300
CELLSTYLE
  1
TABLEFORMAT_BEGIN
 90
        5
170
     1
 91
        0
 92
        0
 62
   257
 93
        1
300
CONTENTFORMAT
  1
CONTENTFORMAT_BEGIN
 90
        0
 91
        0
 92
      512
 93
        0
300

 40
0.0
140
1.0
 94
        5
 62
     0
340
11
144
0.18
309
CONTENTFORMAT_END
171
     0
 94
        6
 95
        1
302
GRIDFORMAT
  1
GRIDFORMAT_BEGIN
 90
        0
 91
        1
 62
     0
 92
       -2
340
0
 93
        0
 40
0.045
309
GRIDFORMAT_END
 95
        2
302
GRIDFORMAT
  1
GRIDFORMAT_BEGIN
 90
        0
 91
        1
 62
     0
 92
       -2
340
0
 93
        0
 40
0.045
309
GRIDFORMAT_END
 95
        4
302
GRIDFORMAT
  1
GRIDFORMAT_BEGIN
 90
        0
 91
        1
 62
     0
 92
       -2
340
0
 93
        0
 40
0.045
309
GRIDFORMAT_END
 95
        8
302
GRIDFORMAT
  1
GRIDFORMAT_BEGIN
 90
        0
 91
        1
 62
     0
 92
       -2
340
0
 93
        0
 40
0.045
309
GRIDFORMAT_END
 95
       16
302
GRIDFORMAT
  1
GRIDFORMAT_BEGIN
 90
        0
 91
        1
 62
     0
 92
       -2
340
0
 93
        0
 40
0.045
309
GRIDFORMAT_END
 95
       32
302
GRIDFORMAT
  1
GRIDFORMAT_BEGIN
 90
        0
 91
        1
 62
     0
 92
       -2
340
0
 93
        0
 40
0.045
309
GRIDFORMAT_END
309
TABLEFORMAT_END
  1
CELLSTYLE_BEGIN
 90
        2
 91
        1
300
_HEADER
309
CELLSTYLE_END
300
CELLSTYLE
  1
TABLEFORMAT_BEGIN
 90
        5
170
     1
 91
        0
 92
        0
 62
   257
 93
        1
300
CONTENTFORMAT
  1
CONTENTFORMAT_BEGIN
 90
        0
 91
        0
 92
      512
 93
        0
300

 40
0.0
140
1.0
 94
        2
 62
     0
340
11
144
0.18
309
CONTENTFORMAT_END
171
     0
 94
        6
 95
        1
302
GRIDFORMAT
  1
GRIDFORMAT_BEGIN
 90
        0
 91
        1
 62
     0
 92
       -2
340
0
 93
        0
 40
0.045
309
GRIDFORMAT_END
 95
        2
302
GRIDFORMAT
  1
GRIDFORMAT_BEGIN
 90
        0
 91
        1
 62
     0
 92
       -2
340
0
 93
        0
 40
0.045
309
GRIDFORMAT_END
 95
        4
302
GRIDFORMAT
  1
GRIDFORMAT_BEGIN
 90
        0
 91
        1
 62
     0
 92
       -2
340
0
 93
        0
 40
0.045
309
GRIDFORMAT_END
 95
        8
302
GRIDFORMAT
  1
GRIDFORMAT_BEGIN
 90
        0
 91
        1
 62
     0
 92
       -2
340
0
 93
        0
 40
0.045
309
GRIDFORMAT_END
 95
       16
302
GRIDFORMAT
  1
GRIDFORMAT_BEGIN
 90
        0
 91
        1
 62
     0
 92
       -2
340
0
 93
        0
 40
0.045
309
GRIDFORMAT_END
 95
       32
302
GRIDFORMAT
  1
GRIDFORMAT_BEGIN
 90
        0
 91
        1
 62
     0
 92
       -2
340
0
 93
        0
 40
0.045
309
GRIDFORMAT_END
309
TABLEFORMAT_END
  1
CELLSTYLE_BEGIN
 90
        3
 91
        2
300
_DATA
309
CELLSTYLE_END
  0
ENDSEC
  0
SECTION
  2
ACDSDATA
 70
     2
 71
     2
  0
ACDSSCHEMA
 90
        0
  1
AcDb_Thumbnail_Schema
  2
AcDbDs::ID
280
    10
 91
        8
  2
Thumbnail_Data
280
    15
 91
        0
101
ACDSRECORD
 95
        0
 90
        1
  2
AcDbDs::TreatedAsObjectData
280
     1
291
     1
101
ACDSRECORD
 95
        0
 90
        2
  2
AcDbDs::Legacy
280
     1
291
     1
101
ACDSRECORD
  1
AcDbDs::ID
 90
        3
  2
AcDs:Indexable
280
     1
291
     1
101
ACDSRECORD
  1
AcDbDs::ID
 90
        4
  2
AcDbDs::HandleAttribute
280
     7
282
     1
  0
ACDSSCHEMA
 90
        1
  1
AcDbDs::TreatedAsObjectDataSchema
  2
AcDbDs::TreatedAsObjectData
280
     1
 91
        0
  0
ACDSSCHEMA
 90
        2
  1
AcDbDs::LegacySchema
  2
AcDbDs::Legacy
280
     1
 91
        0
  0
ACDSSCHEMA
 90
        3
  1
AcDbDs::IndexedPropertySchema
  2
AcDs:Indexable
280
     1
 91
        0
  0
ACDSSCHEMA
 90
        4
  1
AcDbDs::HandleAttributeSchema
  2
AcDbDs::HandleAttribute
280
     7
 91
        1
284
     1
  0
ACDSRECORD
 90
        0
  2
AcDbDs::ID
280
    10
320
22
  2
Thumbnail_Data
280
    15
 94
     1230
310
89504E470D0A1A0A0000000D49484452000001000000007208030000008B31FF2A00000300504C5445212830000000C8C8C80000000000000000000000000000000000000000000000000000330000660000990000CC0000FF0033000033330033660033990033CC0033FF0066000066330066660066990066CC0066FF0099
310
000099330099660099990099CC0099FF00CC0000CC3300CC6600CC9900CCCC00CCFF00FF0000FF3300FF6600FF9900FFCC00FFFF3300003300333300663300993300CC3300FF3333003333333333663333993333CC3333FF3366003366333366663366993366CC3366FF3399003399333399663399993399CC3399FF33CC00
310
33CC3333CC6633CC9933CCCC33CCFF33FF0033FF3333FF6633FF9933FFCC33FFFF6600006600336600666600996600CC6600FF6633006633336633666633996633CC6633FF6666006666336666666666996666CC6666FF6699006699336699666699996699CC6699FF66CC0066CC3366CC6666CC9966CCCC66CCFF66FF0066
310
FF3366FF6666FF9966FFCC66FFFF9900009900339900669900999900CC9900FF9933009933339933669933999933CC9933FF9966009966339966669966999966CC9966FF9999009999339999669999999999CC9999FF99CC0099CC3399CC6699CC9999CCCC99CCFF99FF0099FF3399FF6699FF9999FFCC99FFFFCC0000CC00
310
33CC0066CC0099CC00CCCC00FFCC3300CC3333CC3366CC3399CC33CCCC33FFCC6600CC6633CC6666CC6699CC66CCCC66FFCC9900CC9933CC9966CC9999CC99CCCC99FFCCCC00CCCC33CCCC66CCCC99CCCCCCCCCCFFCCFF00CCFF33CCFF66CCFF99CCFFCCCCFFFFFF0000FF0033FF0066FF0099FF00CCFF00FFFF3300FF3333
310
FF3366FF3399FF33CCFF33FFFF6600FF6633FF6666FF6699FF66CCFF66FFFF9900FF9933FF9966FF9999FF99CCFF99FFFFCC00FFCC33FFCC66FFCC99FFCCCCFFCCFFFFFF00FFFF33FFFF66FFFF99FFFFCCFFFFFF0000000D0D0D1A1A1A2828283535354343435050505D5D5D6B6B6B787878868686939393A1A1A1AEAEAEBB
310
BBBBC9C9C9D6D6D6E4E4E4F1F1F1FFFFFF000000000000000000000000000000000000000000000000000000000000B21171F6000001894944415478DAED99E16EC2300C06FDFE0FE5B7F2FF2DA46D52CFEED0243439B91342820F10B93A890322FF8615FB5C042000019FF9A21A9027BF4754000210B08F009DEEAB0BD0BE
310
B6058354C922B9AD7ED505B4716830CCE33917B5873ADEA3D505B4B1D8CFABF998B4CCBE71555054803C0830899273F7375B4240BFD0964D7373C3B771E9D7A8807EA5355EEAD3A80B700B64E10A785AE8354F5C5AB60F48049C037D3BA95B01BEA3B9DA009538A21344000210808035045CDB59DCF04AB60D444D424101AD
310
AD95A3ABEF0FE6E415DC92F112B3A3279EDE555140BBBDCE016D98716253728CDA2E6EDAEA5680C515204905E87980D0EA02A2DFB6E705203B0D683F45FB85639F5D203922B00D22000108A827C026DCCBD22489105053805E1DAD17902649545880A5022C1760AB0818FF73F8518E48DE890AAF01F114B07C0AD842536077
310
013442084000021080000420000108F8E387E5BF1A6C226072B0730530054A55C0A71000000000000000000000000000000000000000000000000000000000800DF902A7A937DA3F548CD20000000049454E44AE426082
  0
ENDSEC
  0
EOF
