  0
SECTION
  2
HEADER
  9
$ACADVER
  1
AC1027
  9
$ACADMAINTVER
 70
     8
  9
$DWGCODEPAGE
  3
ANSI_1252
  9
$LASTSAVEDBY
  1
Randy
  9
$REQUIREDVERSIONS
160
                 0
  9
$INSBASE
 10
0.0
 20
0.0
 30
0.0
  9
$EXTMIN
 10
13.64455710014836
 20
12.67293942145613
 30
-0.0015258207003583
  9
$EXTMAX
 10
30.64764478696488
 20
23.68424492860532
 30
0.0000000349246037
  9
$LIMMIN
 10
0.0
 20
0.0
  9
$LIMMAX
 10
12.0
 20
9.0
  9
$ORTHOMODE
 70
     1
  9
$REGENMODE
 70
     1
  9
$FILLMODE
 70
     1
  9
$QTEXTMODE
 70
     0
  9
$MIRRTEXT
 70
     0
  9
$LTSCALE
 40
1.0
  9
$ATTMODE
 70
     1
  9
$TEXTSIZE
 40
0.125
  9
$TRACEWID
 40
0.05
  9
$TEXTSTYLE
  7
Standard
  9
$CLAYER
  8
Dimensions
  9
$CELTYPE
  6
ByLayer
  9
$CECOLOR
 62
   256
  9
$CELTSCALE
 40
1.0
  9
$DISPSILH
 70
     0
  9
$DIMSCALE
 40
1.0
  9
$DIMASZ
 40
0.125
  9
$DIMEXO
 40
0.0625
  9
$DIMDLI
 40
0.38
  9
$DIMRND
 40
0.0
  9
$DIMDLE
 40
0.0
  9
$DIMEXE
 40
0.18
  9
$DIMTP
 40
0.0
  9
$DIMTM
 40
0.0
  9
$DIMTXT
 40
0.125
  9
$DIMCEN
 40
0.09
  9
$DIMTSZ
 40
0.0
  9
$DIMTOL
 70
     0
  9
$DIMLIM
 70
     0
  9
$DIMTIH
 70
     1
  9
$DIMTOH
 70
     1
  9
$DIMSE1
 70
     0
  9
$DIMSE2
 70
     0
  9
$DIMTAD
 70
     0
  9
$DIMZIN
 70
     0
  9
$DIMBLK
  1

  9
$DIMASO
 70
     1
  9
$DIMSHO
 70
     1
  9
$DIMPOST
  1

  9
$DIMAPOST
  1

  9
$DIMALT
 70
     1
  9
$DIMALTD
 70
     2
  9
$DIMALTF
 40
25.4
  9
$DIMLFAC
 40
1.0
  9
$DIMTOFL
 70
     0
  9
$DIMTVP
 40
0.0
  9
$DIMTIX
 70
     0
  9
$DIMSOXD
 70
     0
  9
$DIMSAH
 70
     0
  9
$DIMBLK1
  1

  9
$DIMBLK2
  1

  9
$DIMSTYLE
  2
Standard
  9
$DIMCLRD
 70
     0
  9
$DIMCLRE
 70
     0
  9
$DIMCLRT
 70
     0
  9
$DIMTFAC
 40
1.0
  9
$DIMGAP
 40
0.09
  9
$DIMJUST
 70
     0
  9
$DIMSD1
 70
     0
  9
$DIMSD2
 70
     0
  9
$DIMTOLJ
 70
     1
  9
$DIMTZIN
 70
     0
  9
$DIMALTZ
 70
     0
  9
$DIMALTTZ
 70
     0
  9
$DIMUPT
 70
     1
  9
$DIMDEC
 70
     2
  9
$DIMTDEC
 70
     2
  9
$DIMALTU
 70
     2
  9
$DIMALTTD
 70
     2
  9
$DIMTXSTY
  7
Standard
  9
$DIMAUNIT
 70
     0
  9
$DIMADEC
 70
     0
  9
$DIMALTRND
 40
0.0
  9
$DIMAZIN
 70
     0
  9
$DIMDSEP
 70
    46
  9
$DIMATFIT
 70
     3
  9
$DIMFRAC
 70
     0
  9
$DIMLDRBLK
  1

  9
$DIMLUNIT
 70
     2
  9
$DIMLWD
 70
    -2
  9
$DIMLWE
 70
    -2
  9
$DIMTMOVE
 70
     0
  9
$DIMFXL
 40
1.0
  9
$DIMFXLON
 70
     0
  9
$DIMJOGANG
 40
0.7853981633974483
  9
$DIMTFILL
 70
     0
  9
$DIMTFILLCLR
 70
     0
  9
$DIMARCSYM
 70
     0
  9
$DIMLTYPE
  6

  9
$DIMLTEX1
  6

  9
$DIMLTEX2
  6

  9
$DIMTXTDIRECTION
 70
     0
  9
$LUNITS
 70
     2
  9
$LUPREC
 70
     4
  9
$SKETCHINC
 40
0.1
  9
$FILLETRAD
 40
0.1
  9
$AUNITS
 70
     0
  9
$AUPREC
 70
     0
  9
$MENU
  1
.
  9
$ELEVATION
 40
0.0
  9
$PELEVATION
 40
0.0
  9
$THICKNESS
 40
0.0
  9
$LIMCHECK
 70
     0
  9
$CHAMFERA
 40
0.0
  9
$CHAMFERB
 40
0.0
  9
$CHAMFERC
 40
0.0
  9
$CHAMFERD
 40
0.0
  9
$SKPOLY
 70
     0
  9
$TDCREATE
 40
2455580.422698079
  9
$TDUCREATE
 40
2455580.631031412
  9
$TDUPDATE
 40
2458551.595987628
  9
$TDUUPDATE
 40
2458551.804320961
  9
$TDINDWG
 40
0.2523835301
  9
$TDUSRTIMER
 40
0.2523835301
  9
$USRTIMER
 70
     1
  9
$ANGBASE
 50
0.0
  9
$ANGDIR
 70
     0
  9
$PDMODE
 70
     0
  9
$PDSIZE
 40
0.0
  9
$PLINEWID
 40
0.0
  9
$SPLFRAME
 70
     0
  9
$SPLINETYPE
 70
     6
  9
$SPLINESEGS
 70
     8
  9
$HANDSEED
  5
21AB
  9
$SURFTAB1
 70
     6
  9
$SURFTAB2
 70
     6
  9
$SURFTYPE
 70
     6
  9
$SURFU
 70
     6
  9
$SURFV
 70
     6
  9
$UCSBASE
  2

  9
$UCSNAME
  2

  9
$UCSORG
 10
0.0
 20
0.0
 30
0.0
  9
$UCSXDIR
 10
1.0
 20
0.0
 30
0.0
  9
$UCSYDIR
 10
0.0
 20
1.0
 30
0.0
  9
$UCSORTHOREF
  2

  9
$UCSORTHOVIEW
 70
     0
  9
$UCSORGTOP
 10
0.0
 20
0.0
 30
0.0
  9
$UCSORGBOTTOM
 10
0.0
 20
0.0
 30
0.0
  9
$UCSORGLEFT
 10
0.0
 20
0.0
 30
0.0
  9
$UCSORGRIGHT
 10
0.0
 20
0.0
 30
0.0
  9
$UCSORGFRONT
 10
0.0
 20
0.0
 30
0.0
  9
$UCSORGBACK
 10
0.0
 20
0.0
 30
0.0
  9
$PUCSBASE
  2

  9
$PUCSNAME
  2

  9
$PUCSORG
 10
0.0
 20
0.0
 30
0.0
  9
$PUCSXDIR
 10
1.0
 20
0.0
 30
0.0
  9
$PUCSYDIR
 10
0.0
 20
1.0
 30
0.0
  9
$PUCSORTHOREF
  2

  9
$PUCSORTHOVIEW
 70
     0
  9
$PUCSORGTOP
 10
0.0
 20
0.0
 30
0.0
  9
$PUCSORGBOTTOM
 10
0.0
 20
0.0
 30
0.0
  9
$PUCSORGLEFT
 10
0.0
 20
0.0
 30
0.0
  9
$PUCSORGRIGHT
 10
0.0
 20
0.0
 30
0.0
  9
$PUCSORGFRONT
 10
0.0
 20
0.0
 30
0.0
  9
$PUCSORGBACK
 10
0.0
 20
0.0
 30
0.0
  9
$USERI1
 70
     0
  9
$USERI2
 70
     0
  9
$USERI3
 70
     0
  9
$USERI4
 70
     0
  9
$USERI5
 70
     0
  9
$USERR1
 40
0.0
  9
$USERR2
 40
0.0
  9
$USERR3
 40
0.0
  9
$USERR4
 40
0.0
  9
$USERR5
 40
0.0
  9
$WORLDVIEW
 70
     1
  9
$SHADEDGE
 70
     3
  9
$SHADEDIF
 70
    70
  9
$TILEMODE
 70
     1
  9
$MAXACTVP
 70
    64
  9
$PINSBASE
 10
0.0
 20
0.0
 30
0.0
  9
$PLIMCHECK
 70
     0
  9
$PEXTMIN
 10
0.0
 20
0.0
 30
0.0
  9
$PEXTMAX
 10
0.0
 20
0.0
 30
0.0
  9
$PLIMMIN
 10
0.0
 20
0.0
  9
$PLIMMAX
 10
12.0
 20
9.0
  9
$UNITMODE
 70
     0
  9
$VISRETAIN
 70
     1
  9
$PLINEGEN
 70
     0
  9
$PSLTSCALE
 70
     1
  9
$TREEDEPTH
 70
  3020
  9
$CMLSTYLE
  2
Standard
  9
$CMLJUST
 70
     0
  9
$CMLSCALE
 40
1.0
  9
$PROXYGRAPHICS
 70
     1
  9
$MEASUREMENT
 70
     0
  9
$CELWEIGHT
370
    -1
  9
$ENDCAPS
280
     0
  9
$JOINSTYLE
280
     0
  9
$LWDISPLAY
290
     0
  9
$INSUNITS
 70
     1
  9
$HYPERLINKBASE
  1

  9
$STYLESHEET
  1

  9
$XEDIT
290
     1
  9
$CEPSNTYPE
380
     0
  9
$PSTYLEMODE
290
     1
  9
$FINGERPRINTGUID
  2
{FDEAD576-A652-11D2-9A35-0060089B3A3F}
  9
$VERSIONGUID
  2
{01436034-C61B-49B4-8EC7-A9A1F94B1E54}
  9
$EXTNAMES
290
     1
  9
$PSVPSCALE
 40
0.0
  9
$OLESTARTUP
290
     0
  9
$SORTENTS
280
   127
  9
$INDEXCTL
280
     0
  9
$HIDETEXT
280
     1
  9
$XCLIPFRAME
280
     0
  9
$HALOGAP
280
     0
  9
$OBSCOLOR
 70
   257
  9
$OBSLTYPE
280
     0
  9
$INTERSECTIONDISPLAY
280
     0
  9
$INTERSECTIONCOLOR
 70
   257
  9
$DIMASSOC
280
     2
  9
$PROJECTNAME
  1

  9
$CAMERADISPLAY
290
     0
  9
$LENSLENGTH
 40
50.0
  9
$CAMERAHEIGHT
 40
0.0
  9
$STEPSPERSEC
 40
2.0
  9
$STEPSIZE
 40
6.0
  9
$3DDWFPREC
 40
2.0
  9
$PSOLWIDTH
 40
0.25
  9
$PSOLHEIGHT
 40
4.0
  9
$LOFTANG1
 40
1.570796326794896
  9
$LOFTANG2
 40
1.570796326794896
  9
$LOFTMAG1
 40
0.0
  9
$LOFTMAG2
 40
0.0
  9
$LOFTPARAM
 70
     7
  9
$LOFTNORMALS
280
     1
  9
$LATITUDE
 40
37.795
  9
$LONGITUDE
 40
-122.394
  9
$NORTHDIRECTION
 40
0.0
  9
$TIMEZONE
 70
 -8000
  9
$LIGHTGLYPHDISPLAY
280
     1
  9
$TILEMODELIGHTSYNCH
280
     1
  9
$CMATERIAL
347
B99
  9
$SOLIDHIST
280
     0
  9
$SHOWHIST
280
     1
  9
$DWFFRAME
280
     2
  9
$DGNFRAME
280
     0
  9
$REALWORLDSCALE
290
     1
  9
$INTERFERECOLOR
 62
     1
  9
$INTERFEREOBJVS
345
BBB
  9
$INTERFEREVPVS
346
BB8
  9
$CSHADOW
280
     0
  9
$SHADOWPLANELOCATION
 40
0.0
  0
ENDSEC
  0
SECTION
  2
CLASSES
  0
CLASS
  1
ACDBDICTIONARYWDFLT
  2
AcDbDictionaryWithDefault
  3
ObjectDBX Classes
 90
        0
 91
        1
280
     0
281
     0
  0
CLASS
  1
DICTIONARYVAR
  2
AcDbDictionaryVar
  3
ObjectDBX Classes
 90
        0
 91
       11
280
     0
281
     0
  0
CLASS
  1
DIMASSOC
  2
AcDbDimAssoc
  3
"AcDbDimAssoc|Product Desc:     AcDim ARX App For Dimension|Company:          Autodesk, Inc.|WEB Address:      www.autodesk.com"
 90
        0
 91
       11
280
     0
281
     0
  0
CLASS
  1
MATERIAL
  2
AcDbMaterial
  3
ObjectDBX Classes
 90
     1153
 91
        3
280
     0
281
     0
  0
CLASS
  1
VISUALSTYLE
  2
AcDbVisualStyle
  3
ObjectDBX Classes
 90
     4095
 91
       24
280
     0
281
     0
  0
CLASS
  1
TABLESTYLE
  2
AcDbTableStyle
  3
ObjectDBX Classes
 90
     4095
 91
        1
280
     0
281
     0
  0
CLASS
  1
SCALE
  2
AcDbScale
  3
ObjectDBX Classes
 90
     1153
 91
       17
280
     0
281
     0
  0
CLASS
  1
MLEADERSTYLE
  2
AcDbMLeaderStyle
  3
ACDB_MLEADERSTYLE_CLASS
 90
     4095
 91
        1
280
     0
281
     0
  0
CLASS
  1
ACDBSECTIONVIEWSTYLE
  2
AcDbSectionViewStyle
  3
ObjectDBX Classes
 90
     1025
 91
        1
280
     0
281
     0
  0
CLASS
  1
ACDBDETAILVIEWSTYLE
  2
AcDbDetailViewStyle
  3
ObjectDBX Classes
 90
     1025
 91
        1
280
     0
281
     0
  0
CLASS
  1
SORTENTSTABLE
  2
AcDbSortentsTable
  3
ObjectDBX Classes
 90
        0
 91
        0
280
     0
281
     0
  0
CLASS
  1
ACAD_TABLE
  2
AcDbTable
  3
ObjectDBX Classes
 90
     1025
 91
        1
280
     0
281
     1
  0
CLASS
  1
CELLSTYLEMAP
  2
AcDbCellStyleMap
  3
ObjectDBX Classes
 90
     1152
 91
        1
280
     0
281
     0
  0
ENDSEC
  0
SECTION
  2
TABLES
  0
TABLE
  2
VPORT
  5
8
330
0
100
AcDbSymbolTable
 70
     1
  0
VPORT
  5
B97
330
8
100
AcDbSymbolTableRecord
100
AcDbViewportTableRecord
  2
*Active
 70
     0
 10
0.0
 20
0.0
 11
1.0
 21
1.0
 12
22.98584758870047
 22
18.16485125085815
 13
0.0
 23
0.0
 14
0.5
 24
0.5
 15
0.5
 25
0.5
 16
0.0
 26
0.0
 36
1.0
 17
0.0
 27
0.0
 37
0.0
 40
12.56000674901178
 41
1.829940119760478
 42
50.0
 43
0.0
 44
0.0
 50
0.0
 51
0.0
 71
     0
 72
  1000
 73
     1
 74
     2
 75
     0
 76
     0
 77
     0
 78
     0
281
     0
 65
     1
110
0.0
120
0.0
130
0.0
111
1.0
121
0.0
131
0.0
112
0.0
122
1.0
132
0.0
 79
     0
146
0.0
348
BB7
 60
     3
 61
     5
292
     1
282
     1
141
0.0
142
0.0
 63
   250
421
  3355443
1001
ACAD_NAV_VCDISPLAY
1070
     3
  0
ENDTAB
  0
TABLE
  2
LTYPE
  5
5
330
0
100
AcDbSymbolTable
 70
     3
  0
LTYPE
  5
14
330
5
100
AcDbSymbolTableRecord
100
AcDbLinetypeTableRecord
  2
ByBlock
 70
     0
  3

 72
    65
 73
     0
 40
0.0
  0
LTYPE
  5
15
330
5
100
AcDbSymbolTableRecord
100
AcDbLinetypeTableRecord
  2
ByLayer
 70
     0
  3

 72
    65
 73
     0
 40
0.0
  0
LTYPE
  5
16
330
5
100
AcDbSymbolTableRecord
100
AcDbLinetypeTableRecord
  2
Continuous
 70
     0
  3
Solid line
 72
    65
 73
     0
 40
0.0
  0
LTYPE
  5
BE1
330
5
100
AcDbSymbolTableRecord
100
AcDbLinetypeTableRecord
  2
PHANTOM2
 70
     0
  3
___ _ _ ___ _ _ ___ _ _ ___ _ _
 72
    65
 73
     6
 40
1.25
 49
0.625
 74
     0
 49
-0.125
 74
     0
 49
0.125
 74
     0
 49
-0.125
 74
     0
 49
0.125
 74
     0
 49
-0.125
 74
     0
  0
LTYPE
  5
18FD
330
5
100
AcDbSymbolTableRecord
100
AcDbLinetypeTableRecord
  2
ACAD_ISO07W100
 70
     0
  3
ISO dot . . . . . . . . . . . . . . . . . . . .
 72
    65
 73
     2
 40
3.0
 49
0.0
 74
     0
 49
-3.0
 74
     0
  0
ENDTAB
  0
TABLE
  2
LAYER
  5
2
102
{ACAD_XDICTIONARY
360
BEB
102
}
330
0
100
AcDbSymbolTable
 70
    11
  0
LAYER
  5
10
102
{ACAD_XDICTIONARY
360
DBC
102
}
330
2
100
AcDbSymbolTableRecord
100
AcDbLayerTableRecord
  2
0
 70
     0
 62
     7
  6
Continuous
370
    -3
390
F
347
BA9
348
0
  0
LAYER
  5
89
102
{ACAD_XDICTIONARY
360
DBE
102
}
330
2
100
AcDbSymbolTableRecord
100
AcDbLayerTableRecord
  2
Frame
 70
     0
 62
     7
  6
Continuous
370
    -3
390
F
347
BA9
348
0
  0
LAYER
  5
FB
102
{ACAD_XDICTIONARY
360
DC0
102
}
330
2
100
AcDbSymbolTableRecord
100
AcDbLayerTableRecord
  2
Frame Text
 70
     0
 62
     1
  6
Continuous
370
    -3
390
F
347
BA9
348
0
  0
LAYER
  5
1B4
330
2
100
AcDbSymbolTableRecord
100
AcDbLayerTableRecord
  2
Defpoints
 70
     0
 62
     7
  6
Continuous
290
     0
370
    -3
390
F
347
BA9
348
0
  0
LAYER
  5
2EF
102
{ACAD_XDICTIONARY
360
DC2
102
}
330
2
100
AcDbSymbolTableRecord
100
AcDbLayerTableRecord
  2
Dimensions
 70
     0
 62
     1
  6
Continuous
370
    -3
390
F
347
BA9
348
0
  0
LAYER
  5
3BC
102
{ACAD_XDICTIONARY
360
DC4
102
}
330
2
100
AcDbSymbolTableRecord
100
AcDbLayerTableRecord
  2
Converter
 70
     0
 62
     7
  6
Continuous
370
    -3
390
F
347
BA9
348
0
  0
LAYER
  5
608
102
{ACAD_XDICTIONARY
360
DC6
102
}
330
2
100
AcDbSymbolTableRecord
100
AcDbLayerTableRecord
  2
Grid
 70
     0
 62
     7
  6
Continuous
370
    -3
390
F
347
BA9
348
0
  0
LAYER
  5
609
102
{ACAD_XDICTIONARY
360
DC8
102
}
330
2
100
AcDbSymbolTableRecord
100
AcDbLayerTableRecord
  2
PinOut
 70
     0
 62
     1
  6
Continuous
370
    -3
390
F
347
BA9
348
0
  0
LAYER
  5
C03
102
{ACAD_XDICTIONARY
360
DCA
102
}
330
2
100
AcDbSymbolTableRecord
100
AcDbLayerTableRecord
  2
Construction
 70
     0
 62
   141
  6
Continuous
370
    -3
390
F
347
BA9
348
0
1001
AcAecLayerStandard
1000

1000

1001
AcCmTransparency
1071
        0
  0
LAYER
  5
12F1
102
{ACAD_XDICTIONARY
360
12F2
102
}
330
2
100
AcDbSymbolTableRecord
100
AcDbLayerTableRecord
  2
TopSilk
 70
     0
 62
     7
  6
Continuous
370
    -3
390
F
347
BA9
348
0
  0
LAYER
  5
1950
102
{ACAD_XDICTIONARY
360
1951
102
}
330
2
100
AcDbSymbolTableRecord
100
AcDbLayerTableRecord
  2
Label
 70
     0
 62
     7
  6
Continuous
370
    -3
390
F
347
BA9
348
0
  0
ENDTAB
  0
TABLE
  2
STYLE
  5
3
330
0
100
AcDbSymbolTable
 70
     4
  0
STYLE
  5
11
330
3
100
AcDbSymbolTableRecord
100
AcDbTextStyleTableRecord
  2
Standard
 70
     0
 40
0.0
 41
1.0
 50
0.0
 71
     0
 42
0.125
  3
arial.ttf
  4

1001
ACAD
1000
Arial
1071
       34
  0
STYLE
  5
18FC
330
3
100
AcDbSymbolTableRecord
100
AcDbTextStyleTableRecord
  2

 70
     1
 40
0.0
 41
1.0
 50
0.0
 71
     0
 42
0.125
  3
ltypeshp.shx
  4

  0
STYLE
  5
1952
330
3
100
AcDbSymbolTableRecord
100
AcDbTextStyleTableRecord
  2
header
 70
     0
 40
0.0
 41
1.0
 50
0.0
 71
     0
 42
1.0
  3
arialbd.ttf
  4

1001
ACAD
1000
Arial
1071
 33554466
  0
ENDTAB
  0
TABLE
  2
VIEW
  5
6
330
0
100
AcDbSymbolTable
 70
     0
  0
ENDTAB
  0
TABLE
  2
UCS
  5
7
330
0
100
AcDbSymbolTable
 70
     0
  0
ENDTAB
  0
TABLE
  2
APPID
  5
9
330
0
100
AcDbSymbolTable
 70
    12
  0
APPID
  5
12
330
9
100
AcDbSymbolTableRecord
100
AcDbRegAppTableRecord
  2
ACAD
 70
     0
  0
APPID
  5
3B9
330
9
100
AcDbSymbolTableRecord
100
AcDbRegAppTableRecord
  2
DCO15
 70
     0
  0
APPID
  5
BEA
330
9
100
AcDbSymbolTableRecord
100
AcDbRegAppTableRecord
  2
ACAD_NAV_VCDISPLAY
 70
     0
  0
APPID
  5
C04
330
9
100
AcDbSymbolTableRecord
100
AcDbRegAppTableRecord
  2
AcAecLayerStandard
 70
     0
  0
APPID
  5
C05
330
9
100
AcDbSymbolTableRecord
100
AcDbRegAppTableRecord
  2
AcCmTransparency
 70
     0
  0
APPID
  5
E1E
330
9
100
AcDbSymbolTableRecord
100
AcDbRegAppTableRecord
  2
ACAD_EXEMPT_FROM_CAD_STANDARDS
 70
     0
  0
APPID
  5
128B
330
9
100
AcDbSymbolTableRecord
100
AcDbRegAppTableRecord
  2
AcadAnnoPO
 70
     0
  0
APPID
  5
12F4
330
9
100
AcDbSymbolTableRecord
100
AcDbRegAppTableRecord
  2
ACAD_DSTYLE_DIMJAG
 70
     0
  0
APPID
  5
12F5
330
9
100
AcDbSymbolTableRecord
100
AcDbRegAppTableRecord
  2
ACAD_DSTYLE_DIMBREAK
 70
     0
  0
APPID
  5
12F6
330
9
100
AcDbSymbolTableRecord
100
AcDbRegAppTableRecord
  2
ACAD_DSTYLE_DIMTALN
 70
     0
  0
APPID
  5
143B
330
9
100
AcDbSymbolTableRecord
100
AcDbRegAppTableRecord
  2
AcadAnnotative
 70
     0
  0
APPID
  5
21A5
330
9
100
AcDbSymbolTableRecord
100
AcDbRegAppTableRecord
  2
ACAD_PSEXT
 70
     0
  0
ENDTAB
  0
TABLE
  2
DIMSTYLE
  5
A
330
0
100
AcDbSymbolTable
 70
     3
100
AcDbDimStyleTable
 71
     1
340
27
  0
DIMSTYLE
105
27
102
{ACAD_REACTORS
330
151C
330
151D
330
1520
330
1523
330
174B
330
1779
330
17A9
330
17C6
330
17E0
330
17FC
330
1823
330
183D
330
1857
330
1885
102
}
330
A
100
AcDbSymbolTableRecord
100
AcDbDimStyleTableRecord
  2
Standard
 70
     0
 41
0.125
140
0.125
170
     1
271
     2
272
     2
288
     1
340
11
  0
DIMSTYLE
105
12F3
330
A
100
AcDbSymbolTableRecord
100
AcDbDimStyleTableRecord
  2
TOL +10-0
 70
     0
  3
\X
 41
0.075
 43
0.01
 44
0.05
 47
0.01
 71
     1
140
0.075
147
0.02
170
     1
271
     3
272
     3
340
11
1001
ACAD_DSTYLE_DIMBREAK
1070
   391
1040
0.125
1001
ACAD_DSTYLE_DIMJAG
1070
   388
1040
1.5
1001
ACAD_DSTYLE_DIMTALN
1070
   392
1070
     0
  0
ENDTAB
  0
TABLE
  2
BLOCK_RECORD
  5
1
330
0
100
AcDbSymbolTable
 70
    20
  0
BLOCK_RECORD
  5
1F
330
1
100
AcDbSymbolTableRecord
100
AcDbBlockTableRecord
  2
*Model_Space
340
22
 70
     0
280
     1
281
     0
  0
BLOCK_RECORD
  5
58
330
1
100
AcDbSymbolTableRecord
100
AcDbBlockTableRecord
  2
*Paper_Space
340
59
 70
     0
280
     1
281
     0
  0
BLOCK_RECORD
  5
5D
330
1
100
AcDbSymbolTableRecord
100
AcDbBlockTableRecord
  2
*Paper_Space0
340
5E
 70
     0
280
     1
281
     0
  0
BLOCK_RECORD
  5
116
330
1
100
AcDbSymbolTableRecord
100
AcDbBlockTableRecord
  2
A$C22C92D23
340
0
 70
     0
280
     1
281
     0
  0
BLOCK_RECORD
  5
5E8
330
1
100
AcDbSymbolTableRecord
100
AcDbBlockTableRecord
  2
A$C5BC8728C
340
0
 70
     0
280
     1
281
     0
  0
BLOCK_RECORD
  5
60D
330
1
100
AcDbSymbolTableRecord
100
AcDbBlockTableRecord
  2
A$C62316909
340
0
 70
     0
280
     1
281
     0
  0
BLOCK_RECORD
  5
1572
330
1
100
AcDbSymbolTableRecord
100
AcDbBlockTableRecord
  2
*D4
340
0
 70
     0
280
     1
281
     0
  0
BLOCK_RECORD
  5
1610
330
1
100
AcDbSymbolTableRecord
100
AcDbBlockTableRecord
  2
*D5
340
0
 70
     0
280
     1
281
     0
  0
BLOCK_RECORD
  5
161D
330
1
100
AcDbSymbolTableRecord
100
AcDbBlockTableRecord
  2
*D6
340
0
 70
     0
280
     1
281
     0
  0
BLOCK_RECORD
  5
162B
330
1
100
AcDbSymbolTableRecord
100
AcDbBlockTableRecord
  2
*D7
340
0
 70
     0
280
     1
281
     0
  0
BLOCK_RECORD
  5
174C
330
1
100
AcDbSymbolTableRecord
100
AcDbBlockTableRecord
  2
*D8
340
0
 70
     0
280
     1
281
     0
  0
BLOCK_RECORD
  5
177A
330
1
100
AcDbSymbolTableRecord
100
AcDbBlockTableRecord
  2
*D9
340
0
 70
     0
280
     1
281
     0
  0
BLOCK_RECORD
  5
17AA
330
1
100
AcDbSymbolTableRecord
100
AcDbBlockTableRecord
  2
*D10
340
0
 70
     0
280
     1
281
     0
  0
BLOCK_RECORD
  5
17C7
330
1
100
AcDbSymbolTableRecord
100
AcDbBlockTableRecord
  2
*D11
340
0
 70
     0
280
     1
281
     0
  0
BLOCK_RECORD
  5
17E1
330
1
100
AcDbSymbolTableRecord
100
AcDbBlockTableRecord
  2
*D12
340
0
 70
     0
280
     1
281
     0
  0
BLOCK_RECORD
  5
17FD
330
1
100
AcDbSymbolTableRecord
100
AcDbBlockTableRecord
  2
*D13
340
0
 70
     0
280
     1
281
     0
  0
BLOCK_RECORD
  5
1824
330
1
100
AcDbSymbolTableRecord
100
AcDbBlockTableRecord
  2
*D14
340
0
 70
     0
280
     1
281
     0
  0
BLOCK_RECORD
  5
183E
330
1
100
AcDbSymbolTableRecord
100
AcDbBlockTableRecord
  2
*D15
340
0
 70
     0
280
     1
281
     0
  0
BLOCK_RECORD
  5
1858
330
1
100
AcDbSymbolTableRecord
100
AcDbBlockTableRecord
  2
*D16
340
0
 70
     0
280
     1
281
     0
  0
BLOCK_RECORD
  5
1886
330
1
100
AcDbSymbolTableRecord
100
AcDbBlockTableRecord
  2
*D17
340
0
 70
     0
280
     1
281
     0
  0
BLOCK_RECORD
  5
197F
330
1
100
AcDbSymbolTableRecord
100
AcDbBlockTableRecord
  2
*T18
340
0
102
{BLKREFS
331
197E
102
}
 70
     0
280
     1
281
     0
  0
ENDTAB
  0
ENDSEC
  0
SECTION
  2
BLOCKS
  0
BLOCK
  5
20
330
1F
100
AcDbEntity
  8
0
100
AcDbBlockBegin
  2
*Model_Space
 70
     0
 10
0.0
 20
0.0
 30
0.0
  3
*Model_Space
  1

  0
ENDBLK
  5
21
330
1F
100
AcDbEntity
  8
0
100
AcDbBlockEnd
  0
BLOCK
  5
5A
330
58
100
AcDbEntity
 67
     1
  8
0
100
AcDbBlockBegin
  2
*Paper_Space
 70
     0
 10
0.0
 20
0.0
 30
0.0
  3
*Paper_Space
  1

  0
ENDBLK
  5
5B
330
58
100
AcDbEntity
 67
     1
  8
0
100
AcDbBlockEnd
  0
BLOCK
  5
5F
330
5D
100
AcDbEntity
 67
     1
  8
0
100
AcDbBlockBegin
  2
*Paper_Space0
 70
     0
 10
0.0
 20
0.0
 30
0.0
  3
*Paper_Space0
  1

  0
ENDBLK
  5
60
330
5D
100
AcDbEntity
 67
     1
  8
0
100
AcDbBlockEnd
  0
BLOCK
  5
118
330
116
100
AcDbEntity
  8
0
100
AcDbBlockBegin
  2
A$C22C92D23
 70
     0
 10
0.0
 20
0.0
 30
0.0
  3
A$C22C92D23
  1

  0
TEXT
  5
117
330
116
100
AcDbEntity
  8
Frame Text
100
AcDbText
 10
-0.0000000000000284
 20
0.0416666867809426
 30
0.0
 40
0.125
  1
Dimensional Drawing
100
AcDbText
  0
ENDBLK
  5
119
330
116
100
AcDbEntity
  8
0
100
AcDbBlockEnd
  0
BLOCK
  5
5EA
330
5E8
100
AcDbEntity
  8
0
100
AcDbBlockBegin
  2
A$C5BC8728C
 70
     0
 10
0.0
 20
0.0
 30
0.0
  3
A$C5BC8728C
  1

  0
TEXT
  5
5E9
330
5E8
100
AcDbEntity
  8
Frame Text
100
AcDbText
 10
-0.0000000086647987
 20
-0.0000000014337491
 30
0.0
 40
0.05
  1
CDL    03/05
100
AcDbText
  0
ENDBLK
  5
5EB
330
5E8
100
AcDbEntity
  8
0
100
AcDbBlockEnd
  0
BLOCK
  5
60F
330
60D
100
AcDbEntity
  8
0
100
AcDbBlockBegin
  2
A$C62316909
 70
     0
 10
0.0
 20
0.0
 30
0.0
  3
A$C62316909
  1

  0
MTEXT
  5
60E
330
60D
100
AcDbEntity
  8
PinOut
100
AcDbMText
 10
0.0000000234943833
 20
0.1249999961378876
 30
0.0
 40
0.125
 41
0.0
 46
0.0
 71
     1
 72
     1
  1
PIN #
 73
     1
 44
1.0
  0
ENDBLK
  5
610
330
60D
100
AcDbEntity
  8
0
100
AcDbBlockEnd
  0
BLOCK
  5
1573
330
1572
100
AcDbEntity
  8
0
100
AcDbBlockBegin
  2
*D4
 70
     1
 10
0.0
 20
0.0
 30
0.0
  3
*D4
  1

  0
LINE
  5
2122
330
1572
100
AcDbEntity
  8
Dimensions
 62
     0
440
 16777216
370
    -2
100
AcDbLine
 10
21.25836676386601
 20
20.78540063817965
 30
0.0
 11
19.57671819791064
 21
20.78540063817965
 31
0.0
  0
LINE
  5
2123
330
1572
100
AcDbEntity
  8
Dimensions
 62
     0
440
 16777216
370
    -2
100
AcDbLine
 10
21.25836676386601
 20
21.88540063817965
 30
0.0
 11
19.57671819791064
 21
21.88540063817965
 31
0.0
  0
LINE
  5
2124
330
1572
100
AcDbEntity
  8
Dimensions
 62
     0
440
 16777216
370
    -2
100
AcDbLine
 10
19.75671819791065
 20
20.91040063817965
 30
0.0
 11
19.75671819791065
 21
20.9858736319187
 31
0.0
  0
LINE
  5
2125
330
1572
100
AcDbEntity
  8
Dimensions
 62
     0
440
 16777216
370
    -2
100
AcDbLine
 10
19.75671819791065
 20
21.76040063817965
 30
0.0
 11
19.75671819791065
 21
21.32608850231433
 31
0.0
  0
SOLID
  5
2126
330
1572
100
AcDbEntity
  8
Dimensions
 62
     0
440
 16777216
100
AcDbTrace
 10
19.73588486457731
 20
20.91040063817965
 30
0.0
 11
19.77755153124398
 21
20.91040063817965
 31
0.0
 12
19.75671819791065
 22
20.78540063817965
 32
0.0
 13
19.75671819791065
 23
20.78540063817965
 33
0.0
  0
SOLID
  5
2127
330
1572
100
AcDbEntity
  8
Dimensions
 62
     0
440
 16777216
100
AcDbTrace
 10
19.73588486457731
 20
21.76040063817965
 30
0.0
 11
19.77755153124398
 21
21.76040063817965
 31
0.0
 12
19.75671819791065
 22
21.88540063817965
 32
0.0
 13
19.75671819791065
 23
21.88540063817965
 33
0.0
  0
MTEXT
  5
2128
330
1572
100
AcDbEntity
  8
Dimensions
 62
     0
440
 16777216
100
AcDbMText
 10
19.75671819791064
 20
21.15598106711652
 30
0.0
 40
0.125
 41
0.0
 46
0.0
 71
     5
 72
     1
  1
\A1;1.100 [27.94]
 73
     1
 44
1.0
  0
POINT
  5
2129
330
1572
100
AcDbEntity
  8
Defpoints
 62
     0
440
 16777216
100
AcDbPoint
 10
21.32086676386601
 20
20.78540063817965
 30
0.0
  0
POINT
  5
212A
330
1572
100
AcDbEntity
  8
Defpoints
 62
     0
440
 16777216
100
AcDbPoint
 10
21.32086676386601
 20
21.88540063817965
 30
0.0
  0
POINT
  5
212B
330
1572
100
AcDbEntity
  8
Defpoints
 62
     0
440
 16777216
100
AcDbPoint
 10
19.75671819791065
 20
21.88540063817965
 30
0.0
  0
ENDBLK
  5
1574
330
1572
100
AcDbEntity
  8
0
100
AcDbBlockEnd
  0
BLOCK
  5
1611
330
1610
100
AcDbEntity
  8
0
100
AcDbBlockBegin
  2
*D5
 70
     1
 10
0.0
 20
0.0
 30
0.0
  3
*D5
  1

  0
LINE
  5
2143
330
1610
100
AcDbEntity
  8
Dimensions
 62
     0
440
 16777216
370
    -2
100
AcDbLine
 10
21.32086676386601
 20
17.18574854558507
 30
0.0
 11
21.32086676386601
 21
16.61318234300866
 31
0.0
  0
LINE
  5
2144
330
1610
100
AcDbEntity
  8
Dimensions
 62
     0
440
 16777216
370
    -2
100
AcDbLine
 10
23.07086676386602
 20
17.18574854558507
 30
0.0
 11
23.07086676386602
 21
16.61318234300866
 31
0.0
  0
LINE
  5
2145
330
1610
100
AcDbEntity
  8
Dimensions
 62
     0
440
 16777216
370
    -2
100
AcDbLine
 10
21.44586676386602
 20
16.79318234300866
 30
0.0
 11
21.61128115677188
 21
16.79318234300866
 31
0.0
  0
LINE
  5
2146
330
1610
100
AcDbEntity
  8
Dimensions
 62
     0
440
 16777216
370
    -2
100
AcDbLine
 10
22.94586676386602
 20
16.79318234300866
 30
0.0
 11
22.78045237096015
 21
16.79318234300866
 31
0.0
  0
SOLID
  5
2147
330
1610
100
AcDbEntity
  8
Dimensions
 62
     0
440
 16777216
100
AcDbTrace
 10
21.44586676386602
 20
16.81401567634199
 30
0.0
 11
21.44586676386602
 21
16.77234900967533
 31
0.0
 12
21.32086676386601
 22
16.79318234300866
 32
0.0
 13
21.32086676386601
 23
16.79318234300866
 33
0.0
  0
SOLID
  5
2148
330
1610
100
AcDbEntity
  8
Dimensions
 62
     0
440
 16777216
100
AcDbTrace
 10
22.94586676386602
 20
16.81401567634199
 30
0.0
 11
22.94586676386602
 21
16.77234900967533
 31
0.0
 12
23.07086676386602
 22
16.79318234300866
 32
0.0
 13
23.07086676386602
 23
16.79318234300866
 33
0.0
  0
MTEXT
  5
2149
330
1610
100
AcDbEntity
  8
Dimensions
 62
     0
440
 16777216
100
AcDbMText
 10
22.19586676386601
 20
16.79318234300866
 30
0.0
 40
0.125
 41
0.0
 46
0.0
 71
     5
 72
     1
  1
\A1;1.750 [44.45]
 73
     1
 44
1.0
  0
POINT
  5
214A
330
1610
100
AcDbEntity
  8
Defpoints
 62
     0
440
 16777216
100
AcDbPoint
 10
21.32086676386601
 20
17.24824854558507
 30
0.0
  0
POINT
  5
214B
330
1610
100
AcDbEntity
  8
Defpoints
 62
     0
440
 16777216
100
AcDbPoint
 10
23.07086676386602
 20
17.24824854558507
 30
0.0
  0
POINT
  5
214C
330
1610
100
AcDbEntity
  8
Defpoints
 62
     0
440
 16777216
100
AcDbPoint
 10
23.07086676386602
 20
16.79318234300866
 30
0.0
  0
ENDBLK
  5
1612
330
1610
100
AcDbEntity
  8
0
100
AcDbBlockEnd
  0
BLOCK
  5
161E
330
161D
100
AcDbEntity
  8
0
100
AcDbBlockBegin
  2
*D6
 70
     1
 10
0.0
 20
0.0
 30
0.0
  3
*D6
  1

  0
LINE
  5
214D
330
161D
100
AcDbEntity
  8
Dimensions
 62
     0
440
 16777216
370
    -2
100
AcDbLine
 10
23.06265608574736
 20
17.17753786746641
 30
0.0
 11
23.42254936906356
 21
17.17753786746641
 31
0.0
  0
LINE
  5
214E
330
161D
100
AcDbEntity
  8
Dimensions
 62
     0
440
 16777216
370
    -2
100
AcDbLine
 10
23.13336676386602
 20
17.67753786746641
 30
0.0
 11
23.42254936906356
 21
17.67753786746641
 31
0.0
  0
LINE
  5
214F
330
161D
100
AcDbEntity
  8
Dimensions
 62
     0
440
 16777216
370
    -2
100
AcDbLine
 10
23.24254936906356
 20
17.30253786746641
 30
0.0
 11
23.24254936906356
 21
17.55253786746641
 31
0.0
  0
LINE
  5
2150
330
161D
100
AcDbEntity
  8
Dimensions
 62
     0
440
 16777216
370
    -2
100
AcDbLine
 10
23.24254936906356
 20
17.67753786746641
 30
0.0
 11
23.24254936906356
 21
18.3198633347195
 31
0.0
  0
LINE
  5
2151
330
161D
100
AcDbEntity
  8
Dimensions
 62
     0
440
 16777216
370
    -2
100
AcDbLine
 10
23.24254936906356
 20
18.3198633347195
 30
0.0
 11
23.36754936906356
 21
18.3198633347195
 31
0.0
  0
SOLID
  5
2152
330
161D
100
AcDbEntity
  8
Dimensions
 62
     0
440
 16777216
100
AcDbTrace
 10
23.22171603573023
 20
17.30253786746641
 30
0.0
 11
23.26338270239689
 21
17.30253786746641
 31
0.0
 12
23.24254936906356
 22
17.17753786746641
 32
0.0
 13
23.24254936906356
 23
17.17753786746641
 33
0.0
  0
SOLID
  5
2153
330
161D
100
AcDbEntity
  8
Dimensions
 62
     0
440
 16777216
100
AcDbTrace
 10
23.22171603573023
 20
17.55253786746641
 30
0.0
 11
23.26338270239689
 21
17.55253786746641
 31
0.0
 12
23.24254936906356
 22
17.67753786746641
 32
0.0
 13
23.24254936906356
 23
17.67753786746641
 33
0.0
  0
MTEXT
  5
2154
330
161D
100
AcDbEntity
  8
Dimensions
 62
     0
440
 16777216
100
AcDbMText
 10
23.95801833222864
 20
18.31986333471951
 30
0.0
 40
0.125
 41
0.0
 46
0.0
 71
     5
 72
     1
  1
\A1;0.500 [12.70]
 73
     1
 44
1.0
  0
POINT
  5
2155
330
161D
100
AcDbEntity
  8
Defpoints
 62
     0
440
 16777216
100
AcDbPoint
 10
23.00015608574736
 20
17.17753786746641
 30
0.0
  0
POINT
  5
2156
330
161D
100
AcDbEntity
  8
Defpoints
 62
     0
440
 16777216
100
AcDbPoint
 10
23.07086676386602
 20
17.67753786746641
 30
0.0
  0
POINT
  5
2157
330
161D
100
AcDbEntity
  8
Defpoints
 62
     0
440
 16777216
100
AcDbPoint
 10
23.24254936906356
 20
17.67753786746641
 30
0.0
  0
ENDBLK
  5
161F
330
161D
100
AcDbEntity
  8
0
100
AcDbBlockEnd
  0
BLOCK
  5
162C
330
162B
100
AcDbEntity
  8
0
100
AcDbBlockBegin
  2
*D7
 70
     1
 10
0.0
 20
0.0
 30
0.0
  3
*D7
  1

  0
LINE
  5
190A
330
162B
100
AcDbEntity
  8
Dimensions
 62
     0
440
 16777216
370
    -2
100
AcDbLine
 10
21.59836676386602
 20
17.87753786746642
 30
0.0
 11
20.87335217909752
 21
17.87753786746642
 31
0.0
  0
LINE
  5
190B
330
162B
100
AcDbEntity
  8
Dimensions
 62
     0
440
 16777216
370
    -2
100
AcDbLine
 10
21.25836676386601
 20
17.67753786746641
 30
0.0
 11
20.87335217909752
 21
17.67753786746641
 31
0.0
  0
LINE
  5
190C
330
162B
100
AcDbEntity
  8
Dimensions
 62
     0
440
 16777216
370
    -2
100
AcDbLine
 10
21.05335217909752
 20
18.00253786746642
 30
0.0
 11
21.05335217909752
 21
18.12753786746642
 31
0.0
  0
LINE
  5
190D
330
162B
100
AcDbEntity
  8
Dimensions
 62
     0
440
 16777216
370
    -2
100
AcDbLine
 10
21.05335217909752
 20
17.55253786746641
 30
0.0
 11
21.05335217909752
 21
16.84137388222206
 31
0.0
  0
LINE
  5
190E
330
162B
100
AcDbEntity
  8
Dimensions
 62
     0
440
 16777216
370
    -2
100
AcDbLine
 10
21.05335217909752
 20
16.84137388222206
 30
0.0
 11
20.92835217909752
 21
16.84137388222206
 31
0.0
  0
SOLID
  5
190F
330
162B
100
AcDbEntity
  8
Dimensions
 62
     0
440
 16777216
100
AcDbTrace
 10
21.03251884576419
 20
18.00253786746642
 30
0.0
 11
21.07418551243085
 21
18.00253786746642
 31
0.0
 12
21.05335217909752
 22
17.87753786746642
 32
0.0
 13
21.05335217909752
 23
17.87753786746642
 33
0.0
  0
SOLID
  5
1910
330
162B
100
AcDbEntity
  8
Dimensions
 62
     0
440
 16777216
100
AcDbTrace
 10
21.03251884576419
 20
17.55253786746641
 30
0.0
 11
21.07418551243085
 21
17.55253786746641
 31
0.0
 12
21.05335217909752
 22
17.67753786746641
 32
0.0
 13
21.05335217909752
 23
17.67753786746641
 33
0.0
  0
MTEXT
  5
1911
330
162B
100
AcDbEntity
  8
Dimensions
 62
     0
440
 16777216
100
AcDbMText
 10
19.78003021456819
 20
16.84137388222207
 30
0.0
 40
0.125
 41
0.0
 46
0.0
 71
     5
 72
     1
  1
\A1;0.20 [5.08]  Min. Pin Length
 73
     1
 44
1.0
  0
POINT
  5
1912
330
162B
100
AcDbEntity
  8
Defpoints
 62
     0
440
 16777216
100
AcDbPoint
 10
21.66086676386601
 20
17.87753786746642
 30
0.0
  0
POINT
  5
1913
330
162B
100
AcDbEntity
  8
Defpoints
 62
     0
440
 16777216
100
AcDbPoint
 10
21.32086676386601
 20
17.67753786746641
 30
0.0
  0
POINT
  5
1914
330
162B
100
AcDbEntity
  8
Defpoints
 62
     0
440
 16777216
100
AcDbPoint
 10
21.05335217909752
 20
17.67753786746641
 30
0.0
  0
ENDBLK
  5
162D
330
162B
100
AcDbEntity
  8
0
100
AcDbBlockEnd
  0
BLOCK
  5
174D
330
174C
100
AcDbEntity
  8
0
100
AcDbBlockBegin
  2
*D8
 70
     1
 10
0.0
 20
0.0
 30
0.0
  3
*D8
  1

  0
LINE
  5
2118
330
174C
100
AcDbEntity
  8
Dimensions
 62
     0
440
 16777216
370
    -2
100
AcDbLine
 10
21.57836676386601
 20
20.98540063817965
 30
0.0
 11
20.27726597983839
 21
20.98540063817965
 31
0.0
  0
LINE
  5
2119
330
174C
100
AcDbEntity
  8
Dimensions
 62
     0
440
 16777216
370
    -2
100
AcDbLine
 10
21.57836676386601
 20
21.73540063817965
 30
0.0
 11
20.27726597983839
 21
21.73540063817965
 31
0.0
  0
LINE
  5
211A
330
174C
100
AcDbEntity
  8
Dimensions
 62
     0
440
 16777216
370
    -2
100
AcDbLine
 10
20.45726597983839
 20
21.11040063817965
 30
0.0
 11
20.45726597983839
 21
21.23548690708411
 31
0.0
  0
LINE
  5
211B
330
174C
100
AcDbEntity
  8
Dimensions
 62
     0
440
 16777216
370
    -2
100
AcDbLine
 10
20.45726597983839
 20
21.61040063817965
 30
0.0
 11
20.45726597983839
 21
21.57570177747974
 31
0.0
  0
SOLID
  5
211C
330
174C
100
AcDbEntity
  8
Dimensions
 62
     0
440
 16777216
100
AcDbTrace
 10
20.43643264650506
 20
21.11040063817965
 30
0.0
 11
20.47809931317172
 21
21.11040063817965
 31
0.0
 12
20.45726597983839
 22
20.98540063817965
 32
0.0
 13
20.45726597983839
 23
20.98540063817965
 33
0.0
  0
SOLID
  5
211D
330
174C
100
AcDbEntity
  8
Dimensions
 62
     0
440
 16777216
100
AcDbTrace
 10
20.43643264650506
 20
21.61040063817965
 30
0.0
 11
20.47809931317172
 21
21.61040063817965
 31
0.0
 12
20.45726597983839
 22
21.73540063817965
 32
0.0
 13
20.45726597983839
 23
21.73540063817965
 33
0.0
  0
MTEXT
  5
211E
330
174C
100
AcDbEntity
  8
Dimensions
 62
     0
440
 16777216
100
AcDbMText
 10
20.45726597983839
 20
21.40559434228193
 30
0.0
 40
0.125
 41
0.0
 46
0.0
 71
     5
 72
     1
  1
\A1;0.750 [19.05]
 73
     1
 44
1.0
  0
POINT
  5
211F
330
174C
100
AcDbEntity
  8
Defpoints
 62
     0
440
 16777216
100
AcDbPoint
 10
21.64086676386602
 20
20.98540063817965
 30
0.0
  0
POINT
  5
2120
330
174C
100
AcDbEntity
  8
Defpoints
 62
     0
440
 16777216
100
AcDbPoint
 10
21.64086676386602
 20
21.73540063817965
 30
0.0
  0
POINT
  5
2121
330
174C
100
AcDbEntity
  8
Defpoints
 62
     0
440
 16777216
100
AcDbPoint
 10
20.45726597983839
 20
21.73540063817965
 30
0.0
  0
ENDBLK
  5
174E
330
174C
100
AcDbEntity
  8
0
100
AcDbBlockEnd
  0
BLOCK
  5
177B
330
177A
100
AcDbEntity
  8
0
100
AcDbBlockBegin
  2
*D9
 70
     1
 10
0.0
 20
0.0
 30
0.0
  3
*D9
  1

  0
LINE
  5
2162
330
177A
100
AcDbEntity
  8
Dimensions
 62
     0
440
 16777216
370
    -2
100
AcDbLine
 10
21.57836676386601
 20
20.98540063817965
 30
0.0
 11
21.02832476959288
 21
20.98540063817965
 31
0.0
  0
LINE
  5
2163
330
177A
100
AcDbEntity
  8
Dimensions
 62
     0
440
 16777216
370
    -2
100
AcDbLine
 10
22.15336676386602
 20
21.20540063817965
 30
0.0
 11
21.02832476959288
 21
21.20540063817965
 31
0.0
  0
LINE
  5
2164
330
177A
100
AcDbEntity
  8
Dimensions
 62
     0
440
 16777216
370
    -2
100
AcDbLine
 10
21.20832476959288
 20
21.33040063817965
 30
0.0
 11
21.20832476959288
 21
21.45540063817965
 31
0.0
  0
LINE
  5
2165
330
177A
100
AcDbEntity
  8
Dimensions
 62
     0
440
 16777216
370
    -2
100
AcDbLine
 10
21.20832476959288
 20
20.86040063817965
 30
0.0
 11
21.20832476959288
 21
20.3962445312058
 31
0.0
  0
LINE
  5
2166
330
177A
100
AcDbEntity
  8
Dimensions
 62
     0
440
 16777216
370
    -2
100
AcDbLine
 10
21.20832476959288
 20
20.3962445312058
 30
0.0
 11
21.08332476959288
 21
20.3962445312058
 31
0.0
  0
SOLID
  5
2167
330
177A
100
AcDbEntity
  8
Dimensions
 62
     0
440
 16777216
100
AcDbTrace
 10
21.18749143625954
 20
21.33040063817965
 30
0.0
 11
21.22915810292621
 21
21.33040063817965
 31
0.0
 12
21.20832476959288
 22
21.20540063817965
 32
0.0
 13
21.20832476959288
 23
21.20540063817965
 33
0.0
  0
SOLID
  5
2168
330
177A
100
AcDbEntity
  8
Dimensions
 62
     0
440
 16777216
100
AcDbTrace
 10
21.18749143625954
 20
20.86040063817965
 30
0.0
 11
21.22915810292621
 21
20.86040063817965
 31
0.0
 12
21.20832476959288
 22
20.98540063817965
 32
0.0
 13
21.20832476959288
 23
20.98540063817965
 33
0.0
  0
MTEXT
  5
2169
330
177A
100
AcDbEntity
  8
Dimensions
 62
     0
440
 16777216
100
AcDbMText
 10
20.54141481052057
 20
20.3962445312058
 30
0.0
 40
0.125
 41
0.0
 46
0.0
 71
     5
 72
     1
  1
\A1;0.220 [5.59]
 73
     1
 44
1.0
  0
POINT
  5
216A
330
177A
100
AcDbEntity
  8
Defpoints
 62
     0
440
 16777216
100
AcDbPoint
 10
21.64086676386602
 20
20.98540063817965
 30
0.0
  0
POINT
  5
216B
330
177A
100
AcDbEntity
  8
Defpoints
 62
     0
440
 16777216
100
AcDbPoint
 10
22.21586676386602
 20
21.20540063817965
 30
0.0
  0
POINT
  5
216C
330
177A
100
AcDbEntity
  8
Defpoints
 62
     0
440
 16777216
100
AcDbPoint
 10
21.20832476959288
 20
21.20540063817965
 30
0.0
  0
ENDBLK
  5
177C
330
177A
100
AcDbEntity
  8
0
100
AcDbBlockEnd
  0
BLOCK
  5
17AB
330
17AA
100
AcDbEntity
  8
0
100
AcDbBlockBegin
  2
*D10
 70
     1
 10
0.0
 20
0.0
 30
0.0
  3
*D10
  1

  0
LINE
  5
2103
330
17AA
100
AcDbEntity
  8
Dimensions
 62
     0
440
 16777216
370
    -2
100
AcDbLine
 10
21.64086676386602
 20
21.80790063817965
 30
0.0
 11
21.64086676386602
 21
22.67613089075716
 31
0.0
  0
LINE
  5
2104
330
17AA
100
AcDbEntity
  8
Dimensions
 62
     0
440
 16777216
370
    -2
100
AcDbLine
 10
22.54086676386601
 20
21.79790063817965
 30
0.0
 11
22.54086676386601
 21
22.67613089075716
 31
0.0
  0
LINE
  5
2105
330
17AA
100
AcDbEntity
  8
Dimensions
 62
     0
440
 16777216
370
    -2
100
AcDbLine
 10
22.41586676386601
 20
22.49613089075716
 30
0.0
 11
21.76586676386602
 21
22.49613089075716
 31
0.0
  0
LINE
  5
2106
330
17AA
100
AcDbEntity
  8
Dimensions
 62
     0
440
 16777216
370
    -2
100
AcDbLine
 10
21.64086676386602
 20
22.49613089075716
 30
0.0
 11
21.47575445518177
 21
22.49613089075716
 31
0.0
  0
SOLID
  5
2107
330
17AA
100
AcDbEntity
  8
Dimensions
 62
     0
440
 16777216
100
AcDbTrace
 10
22.41586676386601
 20
22.51696422409049
 30
0.0
 11
22.41586676386601
 21
22.47529755742383
 31
0.0
 12
22.54086676386601
 22
22.49613089075716
 32
0.0
 13
22.54086676386601
 23
22.49613089075716
 33
0.0
  0
SOLID
  5
2108
330
17AA
100
AcDbEntity
  8
Dimensions
 62
     0
440
 16777216
100
AcDbTrace
 10
21.76586676386602
 20
22.51696422409049
 30
0.0
 11
21.76586676386602
 21
22.47529755742383
 31
0.0
 12
21.64086676386602
 22
22.49613089075716
 32
0.0
 13
21.64086676386602
 23
22.49613089075716
 33
0.0
  0
MTEXT
  5
2109
330
17AA
100
AcDbEntity
  8
Dimensions
 62
     0
440
 16777216
100
AcDbMText
 10
20.8852854920167
 20
22.49613089075716
 30
0.0
 40
0.125
 41
0.0
 46
0.0
 71
     5
 72
     1
  1
\A1;0.900 [22.86]
 73
     1
 44
1.0
  0
POINT
  5
210A
330
17AA
100
AcDbEntity
  8
Defpoints
 62
     0
440
 16777216
100
AcDbPoint
 10
21.64086676386602
 20
21.74540063817965
 30
0.0
  0
POINT
  5
210B
330
17AA
100
AcDbEntity
  8
Defpoints
 62
     0
440
 16777216
100
AcDbPoint
 10
22.54086676386601
 20
21.73540063817965
 30
0.0
  0
POINT
  5
210C
330
17AA
100
AcDbEntity
  8
Defpoints
 62
     0
440
 16777216
100
AcDbPoint
 10
22.54086676386601
 20
22.49613089075716
 30
0.0
  0
ENDBLK
  5
17AC
330
17AA
100
AcDbEntity
  8
0
100
AcDbBlockEnd
  0
BLOCK
  5
17C8
330
17C7
100
AcDbEntity
  8
0
100
AcDbBlockBegin
  2
*D11
 70
     1
 10
0.0
 20
0.0
 30
0.0
  3
*D11
  1

  0
LINE
  5
20F9
330
17C7
100
AcDbEntity
  8
Dimensions
 62
     0
440
 16777216
370
    -2
100
AcDbLine
 10
21.64086676386602
 20
21.80790063817965
 30
0.0
 11
21.64086676386602
 21
22.99477100160374
 31
0.0
  0
LINE
  5
20FA
330
17C7
100
AcDbEntity
  8
Dimensions
 62
     0
440
 16777216
370
    -2
100
AcDbLine
 10
22.94086676386601
 20
21.79790063817965
 30
0.0
 11
22.94086676386601
 21
22.99477100160374
 31
0.0
  0
LINE
  5
20FB
330
17C7
100
AcDbEntity
  8
Dimensions
 62
     0
440
 16777216
370
    -2
100
AcDbLine
 10
22.81586676386602
 20
22.81477100160374
 30
0.0
 11
21.76586676386602
 21
22.81477100160374
 31
0.0
  0
LINE
  5
20FC
330
17C7
100
AcDbEntity
  8
Dimensions
 62
     0
440
 16777216
370
    -2
100
AcDbLine
 10
21.64086676386602
 20
22.81477100160374
 30
0.0
 11
21.51586676386601
 21
22.81477100160374
 31
0.0
  0
SOLID
  5
20FD
330
17C7
100
AcDbEntity
  8
Dimensions
 62
     0
440
 16777216
100
AcDbTrace
 10
22.81586676386602
 20
22.83560433493707
 30
0.0
 11
22.81586676386602
 21
22.79393766827041
 31
0.0
 12
22.94086676386601
 22
22.81477100160374
 32
0.0
 13
22.94086676386601
 23
22.81477100160374
 33
0.0
  0
SOLID
  5
20FE
330
17C7
100
AcDbEntity
  8
Dimensions
 62
     0
440
 16777216
100
AcDbTrace
 10
21.76586676386602
 20
22.83560433493707
 30
0.0
 11
21.76586676386602
 21
22.79393766827041
 31
0.0
 12
21.64086676386602
 22
22.81477100160374
 32
0.0
 13
21.64086676386602
 23
22.81477100160374
 33
0.0
  0
MTEXT
  5
20FF
330
17C7
100
AcDbEntity
  8
Dimensions
 62
     0
440
 16777216
100
AcDbMText
 10
20.93128115677188
 20
22.81477100160374
 30
0.0
 40
0.125
 41
0.0
 46
0.0
 71
     5
 72
     1
  1
\A1;1.300 [33.02]
 73
     1
 44
1.0
  0
POINT
  5
2100
330
17C7
100
AcDbEntity
  8
Defpoints
 62
     0
440
 16777216
100
AcDbPoint
 10
21.64086676386602
 20
21.74540063817965
 30
0.0
  0
POINT
  5
2101
330
17C7
100
AcDbEntity
  8
Defpoints
 62
     0
440
 16777216
100
AcDbPoint
 10
22.94086676386601
 20
21.73540063817965
 30
0.0
  0
POINT
  5
2102
330
17C7
100
AcDbEntity
  8
Defpoints
 62
     0
440
 16777216
100
AcDbPoint
 10
22.94086676386601
 20
22.81477100160374
 30
0.0
  0
ENDBLK
  5
17C9
330
17C7
100
AcDbEntity
  8
0
100
AcDbBlockEnd
  0
BLOCK
  5
17E2
330
17E1
100
AcDbEntity
  8
0
100
AcDbBlockBegin
  2
*D12
 70
     1
 10
0.0
 20
0.0
 30
0.0
  3
*D12
  1

  0
LINE
  5
2138
330
17E1
100
AcDbEntity
  8
Dimensions
 62
     0
440
 16777216
370
    -2
100
AcDbLine
 10
23.00336676386601
 20
21.23540063817965
 30
0.0
 11
23.81991770513382
 21
21.23540063817965
 31
0.0
  0
LINE
  5
2139
330
17E1
100
AcDbEntity
  8
Dimensions
 62
     0
440
 16777216
370
    -2
100
AcDbLine
 10
23.13336676386602
 20
20.78540063817965
 30
0.0
 11
23.81991770513382
 21
20.78540063817965
 31
0.0
  0
LINE
  5
213A
330
17E1
100
AcDbEntity
  8
Dimensions
 62
     0
440
 16777216
370
    -2
100
AcDbLine
 10
23.63991770513382
 20
20.91040063817965
 30
0.0
 11
23.63991770513382
 21
21.11040063817965
 31
0.0
  0
LINE
  5
213B
330
17E1
100
AcDbEntity
  8
Dimensions
 62
     0
440
 16777216
370
    -2
100
AcDbLine
 10
23.63991770513382
 20
21.23540063817965
 30
0.0
 11
23.63991770513382
 21
21.58117162336901
 31
0.0
  0
LINE
  5
213C
330
17E1
100
AcDbEntity
  8
Dimensions
 62
     0
440
 16777216
370
    -2
100
AcDbLine
 10
23.63991770513382
 20
21.58117162336901
 30
0.0
 11
23.76491770513382
 21
21.58117162336901
 31
0.0
  0
SOLID
  5
213D
330
17E1
100
AcDbEntity
  8
Dimensions
 62
     0
440
 16777216
100
AcDbTrace
 10
23.61908437180049
 20
20.91040063817965
 30
0.0
 11
23.66075103846716
 21
20.91040063817965
 31
0.0
 12
23.63991770513382
 22
20.78540063817965
 32
0.0
 13
23.63991770513382
 23
20.78540063817965
 33
0.0
  0
SOLID
  5
213E
330
17E1
100
AcDbEntity
  8
Dimensions
 62
     0
440
 16777216
100
AcDbTrace
 10
23.61908437180049
 20
21.11040063817965
 30
0.0
 11
23.66075103846716
 21
21.11040063817965
 31
0.0
 12
23.63991770513382
 22
21.23540063817965
 32
0.0
 13
23.63991770513382
 23
21.23540063817965
 33
0.0
  0
MTEXT
  5
213F
330
17E1
100
AcDbEntity
  8
Dimensions
 62
     0
440
 16777216
100
AcDbMText
 10
24.3553866682989
 20
21.58117162336902
 30
0.0
 40
0.125
 41
0.0
 46
0.0
 71
     5
 72
     1
  1
\A1;0.450 [11.43]
 73
     1
 44
1.0
  0
POINT
  5
2140
330
17E1
100
AcDbEntity
  8
Defpoints
 62
     0
440
 16777216
100
AcDbPoint
 10
22.94086676386601
 20
21.23540063817965
 30
0.0
  0
POINT
  5
2141
330
17E1
100
AcDbEntity
  8
Defpoints
 62
     0
440
 16777216
100
AcDbPoint
 10
23.07086676386602
 20
20.78540063817965
 30
0.0
  0
POINT
  5
2142
330
17E1
100
AcDbEntity
  8
Defpoints
 62
     0
440
 16777216
100
AcDbPoint
 10
23.63991770513382
 20
20.78540063817965
 30
0.0
  0
ENDBLK
  5
17E3
330
17E1
100
AcDbEntity
  8
0
100
AcDbBlockEnd
  0
BLOCK
  5
17FE
330
17FD
100
AcDbEntity
  8
0
100
AcDbBlockBegin
  2
*D13
 70
     1
 10
0.0
 20
0.0
 30
0.0
  3
*D13
  1

  0
LINE
  5
212C
330
17FD
100
AcDbEntity
  8
Dimensions
 62
     0
440
 16777216
370
    -2
100
AcDbLine
 10
23.13336676386602
 20
20.78540063817965
 30
0.0
 11
23.59092173654631
 21
20.78540063817965
 31
0.0
  0
LINE
  5
212D
330
17FD
100
AcDbEntity
  8
Dimensions
 62
     0
440
 16777216
370
    -2
100
AcDbLine
 10
23.00336676386601
 20
20.98540063817965
 30
0.0
 11
23.59092173654631
 21
20.98540063817965
 31
0.0
  0
LINE
  5
212E
330
17FD
100
AcDbEntity
  8
Dimensions
 62
     0
440
 16777216
370
    -2
100
AcDbLine
 10
23.41092173654631
 20
20.66040063817965
 30
0.0
 11
23.41092173654631
 21
20.53540063817965
 31
0.0
  0
LINE
  5
212F
330
17FD
100
AcDbEntity
  8
Dimensions
 62
     0
440
 16777216
370
    -2
100
AcDbLine
 10
23.41092173654631
 20
21.11040063817965
 30
0.0
 11
23.41092173654631
 21
21.23540063817965
 31
0.0
  0
LINE
  5
2130
330
17FD
100
AcDbEntity
  8
Dimensions
 62
     0
440
 16777216
370
    -2
100
AcDbLine
 10
23.53592173654631
 20
20.44374312926022
 30
0.0
 11
23.41092173654631
 21
20.44374312926022
 31
0.0
  0
LINE
  5
2131
330
17FD
100
AcDbEntity
  8
Dimensions
 62
     0
440
 16777216
370
    -2
100
AcDbLine
 10
23.41092173654631
 20
20.44374312926022
 30
0.0
 11
23.41092173654631
 21
20.53540063817965
 31
0.0
  0
MTEXT
  5
2132
330
17FD
100
AcDbEntity
  8
Dimensions
 62
     0
440
 16777216
100
AcDbMText
 10
24.07783169561861
 20
20.44374312926023
 30
0.0
 40
0.125
 41
0.0
 46
0.0
 71
     5
 72
     1
  1
\A1;0.200 [5.08]
 73
     1
 44
1.0
  0
SOLID
  5
2133
330
17FD
100
AcDbEntity
  8
Dimensions
 62
     0
440
 16777216
100
AcDbTrace
 10
23.39008840321298
 20
20.66040063817965
 30
0.0
 11
23.43175506987964
 21
20.66040063817965
 31
0.0
 12
23.41092173654631
 22
20.78540063817965
 32
0.0
 13
23.41092173654631
 23
20.78540063817965
 33
0.0
  0
SOLID
  5
2134
330
17FD
100
AcDbEntity
  8
Dimensions
 62
     0
440
 16777216
100
AcDbTrace
 10
23.39008840321298
 20
21.11040063817965
 30
0.0
 11
23.43175506987964
 21
21.11040063817965
 31
0.0
 12
23.41092173654631
 22
20.98540063817965
 32
0.0
 13
23.41092173654631
 23
20.98540063817965
 33
0.0
  0
POINT
  5
2135
330
17FD
100
AcDbEntity
  8
Defpoints
 62
     0
440
 16777216
100
AcDbPoint
 10
23.07086676386602
 20
20.78540063817965
 30
0.0
  0
POINT
  5
2136
330
17FD
100
AcDbEntity
  8
Defpoints
 62
     0
440
 16777216
100
AcDbPoint
 10
22.94086676386601
 20
20.98540063817965
 30
0.0
  0
POINT
  5
2137
330
17FD
100
AcDbEntity
  8
Defpoints
 62
     0
440
 16777216
100
AcDbPoint
 10
23.41092173654631
 20
20.98540063817965
 30
0.0
  0
ENDBLK
  5
17FF
330
17FD
100
AcDbEntity
  8
0
100
AcDbBlockEnd
  0
BLOCK
  5
1825
330
1824
100
AcDbEntity
  8
0
100
AcDbBlockBegin
  2
*D14
 70
     1
 10
0.0
 20
0.0
 30
0.0
  3
*D14
  1

  0
LINE
  5
2158
330
1824
100
AcDbEntity
  8
Dimensions
 62
     0
440
 16777216
370
    -2
100
AcDbLine
 10
21.64086676386602
 20
20.93290063817965
 30
0.0
 11
21.64086676386602
 21
19.99357271574203
 31
0.0
  0
LINE
  5
2159
330
1824
100
AcDbEntity
  8
Dimensions
 62
     0
440
 16777216
370
    -2
100
AcDbLine
 10
22.21586676386602
 20
21.14290063817965
 30
0.0
 11
22.21586676386602
 21
19.99357271574203
 31
0.0
  0
LINE
  5
215A
330
1824
100
AcDbEntity
  8
Dimensions
 62
     0
440
 16777216
370
    -2
100
AcDbLine
 10
22.09086676386602
 20
20.17357271574203
 30
0.0
 11
21.76586676386602
 21
20.17357271574203
 31
0.0
  0
LINE
  5
215B
330
1824
100
AcDbEntity
  8
Dimensions
 62
     0
440
 16777216
370
    -2
100
AcDbLine
 10
21.64086676386602
 20
20.17357271574203
 30
0.0
 11
21.51586676386601
 21
20.17357271574203
 31
0.0
  0
SOLID
  5
215C
330
1824
100
AcDbEntity
  8
Dimensions
 62
     0
440
 16777216
100
AcDbTrace
 10
22.09086676386602
 20
20.19440604907536
 30
0.0
 11
22.09086676386602
 21
20.1527393824087
 31
0.0
 12
22.21586676386602
 22
20.17357271574203
 32
0.0
 13
22.21586676386602
 23
20.17357271574203
 33
0.0
  0
SOLID
  5
215D
330
1824
100
AcDbEntity
  8
Dimensions
 62
     0
440
 16777216
100
AcDbTrace
 10
21.76586676386602
 20
20.19440604907536
 30
0.0
 11
21.76586676386602
 21
20.1527393824087
 31
0.0
 12
21.64086676386602
 22
20.17357271574203
 32
0.0
 13
21.64086676386602
 23
20.17357271574203
 33
0.0
  0
MTEXT
  5
215E
330
1824
100
AcDbEntity
  8
Dimensions
 62
     0
440
 16777216
100
AcDbMText
 10
20.92539780070094
 20
20.17357271574203
 30
0.0
 40
0.125
 41
0.0
 46
0.0
 71
     5
 72
     1
  1
\A1;0.575 [14.61]
 73
     1
 44
1.0
  0
POINT
  5
215F
330
1824
100
AcDbEntity
  8
Defpoints
 62
     0
440
 16777216
100
AcDbPoint
 10
21.64086676386602
 20
20.99540063817965
 30
0.0
  0
POINT
  5
2160
330
1824
100
AcDbEntity
  8
Defpoints
 62
     0
440
 16777216
100
AcDbPoint
 10
22.21586676386602
 20
21.20540063817965
 30
0.0
  0
POINT
  5
2161
330
1824
100
AcDbEntity
  8
Defpoints
 62
     0
440
 16777216
100
AcDbPoint
 10
22.21586676386602
 20
20.17357271574203
 30
0.0
  0
ENDBLK
  5
1826
330
1824
100
AcDbEntity
  8
0
100
AcDbBlockEnd
  0
BLOCK
  5
183F
330
183E
100
AcDbEntity
  8
0
100
AcDbBlockBegin
  2
*D15
 70
     1
 10
0.0
 20
0.0
 30
0.0
  3
*D15
  1

  0
LINE
  5
20E5
330
183E
100
AcDbEntity
  8
Dimensions
 62
     0
440
 16777216
370
    -2
100
AcDbLine
 10
21.64086676386602
 20
20.93290063817965
 30
0.0
 11
21.64086676386602
 21
19.68887087273273
 31
0.0
  0
LINE
  5
20E6
330
183E
100
AcDbEntity
  8
Dimensions
 62
     0
440
 16777216
370
    -2
100
AcDbLine
 10
22.39086676386602
 20
21.17290063817965
 30
0.0
 11
22.39086676386602
 21
19.68887087273273
 31
0.0
  0
LINE
  5
20E7
330
183E
100
AcDbEntity
  8
Dimensions
 62
     0
440
 16777216
370
    -2
100
AcDbLine
 10
22.26586676386602
 20
19.86887087273273
 30
0.0
 11
21.76586676386602
 21
19.86887087273273
 31
0.0
  0
LINE
  5
20E8
330
183E
100
AcDbEntity
  8
Dimensions
 62
     0
440
 16777216
370
    -2
100
AcDbLine
 10
21.64086676386602
 20
19.86887087273273
 30
0.0
 11
21.51586676386601
 21
19.86887087273273
 31
0.0
  0
SOLID
  5
20E9
330
183E
100
AcDbEntity
  8
Dimensions
 62
     0
440
 16777216
100
AcDbTrace
 10
22.26586676386602
 20
19.88970420606606
 30
0.0
 11
22.26586676386602
 21
19.84803753939939
 31
0.0
 12
22.39086676386602
 22
19.86887087273273
 32
0.0
 13
22.39086676386602
 23
19.86887087273273
 33
0.0
  0
SOLID
  5
20EA
330
183E
100
AcDbEntity
  8
Dimensions
 62
     0
440
 16777216
100
AcDbTrace
 10
21.76586676386602
 20
19.88970420606606
 30
0.0
 11
21.76586676386602
 21
19.84803753939939
 31
0.0
 12
21.64086676386602
 22
19.86887087273273
 32
0.0
 13
21.64086676386602
 23
19.86887087273273
 33
0.0
  0
MTEXT
  5
20EB
330
183E
100
AcDbEntity
  8
Dimensions
 62
     0
440
 16777216
100
AcDbMText
 10
20.92539780070094
 20
19.86887087273273
 30
0.0
 40
0.125
 41
0.0
 46
0.0
 71
     5
 72
     1
  1
\A1;0.750 [19.05]
 73
     1
 44
1.0
  0
POINT
  5
20EC
330
183E
100
AcDbEntity
  8
Defpoints
 62
     0
440
 16777216
100
AcDbPoint
 10
21.64086676386602
 20
20.99540063817965
 30
0.0
  0
POINT
  5
20ED
330
183E
100
AcDbEntity
  8
Defpoints
 62
     0
440
 16777216
100
AcDbPoint
 10
22.39086676386602
 20
21.23540063817965
 30
0.0
  0
POINT
  5
20EE
330
183E
100
AcDbEntity
  8
Defpoints
 62
     0
440
 16777216
100
AcDbPoint
 10
22.39086676386602
 20
19.86887087273273
 30
0.0
  0
ENDBLK
  5
1840
330
183E
100
AcDbEntity
  8
0
100
AcDbBlockEnd
  0
BLOCK
  5
1859
330
1858
100
AcDbEntity
  8
0
100
AcDbBlockBegin
  2
*D16
 70
     1
 10
0.0
 20
0.0
 30
0.0
  3
*D16
  1

  0
LINE
  5
1AC6
330
1858
100
AcDbEntity
  8
Dimensions
 62
     0
440
 16777216
370
    -2
100
AcDbLine
 10
21.64086676386602
 20
20.93290063817965
 30
0.0
 11
21.64086676386602
 21
19.30332739734314
 31
0.0
  0
LINE
  5
1AC7
330
1858
100
AcDbEntity
  8
Dimensions
 62
     0
440
 16777216
370
    -2
100
AcDbLine
 10
22.69086676386601
 20
21.17290063817965
 30
0.0
 11
22.69086676386601
 21
19.30332739734314
 31
0.0
  0
LINE
  5
1AC8
330
1858
100
AcDbEntity
  8
Dimensions
 62
     0
440
 16777216
370
    -2
100
AcDbLine
 10
22.56586676386602
 20
19.48332739734314
 30
0.0
 11
21.76586676386602
 21
19.48332739734314
 31
0.0
  0
LINE
  5
1AC9
330
1858
100
AcDbEntity
  8
Dimensions
 62
     0
440
 16777216
370
    -2
100
AcDbLine
 10
21.64086676386602
 20
19.48332739734314
 30
0.0
 11
21.51586676386601
 21
19.48332739734314
 31
0.0
  0
SOLID
  5
1ACA
330
1858
100
AcDbEntity
  8
Dimensions
 62
     0
440
 16777216
100
AcDbTrace
 10
22.56586676386602
 20
19.50416073067648
 30
0.0
 11
22.56586676386602
 21
19.46249406400981
 31
0.0
 12
22.69086676386601
 22
19.48332739734314
 32
0.0
 13
22.69086676386601
 23
19.48332739734314
 33
0.0
  0
SOLID
  5
1ACB
330
1858
100
AcDbEntity
  8
Dimensions
 62
     0
440
 16777216
100
AcDbTrace
 10
21.76586676386602
 20
19.50416073067648
 30
0.0
 11
21.76586676386602
 21
19.46249406400981
 31
0.0
 12
21.64086676386602
 22
19.48332739734314
 32
0.0
 13
21.64086676386602
 23
19.48332739734314
 33
0.0
  0
MTEXT
  5
1ACC
330
1858
100
AcDbEntity
  8
Dimensions
 62
     0
440
 16777216
100
AcDbMText
 10
20.97984016086465
 20
19.48332739734314
 30
0.0
 40
0.125
 41
0.0
 46
0.0
 71
     5
 72
     1
  1
\A1;1.05 [26.67]
 73
     1
 44
1.0
  0
POINT
  5
1ACD
330
1858
100
AcDbEntity
  8
Defpoints
 62
     0
440
 16777216
100
AcDbPoint
 10
21.64086676386602
 20
20.99540063817965
 30
0.0
  0
POINT
  5
1ACE
330
1858
100
AcDbEntity
  8
Defpoints
 62
     0
440
 16777216
100
AcDbPoint
 10
22.69086676386601
 20
21.23540063817965
 30
0.0
  0
POINT
  5
1ACF
330
1858
100
AcDbEntity
  8
Defpoints
 62
     0
440
 16777216
100
AcDbPoint
 10
22.69086676386601
 20
19.48332739734314
 30
0.0
  0
ENDBLK
  5
185A
330
1858
100
AcDbEntity
  8
0
100
AcDbBlockEnd
  0
BLOCK
  5
1887
330
1886
100
AcDbEntity
  8
0
100
AcDbBlockBegin
  2
*D17
 70
     1
 10
0.0
 20
0.0
 30
0.0
  3
*D17
  1

  0
LINE
  5
20DB
330
1886
100
AcDbEntity
  8
Dimensions
 62
     0
440
 16777216
370
    -2
100
AcDbLine
 10
21.32086676386601
 20
21.94790063817965
 30
0.0
 11
21.32086676386601
 21
22.34475152345822
 31
0.0
  0
LINE
  5
20DC
330
1886
100
AcDbEntity
  8
Dimensions
 62
     0
440
 16777216
370
    -2
100
AcDbLine
 10
21.64086676386602
 20
21.79790063817965
 30
0.0
 11
21.64086676386602
 21
22.34475152345822
 31
0.0
  0
LINE
  5
20DD
330
1886
100
AcDbEntity
  8
Dimensions
 62
     0
440
 16777216
370
    -2
100
AcDbLine
 10
21.76586676386602
 20
22.16475152345822
 30
0.0
 11
21.89086676386601
 21
22.16475152345822
 31
0.0
  0
LINE
  5
20DE
330
1886
100
AcDbEntity
  8
Dimensions
 62
     0
440
 16777216
370
    -2
100
AcDbLine
 10
21.19586676386601
 20
22.16475152345822
 30
0.0
 11
21.07086676386602
 21
22.16475152345822
 31
0.0
  0
SOLID
  5
20DF
330
1886
100
AcDbEntity
  8
Dimensions
 62
     0
440
 16777216
100
AcDbTrace
 10
21.76586676386602
 20
22.18558485679155
 30
0.0
 11
21.76586676386602
 21
22.14391819012488
 31
0.0
 12
21.64086676386602
 22
22.16475152345822
 32
0.0
 13
21.64086676386602
 23
22.16475152345822
 33
0.0
  0
SOLID
  5
20E0
330
1886
100
AcDbEntity
  8
Dimensions
 62
     0
440
 16777216
100
AcDbTrace
 10
21.19586676386601
 20
22.18558485679155
 30
0.0
 11
21.19586676386601
 21
22.14391819012488
 31
0.0
 12
21.32086676386601
 22
22.16475152345822
 32
0.0
 13
21.32086676386601
 23
22.16475152345822
 33
0.0
  0
MTEXT
  5
20E1
330
1886
100
AcDbEntity
  8
Dimensions
 62
     0
440
 16777216
100
AcDbMText
 10
20.52895680479371
 20
22.16475152345822
 30
0.0
 40
0.125
 41
0.0
 46
0.0
 71
     5
 72
     1
  1
\A1;0.320 [8.13]
 73
     1
 44
1.0
  0
POINT
  5
20E2
330
1886
100
AcDbEntity
  8
Defpoints
 62
     0
440
 16777216
100
AcDbPoint
 10
21.32086676386601
 20
21.88540063817965
 30
0.0
  0
POINT
  5
20E3
330
1886
100
AcDbEntity
  8
Defpoints
 62
     0
440
 16777216
100
AcDbPoint
 10
21.64086676386602
 20
21.73540063817965
 30
0.0
  0
POINT
  5
20E4
330
1886
100
AcDbEntity
  8
Defpoints
 62
     0
440
 16777216
100
AcDbPoint
 10
21.64086676386602
 20
22.16475152345822
 30
0.0
  0
ENDBLK
  5
1888
330
1886
100
AcDbEntity
  8
0
100
AcDbBlockEnd
  0
BLOCK
  5
19A0
330
197F
100
AcDbEntity
  8
0
100
AcDbBlockBegin
  2
*T18
 70
     1
 10
0.0
 20
0.0
 30
0.0
  3
*T18
  1

  0
MTEXT
  5
1980
330
197F
100
AcDbEntity
  8
Dimensions
 62
     0
440
 16777216
100
AcDbMText
 10
0.5
 20
-0.2266666666666666
 30
0.0
 40
0.25
 41
0.88
 46
0.0
 71
     5
 72
     5
  1
#
 73
     1
 44
1.0
  0
MTEXT
  5
1981
330
197F
100
AcDbEntity
  8
Dimensions
 62
     0
440
 16777216
100
AcDbMText
 10
2.898824655922556
 20
-0.2266666666666666
 30
0.0
 40
0.25
 41
3.67764931184512
 46
0.0
 71
     5
 72
     5
  1
{\fArial|b1|i0|c0|p34;FUNCTION}
 73
     1
 44
1.0
  0
MTEXT
  5
1982
330
197F
100
AcDbEntity
  8
Dimensions
 62
     0
440
 16777216
100
AcDbMText
 10
0.5
 20
-0.5133333333333337
 30
0.0
 40
0.18
 41
0.88
 46
0.0
 71
     2
 72
     5
  1
1
 73
     1
 44
1.0
  0
MTEXT
  5
1983
330
197F
100
AcDbEntity
  8
Dimensions
 62
     0
440
 16777216
100
AcDbMText
 10
2.89882465592256
 20
-0.5133333333333337
 30
0.0
 40
0.18
 41
3.67764931184512
 46
0.0
 71
     2
 72
     5
  1
HV OUTPUT
 73
     1
 44
1.0
  0
MTEXT
  5
1984
330
197F
100
AcDbEntity
  8
Dimensions
 62
     0
440
 16777216
100
AcDbMText
 10
0.5
 20
-0.873333333333333
 30
0.0
 40
0.18
 41
0.88
 46
0.0
 71
     2
 72
     5
  1
2
 73
     1
 44
1.0
  0
MTEXT
  5
1985
330
197F
100
AcDbEntity
  8
Dimensions
 62
     0
440
 16777216
100
AcDbMText
 10
2.89882465592256
 20
-0.873333333333333
 30
0.0
 40
0.18
 41
3.67764931184512
 46
0.0
 71
     2
 72
     5
  1
CONTROL/ PROGRAM
 73
     1
 44
1.0
  0
MTEXT
  5
1986
330
197F
100
AcDbEntity
  8
Dimensions
 62
     0
440
 16777216
100
AcDbMText
 10
0.5
 20
-1.233333333333332
 30
0.0
 40
0.18
 41
0.88
 46
0.0
 71
     2
 72
     5
  1
3
 73
     1
 44
1.0
  0
MTEXT
  5
1987
330
197F
100
AcDbEntity
  8
Dimensions
 62
     0
440
 16777216
100
AcDbMText
 10
2.89882465592256
 20
-1.233333333333332
 30
0.0
 40
0.18
 41
3.67764931184512
 46
0.0
 71
     2
 72
     5
  1
GND
 73
     1
 44
1.0
  0
MTEXT
  5
1988
330
197F
100
AcDbEntity
  8
Dimensions
 62
     0
440
 16777216
100
AcDbMText
 10
0.5
 20
-1.593333333333331
 30
0.0
 40
0.18
 41
0.88
 46
0.0
 71
     2
 72
     5
  1
4
 73
     1
 44
1.0
  0
MTEXT
  5
1989
330
197F
100
AcDbEntity
  8
Dimensions
 62
     0
440
 16777216
100
AcDbMText
 10
2.89882465592256
 20
-1.593333333333331
 30
0.0
 40
0.18
 41
3.67764931184512
 46
0.0
 71
     2
 72
     5
  1
REFERENCE VOLTAGE
 73
     1
 44
1.0
  0
MTEXT
  5
198A
330
197F
100
AcDbEntity
  8
Dimensions
 62
     0
440
 16777216
100
AcDbMText
 10
0.5
 20
-1.953333333333331
 30
0.0
 40
0.18
 41
0.88
 46
0.0
 71
     2
 72
     5
  1
5
 73
     1
 44
1.0
  0
MTEXT
  5
198B
330
197F
100
AcDbEntity
  8
Dimensions
 62
     0
440
 16777216
100
AcDbMText
 10
2.89882465592256
 20
-1.953333333333331
 30
0.0
 40
0.18
 41
3.67764931184512
 46
0.0
 71
     2
 72
     5
  1
CASE / GND
 73
     1
 44
1.0
  0
MTEXT
  5
198C
330
197F
100
AcDbEntity
  8
Dimensions
 62
     0
440
 16777216
100
AcDbMText
 10
0.5
 20
-2.31333333333333
 30
0.0
 40
0.18
 41
0.88
 46
0.0
 71
     2
 72
     5
  1
6
 73
     1
 44
1.0
  0
MTEXT
  5
198D
330
197F
100
AcDbEntity
  8
Dimensions
 62
     0
440
 16777216
100
AcDbMText
 10
2.89882465592256
 20
-2.31333333333333
 30
0.0
 40
0.18
 41
3.67764931184512
 46
0.0
 71
     2
 72
     5
  1
+ INPUT
 73
     1
 44
1.0
  0
MTEXT
  5
198E
330
197F
100
AcDbEntity
  8
Dimensions
 62
     0
440
 16777216
100
AcDbMText
 10
0.5
 20
-2.67333333333333
 30
0.0
 40
0.18
 41
0.88
 46
0.0
 71
     2
 72
     5
  1
7
 73
     1
 44
1.0
  0
MTEXT
  5
198F
330
197F
100
AcDbEntity
  8
Dimensions
 62
     0
440
 16777216
100
AcDbMText
 10
2.89882465592256
 20
-2.67333333333333
 30
0.0
 40
0.18
 41
3.67764931184512
 46
0.0
 71
     2
 72
     5
  1
VOLTAGE MONITOR
 73
     1
 44
1.0
  0
MTEXT
  5
1990
330
197F
100
AcDbEntity
  8
Dimensions
 62
     0
440
 16777216
100
AcDbMText
 10
0.5
 20
-3.033333333333329
 30
0.0
 40
0.18
 41
0.88
 46
0.0
 71
     2
 72
     5
  1
8
 73
     1
 44
1.0
  0
MTEXT
  5
1991
330
197F
100
AcDbEntity
  8
Dimensions
 62
     0
440
 16777216
100
AcDbMText
 10
2.89882465592256
 20
-3.033333333333329
 30
0.0
 40
0.18
 41
3.67764931184512
 46
0.0
 71
     2
 72
     5
  1
HV RETURN
 73
     1
 44
1.0
  0
LINE
  5
1992
330
197F
100
AcDbEntity
  8
Dimensions
  6
ByBlock
 62
     0
440
 16777216
370
    -2
100
AcDbLine
 10
0.0
 20
0.0
 30
0.0
 11
4.79764931184512
 21
0.0
 31
0.0
  0
LINE
  5
1993
330
197F
100
AcDbEntity
  8
Dimensions
  6
ByBlock
 62
     0
440
 16777216
370
    -2
100
AcDbLine
 10
0.0
 20
-0.4533333333333332
 30
0.0
 11
4.79764931184512
 21
-0.4533333333333332
 31
0.0
  0
LINE
  5
1994
330
197F
100
AcDbEntity
  8
Dimensions
  6
ByBlock
 62
     0
440
 16777216
370
    -2
100
AcDbLine
 10
0.0
 20
-0.8133333333333325
 30
0.0
 11
4.79764931184512
 21
-0.8133333333333325
 31
0.0
  0
LINE
  5
1995
330
197F
100
AcDbEntity
  8
Dimensions
  6
ByBlock
 62
     0
440
 16777216
370
    -2
100
AcDbLine
 10
0.0
 20
-1.173333333333332
 30
0.0
 11
4.79764931184512
 21
-1.173333333333332
 31
0.0
  0
LINE
  5
1996
330
197F
100
AcDbEntity
  8
Dimensions
  6
ByBlock
 62
     0
440
 16777216
370
    -2
100
AcDbLine
 10
0.0
 20
-1.533333333333331
 30
0.0
 11
4.79764931184512
 21
-1.533333333333331
 31
0.0
  0
LINE
  5
1997
330
197F
100
AcDbEntity
  8
Dimensions
  6
ByBlock
 62
     0
440
 16777216
370
    -2
100
AcDbLine
 10
0.0
 20
-1.89333333333333
 30
0.0
 11
4.79764931184512
 21
-1.89333333333333
 31
0.0
  0
LINE
  5
1998
330
197F
100
AcDbEntity
  8
Dimensions
  6
ByBlock
 62
     0
440
 16777216
370
    -2
100
AcDbLine
 10
0.0
 20
-2.25333333333333
 30
0.0
 11
4.79764931184512
 21
-2.25333333333333
 31
0.0
  0
LINE
  5
1999
330
197F
100
AcDbEntity
  8
Dimensions
  6
ByBlock
 62
     0
440
 16777216
370
    -2
100
AcDbLine
 10
0.0
 20
-2.613333333333329
 30
0.0
 11
4.79764931184512
 21
-2.613333333333329
 31
0.0
  0
LINE
  5
199A
330
197F
100
AcDbEntity
  8
Dimensions
  6
ByBlock
 62
     0
440
 16777216
370
    -2
100
AcDbLine
 10
0.0
 20
-2.973333333333329
 30
0.0
 11
4.79764931184512
 21
-2.973333333333329
 31
0.0
  0
LINE
  5
199B
330
197F
100
AcDbEntity
  8
Dimensions
  6
ByBlock
 62
     0
440
 16777216
370
    -2
100
AcDbLine
 10
0.0
 20
-3.333333333333328
 30
0.0
 11
4.79764931184512
 21
-3.333333333333328
 31
0.0
  0
LINE
  5
199C
330
197F
100
AcDbEntity
  8
Dimensions
  6
ByBlock
 62
     0
440
 16777216
370
    -2
100
AcDbLine
 10
0.0
 20
0.0
 30
0.0
 11
0.0
 21
-3.333333333333328
 31
0.0
  0
LINE
  5
199D
330
197F
100
AcDbEntity
  8
Dimensions
  6
ByBlock
 62
     0
440
 16777216
370
    -2
100
AcDbLine
 10
1.0
 20
0.0
 30
0.0
 11
1.0
 21
-3.333333333333328
 31
0.0
  0
LINE
  5
199E
330
197F
100
AcDbEntity
  8
Dimensions
  6
ByBlock
 62
     0
440
 16777216
370
    -2
100
AcDbLine
 10
4.79764931184512
 20
0.0
 30
0.0
 11
4.79764931184512
 21
-3.333333333333328
 31
0.0
  0
LINE
  5
199F
330
197F
100
AcDbEntity
  8
Defpoints
 62
     8
440
 16777216
 60
     1
370
     0
100
AcDbLine
 10
0.0
 20
0.0
 30
0.0
 11
0.0
 21
0.0
 31
0.0
  0
ENDBLK
  5
19A1
330
197F
100
AcDbEntity
  8
0
100
AcDbBlockEnd
  0
ENDSEC
  0
SECTION
  2
ENTITIES
  0
LINE
  5
C3
330
1F
100
AcDbEntity
  8
Frame
100
AcDbLine
 10
13.64670945225887
 20
12.6835221097257
 30
0.0
 11
30.64670945225888
 21
12.6835221097257
 31
0.0
  0
TEXT
  5
C4
330
1F
100
AcDbEntity
  8
Frame Text
100
AcDbText
 10
28.66813712548097
 20
13.94952683626645
 30
0.0
 40
0.125
  1
American Power Design
 72
     1
 11
29.6045713001058
 21
14.01202683626645
 31
0.0
100
AcDbText
 73
     2
  0
LINE
  5
C5
330
1F
100
AcDbEntity
  8
Frame
100
AcDbLine
 10
26.45453898184141
 20
14.21868312706168
 30
0.0
 11
26.45453898184141
 21
12.6835221097257
 31
0.0
  0
LINE
  5
C6
330
1F
100
AcDbEntity
  8
Frame
100
AcDbLine
 10
27.61771867574598
 20
14.21868312706168
 30
0.0
 11
27.61771867574597
 21
13.39205796388077
 31
0.0
  0
LINE
  5
C7
330
1F
100
AcDbEntity
  8
Frame
100
AcDbLine
 10
28.56243314795273
 20
14.21868312706168
 30
0.0
 11
28.56243314795273
 21
12.6835221097257
 31
0.0
  0
TEXT
  5
C8
330
1F
100
AcDbEntity
  8
Frame
100
AcDbText
 10
26.88618995644762
 20
14.08897292913361
 30
0.0
 40
0.0354267927077533
  1
SPECIFIED
 72
     1
 11
27.01681719245155
 21
14.08897292913361
 31
0.0
100
AcDbText
  0
TEXT
  5
C9
330
1F
100
AcDbEntity
  8
Frame Text
100
AcDbText
 10
28.63075919188086
 20
12.88876368142514
 30
0.0
 40
0.09
  1
1:1
100
AcDbText
  0
LINE
  5
CA
330
1F
100
AcDbEntity
  8
Frame
100
AcDbLine
 10
28.56243314795273
 20
13.80537054547122
 30
0.0
 11
30.64670945225888
 21
13.80537054547122
 31
0.0
  0
LINE
  5
CB
330
1F
100
AcDbEntity
  8
Frame
100
AcDbLine
 10
28.56243314795273
 20
13.11454808767004
 30
0.0
 11
30.64670945225888
 21
13.11454808767004
 31
0.0
  0
LINE
  5
CC
330
1F
100
AcDbEntity
  8
Frame
100
AcDbLine
 10
28.56243314795273
 20
12.82231545483428
 30
0.0
 11
30.64670945225888
 21
12.82231545483428
 31
0.0
  0
TEXT
  5
CD
330
1F
100
AcDbEntity
  8
Frame
100
AcDbText
 10
28.6032962195887
 20
13.73942753615069
 30
0.0
 40
0.0354267927077533
  1
TITLE
100
AcDbText
  0
TEXT
  5
CE
330
1F
100
AcDbEntity
  8
Frame
100
AcDbText
 10
28.59445026070622
 20
13.0499966485282
 30
0.0
 40
0.0354267927077533
  1
SCALE
100
AcDbText
  0
TEXT
  5
CF
330
1F
100
AcDbEntity
  8
Frame
100
AcDbText
 10
28.6290535704524
 20
12.73322784581289
 30
0.0
 40
0.0354267927077533
  1
SHEET       OF       
100
AcDbText
  0
LINE
  5
D0
330
1F
100
AcDbEntity
  8
Frame
100
AcDbLine
 10
26.45453898184141
 20
13.39205796388077
 30
0.0
 11
28.56243314795273
 21
13.39205796388077
 31
0.0
  0
LINE
  5
D1
330
1F
100
AcDbEntity
  8
Frame
100
AcDbLine
 10
26.45453898184141
 20
13.03779003680324
 30
0.0
 11
28.56243314795273
 21
13.03779003680324
 31
0.0
  0
TEXT
  5
D4
330
1F
100
AcDbEntity
  8
Frame
100
AcDbText
 10
26.56827504205732
 20
13.98802240839653
 30
0.0
 40
0.0354267927077533
  1
DIMENSIONS IN INCHES [MM]
100
AcDbText
  0
TEXT
  5
D5
330
1F
100
AcDbEntity
  8
Frame
100
AcDbText
 10
26.56827504205732
 20
13.80604150680301
 30
0.0
 40
0.0354267927077533
  1
TOLERANCES
100
AcDbText
  0
TEXT
  5
D6
330
1F
100
AcDbEntity
  8
Frame
100
AcDbText
 10
26.53757436122987
 20
13.67086645534965
 30
0.0
 40
0.0354267927077533
  1
FRAC =                             .XX =
100
AcDbText
  0
TEXT
  5
D7
330
1F
100
AcDbEntity
  8
Frame
100
AcDbText
 10
26.53939558805862
 20
13.51487080289682
 30
0.0
 40
0.0354267927077533
  1
.XXX =                          ANGLE =
100
AcDbText
  0
TEXT
  5
D8
330
1F
100
AcDbEntity
  8
Frame
100
AcDbText
 10
26.48890724986861
 20
13.3258603947723
 30
0.0
 40
0.0354267927077533
  1
MATERIAL
100
AcDbText
  0
TEXT
  5
D9
330
1F
100
AcDbEntity
  8
Frame
100
AcDbText
 10
26.48890724986861
 20
12.97660820187318
 30
0.0
 40
0.0354267927077533
  1
FINISH
100
AcDbText
  0
LINE
  5
DA
330
1F
100
AcDbEntity
  8
Frame
100
AcDbLine
 10
27.61771867574597
 20
13.52490843653484
 30
0.0
 11
28.56243314795273
 21
13.52490843653484
 31
0.0
  0
LINE
  5
DB
330
1F
100
AcDbEntity
  8
Frame
100
AcDbLine
 10
27.61771867574597
 20
13.65775890918892
 30
0.0
 11
28.56243314795273
 21
13.65775890918892
 31
0.0
  0
LINE
  5
DC
330
1F
100
AcDbEntity
  8
Frame
100
AcDbLine
 10
27.61771867574597
 20
13.79060938184299
 30
0.0
 11
28.56243314795273
 21
13.79060938184299
 31
0.0
  0
LINE
  5
DD
330
1F
100
AcDbEntity
  8
Frame
100
AcDbLine
 10
27.61771867574598
 20
13.92345985449707
 30
0.0
 11
28.56243314795273
 21
13.92345985449707
 31
0.0
  0
LINE
  5
DE
330
1F
100
AcDbEntity
  8
Frame
100
AcDbLine
 10
27.61771867574598
 20
14.05631032715114
 30
0.0
 11
28.56243314795273
 21
14.05631032715114
 31
0.0
  0
TEXT
  5
DF
330
1F
100
AcDbEntity
  8
Frame
100
AcDbText
 10
27.63858697914901
 20
13.8352912013212
 30
0.0
 40
0.0354267927077533
  1
DWN
100
AcDbText
  0
TEXT
  5
E0
330
1F
100
AcDbEntity
  8
Frame
100
AcDbText
 10
27.64270216386232
 20
13.70275125041884
 30
0.0
 40
0.0354267927077533
  1
CHK
100
AcDbText
  0
TEXT
  5
E1
330
1F
100
AcDbEntity
  8
Frame
100
AcDbText
 10
27.64270216386232
 20
13.57460835949901
 30
0.0
 40
0.0354267927077533
  1
CH DR
100
AcDbText
  0
TEXT
  5
E2
330
1F
100
AcDbEntity
  8
Frame
100
AcDbText
 10
27.64733174666479
 20
13.46970707134406
 30
0.0
 40
0.0354267927077533
  1
COG
100
AcDbText
  0
TEXT
  5
E3
330
1F
100
AcDbEntity
  8
Frame
100
AcDbText
 10
27.64733174666479
 20
13.41066241683114
 30
0.0
 40
0.0354267927077533
  1
ENG
100
AcDbText
  0
TEXT
  5
E4
330
1F
100
AcDbEntity
  8
Frame
100
AcDbText
 10
27.85669176895433
 20
13.96280594081494
 30
0.0
 40
0.0531401890616299
  1
APPROVAL
100
AcDbText
  0
TEXT
  5
E5
330
1F
100
AcDbEntity
  8
Frame
100
AcDbText
 10
28.41018411289424
 20
13.44239314619367
 30
0.0
 40
0.0354267927077533
  1
DATE
100
AcDbText
  0
TEXT
  5
E6
330
1F
100
AcDbEntity
  8
Frame
100
AcDbText
 10
28.41018411289424
 20
13.70809409150182
 30
0.0
 40
0.0354267927077533
  1
DATE
100
AcDbText
  0
TEXT
  5
E7
330
1F
100
AcDbEntity
  8
Frame
100
AcDbText
 10
28.41018411289424
 20
13.57524361884775
 30
0.0
 40
0.0354267927077533
  1
DATE
100
AcDbText
  0
TEXT
  5
E8
330
1F
100
AcDbEntity
  8
Frame
100
AcDbText
 10
28.41018411289424
 20
13.8409445641559
 30
0.0
 40
0.0354267927077533
  1
DATE
100
AcDbText
  0
TEXT
  5
EA
330
1F
100
AcDbEntity
  8
Frame Text
100
AcDbText
 10
28.81456286572357
 20
12.70377828222282
 30
0.0
 40
0.1
  1
1  1
100
AcDbText
  0
LINE
  5
EB
330
1F
100
AcDbEntity
  8
Frame
100
AcDbLine
 10
28.85765642051735
 20
13.11454808767004
 30
0.0
 11
28.85765642051735
 21
12.82231545483428
 31
0.0
  0
TEXT
  5
EC
330
1F
100
AcDbEntity
  8
Frame Text
100
AcDbText
 10
28.93293827559188
 20
12.84907746336148
 30
0.0
 40
0.1476116362823053
  1
B
100
AcDbText
  0
TEXT
  5
ED
330
1F
100
AcDbEntity
  8
Frame
100
AcDbText
 10
29.15851022709524
 20
13.05031435861466
 30
0.0
 40
0.0354267927077533
  1
FILE
100
AcDbText
  0
LINE
  5
EE
330
1F
100
AcDbEntity
  8
Frame
100
AcDbLine
 10
29.1233573658255
 20
13.11454808767004
 30
0.0
 11
29.12335736582549
 21
12.82231545483428
 31
0.0
  0
LINE
  5
EF
330
1F
100
AcDbEntity
  8
Frame
100
AcDbLine
 10
29.70199498005213
 20
12.82231545483428
 30
0.0
 11
29.70199498005213
 21
12.6835221097257
 31
0.0
  0
TEXT
  5
F0
330
1F
100
AcDbEntity
  8
Frame
100
AcDbText
 10
29.86202413351403
 20
12.73322784581289
 30
0.0
 40
0.0354267927077533
  1
DO NOT SCALE PRINT
100
AcDbText
  0
TEXT
  5
F1
330
1F
100
AcDbEntity
  8
Frame
100
AcDbText
 10
30.39096043963437
 20
13.0499966485282
 30
0.0
 40
0.0354267927077533
  1
REV.
100
AcDbText
  0
LINE
  5
F2
330
1F
100
AcDbEntity
  8
Frame
100
AcDbLine
 10
30.35148617969428
 20
13.11454808767004
 30
0.0
 11
30.35148617969428
 21
12.82231545483428
 31
0.0
  0
LINE
  5
F3
330
1F
100
AcDbEntity
  8
Frame
100
AcDbLine
 10
26.45453898184142
 20
14.21868312706168
 30
0.0
 11
30.64670945225888
 21
14.21868312706168
 31
0.0
  0
TEXT
  5
F4
330
1F
100
AcDbEntity
  8
Frame
100
AcDbText
 10
27.64270216386232
 20
14.13491943156019
 30
0.0
 40
0.0531401890616299
  1
STANDARD
100
AcDbText
  0
TEXT
  5
F5
330
1F
100
AcDbEntity
  8
Frame
100
AcDbText
 10
26.78292720278249
 20
14.15092639599369
 30
0.0
 40
0.0354267927077533
  1
UNLESS OTHERWISE
 72
     1
 11
27.03867191439651
 21
14.15092639599369
 31
0.0
100
AcDbText
  0
TEXT
  5
F6
330
1F
100
AcDbEntity
  8
Frame Text
100
AcDbText
 10
26.75720209656945
 20
13.50446367242704
 30
0.0
 40
0.05
  1
%%p.005
100
AcDbText
  0
TEXT
  5
F7
330
1F
100
AcDbEntity
  8
Frame Text
100
AcDbText
 10
30.45984098762022
 20
12.88797686291758
 30
0.0
 40
0.12
  1
-
100
AcDbText
  0
LINE
  5
F8
330
1F
100
AcDbEntity
  8
0
100
AcDbLine
 10
30.64670945225888
 20
12.6835221097257
 30
0.0
 11
30.64670945225888
 21
23.68352210972571
 31
0.0
  0
LINE
  5
F9
330
1F
100
AcDbEntity
  8
0
100
AcDbLine
 10
30.64670945225888
 20
23.68352210972571
 30
0.0
 11
13.64670945225887
 21
23.68352210972571
 31
0.0
  0
LINE
  5
FA
330
1F
100
AcDbEntity
  8
0
100
AcDbLine
 10
13.64670945225887
 20
23.68352210972571
 30
0.0
 11
13.64670945225887
 21
12.6835221097257
 31
0.0
  0
TEXT
  5
126
330
1F
100
AcDbEntity
  8
Frame Text
100
AcDbText
 10
29.02228958114264
 20
13.39745931657063
 30
0.0
 40
0.125
  1
F1 Dimensions
 72
     1
 11
29.6045713001058
 21
13.45995931657063
 31
0.0
100
AcDbText
 73
     2
  0
TEXT
  5
4C9
330
1F
100
AcDbEntity
  8
Frame Text
100
AcDbText
 10
27.29037454184755
 20
13.66588194663388
 30
0.0
 40
0.05
  1
%%p.05
100
AcDbText
  0
TEXT
  5
4D0
330
1F
100
AcDbEntity
  8
Frame Text
100
AcDbText
 10
26.77173914322318
 20
13.66141386644885
 30
0.0
 40
0.05
  1
%%p1/64
100
AcDbText
  0
TEXT
  5
4D9
330
1F
100
AcDbEntity
  8
Frame Text
100
AcDbText
 10
27.35912521782784
 20
13.50597803014863
 30
0.0
 40
0.05
  1
%%p1°0
100
AcDbText
  0
TEXT
  5
4DB
330
1F
100
AcDbEntity
  8
Frame
100
AcDbText
 10
28.88768828817958
 20
13.0499966485282
 30
0.0
 40
0.0354267927077533
  1
SIZE
100
AcDbText
  0
MTEXT
  5
584
330
1F
100
AcDbEntity
  8
Dimensions
100
AcDbMText
 10
23.07651617398262
 20
18.25069142187141
 30
0.0
 40
0.125
 41
0.0
 46
0.0
 71
     1
 72
     1
  1
\A1;
 73
     1
 44
1.0
  0
TEXT
  5
5DF
330
1F
100
AcDbEntity
  8
Frame Text
100
AcDbText
 10
29.38942674513356
 20
12.90798911704344
 30
0.0
 40
0.1
  1
f1_cadd
100
AcDbText
  0
TEXT
  5
5E6
330
1F
100
AcDbEntity
  8
Frame Text
100
AcDbText
 10
27.81068537873458
 20
13.8336997926905
 30
0.0
 40
0.05
  1
BE    12/19
100
AcDbText
  0
TEXT
  5
5EC
330
1F
100
AcDbEntity
  8
Frame Text
100
AcDbText
 10
27.81068537873458
 20
13.69941576351696
 30
0.0
 40
0.05
  1
NJN    12/19
100
AcDbText
  0
LINE
  5
14DA
330
1F
100
AcDbEntity
  8
Converter
100
AcDbLine
 10
21.39157744198467
 20
17.17753786746641
 30
0.0
 11
23.00015608574736
 21
17.17753786746641
 31
0.0
  0
ARC
  5
14DB
102
{ACAD_REACTORS
330
1522
102
}
330
1F
100
AcDbEntity
  8
Converter
100
AcDbCircle
 10
23.00015608574736
 20
17.24824854558507
 30
0.0
 40
0.0707106781186547
100
AcDbArc
 50
270.0
 51
0.0
  0
ARC
  5
14DC
330
1F
100
AcDbEntity
  8
Converter
100
AcDbCircle
 10
21.39157744198467
 20
17.24824854558507
 30
0.0
 40
0.0707106781186547
100
AcDbArc
 50
180.0
 51
270.0
  0
LINE
  5
14DD
102
{ACAD_REACTORS
330
151F
102
}
330
1F
100
AcDbEntity
  8
Converter
100
AcDbLine
 10
23.07086676386602
 20
17.24824854558507
 30
0.0
 11
23.07086676386602
 21
17.67753786746641
 31
0.0
  0
LINE
  5
14DE
102
{ACAD_REACTORS
330
1522
102
}
330
1F
100
AcDbEntity
  8
Converter
100
AcDbLine
 10
23.07086676386602
 20
17.67753786746641
 30
0.0
 11
21.32086676386601
 21
17.67753786746641
 31
0.0
  0
LINE
  5
14DF
102
{ACAD_REACTORS
330
151F
330
1525
102
}
330
1F
100
AcDbEntity
  8
Converter
100
AcDbLine
 10
21.32086676386601
 20
17.67753786746641
 30
0.0
 11
21.32086676386601
 21
17.24824854558507
 31
0.0
  0
LINE
  5
14E0
330
1F
100
AcDbEntity
  8
Converter
100
AcDbLine
 10
21.32086676386601
 20
20.78540063817965
 30
0.0
 11
21.32086676386601
 21
21.88540063817965
 31
0.0
  0
LINE
  5
14E1
330
1F
100
AcDbEntity
  8
Converter
100
AcDbLine
 10
23.07086676386602
 20
20.78540063817965
 30
0.0
 11
23.07086676386602
 21
21.88540063817965
 31
0.0
  0
LINE
  5
14E2
102
{ACAD_REACTORS
330
1817
102
}
330
1F
100
AcDbEntity
  8
Converter
100
AcDbLine
 10
21.32086676386601
 20
20.78540063817965
 30
0.0
 11
23.07086676386602
 21
20.78540063817965
 31
0.0
  0
LINE
  5
14E3
330
1F
100
AcDbEntity
  8
Converter
100
AcDbLine
 10
21.32086676386601
 20
21.88540063817965
 30
0.0
 11
23.07086676386602
 21
21.88540063817965
 31
0.0
  0
CIRCLE
  5
14E4
102
{ACAD_REACTORS
330
1764
102
}
330
1F
100
AcDbEntity
  8
Converter
100
AcDbCircle
 10
21.64086676386602
 20
20.98540063817965
 30
0.0
 40
0.02
  0
LINE
  5
14E9
330
1F
100
AcDbEntity
  8
Converter
100
AcDbLine
 10
23.00086676386602
 20
17.87753786746641
 30
0.0
 11
22.96086676386602
 21
17.87753786746641
 31
0.0
  0
LINE
  5
14EA
330
1F
100
AcDbEntity
  8
Converter
100
AcDbLine
 10
22.75086676386601
 20
17.87753786746641
 30
0.0
 11
22.71086676386601
 21
17.87753786746641
 31
0.0
  0
LINE
  5
14EB
330
1F
100
AcDbEntity
  8
Converter
100
AcDbLine
 10
22.45086676386602
 20
17.87753786746642
 30
0.0
 11
22.41086676386602
 21
17.87753786746642
 31
0.0
  0
LINE
  5
14EC
330
1F
100
AcDbEntity
  8
Converter
100
AcDbLine
 10
21.70086676386601
 20
17.87753786746642
 30
0.0
 11
21.66086676386601
 21
17.87753786746642
 31
0.0
  0
LINE
  5
14ED
102
{ACAD_REACTORS
330
1525
102
}
330
1F
100
AcDbEntity
  8
Converter
100
AcDbLine
 10
21.66086676386601
 20
17.87753786746642
 30
0.0
 11
21.66086676386601
 21
17.67753786746643
 31
0.0
  0
LINE
  5
14EE
330
1F
100
AcDbEntity
  8
Converter
100
AcDbLine
 10
21.70086676386601
 20
17.87753786746642
 30
0.0
 11
21.70086676386601
 21
17.67753786746643
 31
0.0
  0
LINE
  5
14EF
330
1F
100
AcDbEntity
  8
Converter
100
AcDbLine
 10
22.41086676386602
 20
17.87753786746642
 30
0.0
 11
22.41086676386602
 21
17.67753786746643
 31
0.0
  0
LINE
  5
14F0
330
1F
100
AcDbEntity
  8
Converter
100
AcDbLine
 10
22.45086676386602
 20
17.87753786746642
 30
0.0
 11
22.45086676386602
 21
17.67753786746643
 31
0.0
  0
LINE
  5
14F1
330
1F
100
AcDbEntity
  8
Converter
100
AcDbLine
 10
22.71086676386601
 20
17.87753786746641
 30
0.0
 11
22.71086676386601
 21
17.67753786746641
 31
0.0
  0
LINE
  5
14F2
330
1F
100
AcDbEntity
  8
Converter
100
AcDbLine
 10
22.75086676386601
 20
17.87753786746641
 30
0.0
 11
22.75086676386601
 21
17.67753786746641
 31
0.0
  0
LINE
  5
14F3
330
1F
100
AcDbEntity
  8
Converter
100
AcDbLine
 10
22.96086676386602
 20
17.87753786746641
 30
0.0
 11
22.96086676386602
 21
17.67753786746641
 31
0.0
  0
LINE
  5
14F4
330
1F
100
AcDbEntity
  8
Converter
100
AcDbLine
 10
23.00086676386602
 20
17.87753786746641
 30
0.0
 11
23.00086676386602
 21
17.67753786746641
 31
0.0
  0
LINE
  5
14F5
102
{ACAD_REACTORS
330
173F
102
}
330
1F
100
AcDbEntity
  8
Converter
100
AcDbLine
 10
22.11586676386602
 20
21.10540063817966
 30
0.0
 11
22.31586676386601
 21
21.10540063817966
 31
0.0
  0
LINE
  5
14F6
102
{ACAD_REACTORS
330
173F
102
}
330
1F
100
AcDbEntity
  8
Converter
100
AcDbLine
 10
22.31586676386601
 20
21.10540063817966
 30
0.0
 11
22.31586676386601
 21
21.30540063817965
 31
0.0
  0
LINE
  5
14F7
102
{ACAD_REACTORS
330
173F
102
}
330
1F
100
AcDbEntity
  8
Converter
100
AcDbLine
 10
22.31586676386601
 20
21.30540063817965
 30
0.0
 11
22.11586676386602
 21
21.30540063817965
 31
0.0
  0
LINE
  5
14F8
102
{ACAD_REACTORS
330
173F
102
}
330
1F
100
AcDbEntity
  8
Converter
100
AcDbLine
 10
22.11586676386602
 20
21.30540063817965
 30
0.0
 11
22.11586676386602
 21
21.10540063817966
 31
0.0
  0
CIRCLE
  5
14F9
102
{ACAD_REACTORS
330
173F
102
}
330
1F
100
AcDbEntity
  8
Converter
100
AcDbCircle
 10
22.21586676386602
 20
21.20540063817965
 30
0.0
 40
0.06
  0
LINE
  5
14FA
102
{ACAD_REACTORS
330
173F
330
183C
102
}
330
1F
100
AcDbEntity
  8
Converter
100
AcDbLine
 10
22.21586676386602
 20
21.20540063817965
 30
0.0
 11
22.21586676386602
 21
21.20540063817965
 31
0.0
  0
LINE
  5
14FB
102
{ACAD_REACTORS
330
173F
102
}
330
1F
100
AcDbEntity
  8
Converter
100
AcDbLine
 10
22.17344035699482
 20
21.16297423130846
 30
0.0
 11
22.25829317073721
 21
21.24782704505084
 31
0.0
  0
DIMENSION
  5
151C
330
1F
100
AcDbEntity
  8
Dimensions
100
AcDbDimension
280
     0
  2
*D4
 10
19.75671819791065
 20
21.88540063817965
 30
0.0
 11
19.75671819791064
 21
21.15598106711652
 31
0.0
 70
   160
 71
     5
 42
1.100000000000001
 73
     0
 74
     0
 75
     0
  3
Standard
100
AcDbAlignedDimension
 13
21.32086676386601
 23
20.78540063817965
 33
0.0
 14
21.32086676386601
 24
21.88540063817965
 34
0.0
 50
90.0
100
AcDbRotatedDimension
1001
ACAD
1000
DSTYLE
1002
{
1070
   271
1070
     3
1002
}
  0
DIMENSION
  5
151D
102
{ACAD_XDICTIONARY
360
151E
102
}
102
{ACAD_REACTORS
330
151F
102
}
330
1F
100
AcDbEntity
  8
Dimensions
100
AcDbDimension
280
     0
  2
*D5
 10
23.07086676386602
 20
16.79318234300866
 30
0.0
 11
22.19586676386601
 21
16.79318234300866
 31
0.0
 70
    32
 71
     5
 42
1.750000000000003
 73
     0
 74
     0
 75
     0
  3
Standard
100
AcDbAlignedDimension
 13
21.32086676386601
 23
17.24824854558507
 33
0.0
 14
23.07086676386602
 24
17.24824854558507
 34
0.0
100
AcDbRotatedDimension
1001
ACAD
1000
DSTYLE
1002
{
1070
   271
1070
     3
1002
}
  0
DIMENSION
  5
1520
102
{ACAD_XDICTIONARY
360
1521
102
}
102
{ACAD_REACTORS
330
1522
102
}
330
1F
100
AcDbEntity
  8
Dimensions
100
AcDbDimension
280
     0
  2
*D6
 10
23.24254936906356
 20
17.67753786746641
 30
0.0
 11
23.95801833222864
 21
18.31986333471951
 31
0.0
 70
   160
 71
     5
 42
0.5
 73
     0
 74
     0
 75
     0
  3
Standard
100
AcDbAlignedDimension
 13
23.00015608574736
 23
17.17753786746641
 33
0.0
 14
23.07086676386602
 24
17.67753786746641
 34
0.0
 50
90.0
100
AcDbRotatedDimension
1001
ACAD
1000
DSTYLE
1002
{
1070
   271
1070
     3
1002
}
  0
DIMENSION
  5
1523
102
{ACAD_XDICTIONARY
360
1524
102
}
102
{ACAD_REACTORS
330
1525
102
}
330
1F
100
AcDbEntity
  8
Dimensions
100
AcDbDimension
280
     0
  2
*D7
 10
21.05335217909752
 20
17.67753786746641
 30
0.0
 11
19.78003021456819
 21
16.84137388222207
 31
0.0
 70
   160
  1
<>  Min. Pin Length
 71
     5
 42
0.2000000000000099
 73
     0
 74
     0
 75
     0
  3
Standard
100
AcDbAlignedDimension
 13
21.66086676386601
 23
17.87753786746642
 33
0.0
 14
21.32086676386601
 24
17.67753786746641
 34
0.0
 50
90.0
100
AcDbRotatedDimension
  0
LEADER
  5
1526
330
1F
100
AcDbEntity
  8
Dimensions
100
AcDbLeader
  3
Standard
 73
     0
 76
     3
 10
21.66137512798223
 20
17.87753786746641
 30
0.0
 10
21.41191416067258
 20
18.3558105958747
 30
0.0
 10
20.91191416067259
 20
18.3558105958747
 30
0.0
213
0.0
223
0.0625
233
0.0
1001
ACAD
1000
DSTYLE
1002
{
1070
     5
1000

1070
    77
1070
     0
1070
   147
1040
0.09
1002
}
  0
MTEXT
  5
1527
102
{ACAD_XDICTIONARY
360
1528
102
}
330
1F
100
AcDbEntity
  8
Dimensions
100
AcDbMText
 10
19.71668604091238
 20
18.14024000429473
 30
0.0
 40
0.1
 41
0.0
 46
0.0
 71
     7
 72
     1
  1
PIN - 0.04 [1.02] Dia.\PTin Plated Brass\PMatte Finish 8 Plc
 73
     1
 44
1.0
  0
MTEXT
  5
1529
330
1F
100
AcDbEntity
  8
Dimensions
100
AcDbMText
 10
21.8251074783899
 20
19.11727518066259
 30
0.0
 40
0.1
 41
0.0
 46
0.0
 71
     7
 72
     1
  1
Bottom View
 73
     1
 44
1.0
  0
MTEXT
  5
152A
330
1F
100
AcDbEntity
  8
Converter
100
AcDbMText
 10
22.36553530829023
 20
21.28587759432198
 30
0.0
 40
0.1
 41
0.0
 46
0.0
 71
     7
 72
     1
  1
2
 73
     1
 44
1.0
  0
MTEXT
  5
152B
330
1F
100
AcDbEntity
  8
Converter
100
AcDbMText
 10
21.67629969606341
 20
20.85170112330323
 30
0.0
 40
0.1
 41
0.0
 46
0.0
 71
     7
 72
     1
  1
1
 73
     1
 44
1.0
  0
MTEXT
  5
152C
330
1F
100
AcDbEntity
  8
Converter
100
AcDbMText
 10
22.84567109376875
 20
21.58987779524529
 30
0.0
 40
0.1
 41
0.0
 46
0.0
 71
     7
 72
     1
  1
5
 73
     1
 44
1.0
  0
MTEXT
  5
152D
330
1F
100
AcDbEntity
  8
Converter
100
AcDbMText
 10
22.49443296951564
 20
21.57963668849805
 30
0.0
 40
0.1
 41
0.0
 46
0.0
 71
     7
 72
     1
  1
3
 73
     1
 44
1.0
  0
MTEXT
  5
152E
330
1F
100
AcDbEntity
  8
Converter
100
AcDbMText
 10
22.60823830326508
 20
21.28780175035416
 30
0.0
 40
0.1
 41
0.0
 46
0.0
 71
     7
 72
     1
  1
4
 73
     1
 44
1.0
  0
LEADER
  5
152F
330
1F
100
AcDbEntity
  8
Dimensions
100
AcDbLeader
  3
Standard
 73
     0
 76
     3
 10
22.27545543425734
 20
21.35288824746885
 30
0.0
 10
22.43656647307062
 20
21.94361656247883
 30
0.0
 10
22.33520755882454
 20
21.94361656247883
 30
0.0
213
0.0
223
0.0625
233
0.0
1001
ACAD
1000
DSTYLE
1002
{
1070
     5
1000

1070
    77
1070
     0
1070
   147
1040
0.09
1002
}
  0
MTEXT
  5
1530
102
{ACAD_XDICTIONARY
360
1531
102
}
330
1F
100
AcDbEntity
  8
Dimensions
100
AcDbMText
 10
21.74099982649075
 20
21.92775674258707
 30
0.0
 40
0.1
 41
0.0
 46
0.0
 71
     7
 72
     1
  1
Cal. ADJ
 73
     1
 44
1.0
  0
LINE
  5
1544
330
1F
100
AcDbEntity
  8
Converter
100
AcDbLine
 10
26.41406863726856
 20
17.17753786746637
 30
0.0
 11
25.45548999350587
 21
17.17753786746639
 31
0.0
  0
ARC
  5
1545
330
1F
100
AcDbEntity
  8
Converter
100
AcDbCircle
 10
25.45548999350587
 20
17.24824854558504
 30
0.0
 40
0.0707106781186547
100
AcDbArc
 50
179.9999999999992
 51
269.9999999999992
  0
ARC
  5
1546
330
1F
100
AcDbEntity
  8
Converter
100
AcDbCircle
 10
26.41406863726856
 20
17.24824854558503
 30
0.0
 40
0.0707106781186547
100
AcDbArc
 50
269.9999999999992
 51
359.9999999999992
  0
LINE
  5
1547
330
1F
100
AcDbEntity
  8
Converter
100
AcDbLine
 10
25.38477931538721
 20
17.24824854558504
 30
0.0
 11
25.38477931538722
 21
17.67753786746639
 31
0.0
  0
LINE
  5
1548
330
1F
100
AcDbEntity
  8
Converter
100
AcDbLine
 10
25.38477931538722
 20
17.67753786746639
 30
0.0
 11
26.48477931538722
 21
17.67753786746637
 31
0.0
  0
LINE
  5
1549
330
1F
100
AcDbEntity
  8
Converter
100
AcDbLine
 10
26.48477931538722
 20
17.67753786746637
 30
0.0
 11
26.48477931538721
 21
17.24824854558502
 31
0.0
  0
LINE
  5
154A
330
1F
100
AcDbEntity
  8
Converter
100
AcDbLine
 10
25.57477931538722
 20
17.87753786746641
 30
0.0
 11
25.61477931538722
 21
17.87753786746641
 31
0.0
  0
LINE
  5
154B
330
1F
100
AcDbEntity
  8
Converter
100
AcDbLine
 10
25.82477931538722
 20
17.87753786746639
 30
0.0
 11
25.86477931538722
 21
17.87753786746639
 31
0.0
  0
LINE
  5
1552
330
1F
100
AcDbEntity
  8
Converter
100
AcDbLine
 10
25.86477931538722
 20
17.87753786746639
 30
0.0
 11
25.86477931538722
 21
17.67753786746639
 31
0.0
  0
LINE
  5
1553
330
1F
100
AcDbEntity
  8
Converter
100
AcDbLine
 10
25.82477931538722
 20
17.87753786746639
 30
0.0
 11
25.82477931538722
 21
17.67753786746639
 31
0.0
  0
LINE
  5
1554
330
1F
100
AcDbEntity
  8
Converter
100
AcDbLine
 10
25.61477931538722
 20
17.87753786746641
 30
0.0
 11
25.61477931538721
 21
17.67753786746641
 31
0.0
  0
LINE
  5
1555
330
1F
100
AcDbEntity
  8
Converter
100
AcDbLine
 10
25.57477931538722
 20
17.87753786746641
 30
0.0
 11
25.57477931538721
 21
17.67753786746641
 31
0.0
  0
LEADER
  5
1556
330
1F
100
AcDbEntity
  8
Dimensions
100
AcDbLeader
  3
Standard
 73
     0
 76
     3
 10
23.11949569617243
 20
17.13573767963306
 30
0.0
 10
23.4490564254364
 20
16.70238310961757
 30
0.0
 10
23.85366170272158
 20
16.70238310961757
 30
0.0
213
0.0
223
0.0625
233
0.0
1001
ACAD
1000
DSTYLE
1002
{
1070
     5
1000

1070
    77
1070
     0
1070
   147
1040
0.09
1002
}
  0
MTEXT
  5
1557
102
{ACAD_REACTORS
330
1556
102
}
330
1F
100
AcDbEntity
  8
Dimensions
100
AcDbMText
 10
23.92730553146009
 20
16.67163325635301
 30
0.0
 40
0.1
 41
0.0
 46
0.0
 71
     7
 72
     1
  1
Nickel^IPlated Metal
 73
     1
 44
1.0
  0
CIRCLE
  5
1740
102
{ACAD_REACTORS
330
1764
102
}
330
1F
100
AcDbEntity
  8
Converter
100
AcDbCircle
 10
21.64086676386602
 20
21.73540063817965
 30
0.0
 40
0.02
  0
CIRCLE
  5
1741
102
{ACAD_REACTORS
330
17C2
102
}
330
1F
100
AcDbEntity
  8
Converter
100
AcDbCircle
 10
22.54086676386601
 20
21.73540063817965
 30
0.0
 40
0.02
  0
CIRCLE
  5
1742
102
{ACAD_REACTORS
330
17DF
102
}
330
1F
100
AcDbEntity
  8
Converter
100
AcDbCircle
 10
22.94086676386601
 20
21.73540063817965
 30
0.0
 40
0.02
  0
CIRCLE
  5
1743
330
1F
100
AcDbEntity
  8
Converter
100
AcDbCircle
 10
22.94086676386601
 20
20.98540063817965
 30
0.0
 40
0.02
  0
CIRCLE
  5
1744
102
{ACAD_REACTORS
330
17FB
102
}
330
1F
100
AcDbEntity
  8
Converter
100
AcDbCircle
 10
22.94086676386601
 20
21.23540063817965
 30
0.0
 40
0.02
  0
CIRCLE
  5
1745
102
{ACAD_REACTORS
330
1856
102
}
330
1F
100
AcDbEntity
  8
Converter
100
AcDbCircle
 10
22.39086676386602
 20
21.23540063817965
 30
0.0
 40
0.02
  0
CIRCLE
  5
1746
102
{ACAD_REACTORS
330
1870
102
}
330
1F
100
AcDbEntity
  8
Converter
100
AcDbCircle
 10
22.69086676386601
 20
21.23540063817965
 30
0.0
 40
0.02
  0
MTEXT
  5
1747
330
1F
100
AcDbEntity
  8
Converter
100
AcDbMText
 10
21.66865398905785
 20
21.58543376071732
 30
0.0
 40
0.1
 41
0.0
 46
0.0
 71
     7
 72
     1
  1
8
 73
     1
 44
1.0
  0
MTEXT
  5
1748
330
1F
100
AcDbEntity
  8
Converter
100
AcDbMText
 10
22.84446628276127
 20
21.28780175035416
 30
0.0
 40
0.1
 41
0.0
 46
0.0
 71
     7
 72
     1
  1
6
 73
     1
 44
1.0
  0
MTEXT
  5
1749
330
1F
100
AcDbEntity
  8
Converter
100
AcDbMText
 10
22.85640823373809
 20
20.85152592343377
 30
0.0
 40
0.1
 41
0.0
 46
0.0
 71
     7
 72
     1
  1
7
 73
     1
 44
1.0
  0
DIMENSION
  5
174B
102
{ACAD_XDICTIONARY
360
1759
102
}
102
{ACAD_REACTORS
330
1764
102
}
330
1F
100
AcDbEntity
  8
Dimensions
100
AcDbDimension
280
     0
  2
*D8
 10
20.45726597983839
 20
21.73540063817965
 30
0.0
 11
20.45726597983839
 21
21.40559434228193
 31
0.0
 70
   160
 71
     5
 42
0.75
 73
     0
 74
     0
 75
     0
  3
Standard
100
AcDbAlignedDimension
 13
21.64086676386602
 23
20.98540063817965
 33
0.0
 14
21.64086676386602
 24
21.73540063817965
 34
0.0
 50
90.0
100
AcDbRotatedDimension
1001
ACAD
1000
DSTYLE
1002
{
1070
   271
1070
     3
1002
}
  0
DIMENSION
  5
1779
330
1F
100
AcDbEntity
  8
Dimensions
100
AcDbDimension
280
     0
  2
*D9
 10
21.20832476959288
 20
21.20540063817965
 30
0.0
 11
20.54141481052057
 21
20.3962445312058
 31
0.0
 70
   160
 71
     5
 42
0.2199999999999989
 73
     0
 74
     0
 75
     0
  3
Standard
100
AcDbAlignedDimension
 13
21.64086676386602
 23
20.98540063817965
 33
0.0
 14
22.21586676386602
 24
21.20540063817965
 34
0.0
 50
90.0
100
AcDbRotatedDimension
1001
ACAD
1000
DSTYLE
1002
{
1070
   271
1070
     3
1002
}
  0
DIMENSION
  5
17A9
102
{ACAD_XDICTIONARY
360
17B7
102
}
102
{ACAD_REACTORS
330
17C2
102
}
330
1F
100
AcDbEntity
  8
Dimensions
100
AcDbDimension
280
     0
  2
*D10
 10
22.54086676386601
 20
22.49613089075716
 30
0.0
 11
20.8852854920167
 21
22.49613089075716
 31
0.0
 70
   160
 71
     5
 42
0.8999999999999985
 73
     0
 74
     0
 75
     0
  3
Standard
100
AcDbAlignedDimension
 13
21.64086676386602
 23
21.74540063817965
 33
0.0
 14
22.54086676386601
 24
21.73540063817965
 34
0.0
100
AcDbRotatedDimension
1001
ACAD
1000
DSTYLE
1002
{
1070
   271
1070
     3
1002
}
  0
DIMENSION
  5
17C6
102
{ACAD_XDICTIONARY
360
17D4
102
}
102
{ACAD_REACTORS
330
17DF
102
}
330
1F
100
AcDbEntity
  8
Dimensions
100
AcDbDimension
280
     0
  2
*D11
 10
22.94086676386601
 20
22.81477100160374
 30
0.0
 11
20.93128115677188
 21
22.81477100160374
 31
0.0
 70
   160
 71
     5
 42
1.3
 73
     0
 74
     0
 75
     0
  3
Standard
100
AcDbAlignedDimension
 13
21.64086676386602
 23
21.74540063817965
 33
0.0
 14
22.94086676386601
 24
21.73540063817965
 34
0.0
100
AcDbRotatedDimension
1001
ACAD
1000
DSTYLE
1002
{
1070
   271
1070
     3
1002
}
  0
DIMENSION
  5
17E0
102
{ACAD_XDICTIONARY
360
17EF
102
}
102
{ACAD_REACTORS
330
17FB
102
}
330
1F
100
AcDbEntity
  8
Dimensions
100
AcDbDimension
280
     0
  2
*D12
 10
23.63991770513382
 20
20.78540063817965
 30
0.0
 11
24.3553866682989
 21
21.58117162336902
 31
0.0
 70
   160
 71
     5
 42
0.4499999999999993
 73
     0
 74
     0
 75
     0
  3
Standard
100
AcDbAlignedDimension
 13
22.94086676386601
 23
21.23540063817965
 33
0.0
 14
23.07086676386602
 24
20.78540063817965
 34
0.0
 50
90.0
100
AcDbRotatedDimension
1001
ACAD
1000
DSTYLE
1002
{
1070
   271
1070
     3
1002
}
  0
DIMENSION
  5
17FC
102
{ACAD_XDICTIONARY
360
180B
102
}
102
{ACAD_REACTORS
330
1817
102
}
330
1F
100
AcDbEntity
  8
Dimensions
100
AcDbDimension
280
     0
  2
*D13
 10
23.41092173654631
 20
20.98540063817965
 30
0.0
 11
23.70291013755606
 21
20.44374312926023
 31
0.0
 70
   160
 71
     5
 42
0.1999999999999993
 73
     0
 74
     0
 75
     0
  3
Standard
100
AcDbAlignedDimension
 13
23.07086676386602
 23
20.78540063817965
 33
0.0
 14
22.94086676386601
 24
20.98540063817965
 34
0.0
 50
90.0
100
AcDbRotatedDimension
1001
ACAD
1000
DSTYLE
1002
{
1070
   271
1070
     3
1070
   279
1070
     1
1002
}
  0
DIMENSION
  5
1823
102
{ACAD_XDICTIONARY
360
1831
102
}
102
{ACAD_REACTORS
330
183C
102
}
330
1F
100
AcDbEntity
  8
Dimensions
100
AcDbDimension
280
     0
  2
*D14
 10
22.21586676386602
 20
20.17357271574203
 30
0.0
 11
20.92539780070094
 21
20.17357271574203
 31
0.0
 70
   160
 71
     5
 42
0.5750000000000029
 73
     0
 74
     0
 75
     0
  3
Standard
100
AcDbAlignedDimension
 13
21.64086676386602
 23
20.99540063817965
 33
0.0
 14
22.21586676386602
 24
21.20540063817965
 34
0.0
100
AcDbRotatedDimension
1001
ACAD
1000
DSTYLE
1002
{
1070
   271
1070
     3
1002
}
  0
DIMENSION
  5
183D
102
{ACAD_XDICTIONARY
360
184B
102
}
102
{ACAD_REACTORS
330
1856
102
}
330
1F
100
AcDbEntity
  8
Dimensions
100
AcDbDimension
280
     0
  2
*D15
 10
22.39086676386602
 20
19.86887087273273
 30
0.0
 11
20.92539780070094
 21
19.86887087273273
 31
0.0
 70
   160
 71
     5
 42
0.75
 73
     0
 74
     0
 75
     0
  3
Standard
100
AcDbAlignedDimension
 13
21.64086676386602
 23
20.99540063817965
 33
0.0
 14
22.39086676386602
 24
21.23540063817965
 34
0.0
100
AcDbRotatedDimension
1001
ACAD
1000
DSTYLE
1002
{
1070
   271
1070
     3
1002
}
  0
DIMENSION
  5
1857
102
{ACAD_XDICTIONARY
360
1865
102
}
102
{ACAD_REACTORS
330
1870
102
}
330
1F
100
AcDbEntity
  8
Dimensions
100
AcDbDimension
280
     0
  2
*D16
 10
22.69086676386601
 20
19.48332739734314
 30
0.0
 11
20.97984016086465
 21
19.48332739734314
 31
0.0
 70
   160
 71
     5
 42
1.05
 73
     0
 74
     0
 75
     0
  3
Standard
100
AcDbAlignedDimension
 13
21.64086676386602
 23
20.99540063817965
 33
0.0
 14
22.69086676386601
 24
21.23540063817965
 34
0.0
100
AcDbRotatedDimension
  0
DIMENSION
  5
1885
330
1F
100
AcDbEntity
  8
Dimensions
100
AcDbDimension
280
     0
  2
*D17
 10
21.64086676386602
 20
22.16475152345822
 30
0.0
 11
20.52895680479371
 21
22.16475152345822
 31
0.0
 70
   160
 71
     5
 42
0.3200000000000003
 73
     0
 74
     0
 75
     0
  3
Standard
100
AcDbAlignedDimension
 13
21.32086676386601
 23
21.88540063817965
 33
0.0
 14
21.64086676386602
 24
21.73540063817965
 34
0.0
100
AcDbRotatedDimension
1001
ACAD
1000
DSTYLE
1002
{
1070
   271
1070
     3
1002
}
  0
LINE
  5
18F4
330
1F
100
AcDbEntity
  8
Dimensions
  6
PHANTOM2
 48
0.1
100
AcDbLine
 10
21.64086676386602
 20
21.73540063817965
 30
0.0
 11
21.64086676386602
 21
20.98540063817965
 31
0.0
  0
LINE
  5
18F5
330
1F
100
AcDbEntity
  8
Dimensions
  6
PHANTOM2
 48
0.1
100
AcDbLine
 10
21.64086676386602
 20
21.73540063817965
 30
0.0
 11
22.54086676386601
 21
21.73540063817965
 31
0.0
  0
LINE
  5
18F6
330
1F
100
AcDbEntity
  8
Dimensions
  6
PHANTOM2
 48
0.1
100
AcDbLine
 10
22.54086676386601
 20
21.73540063817965
 30
0.0
 11
22.94086676386601
 21
21.73540063817965
 31
0.0
  0
LINE
  5
18F7
330
1F
100
AcDbEntity
  8
Dimensions
  6
PHANTOM2
 48
0.1
100
AcDbLine
 10
22.39086676386602
 20
21.23540063817965
 30
0.0
 11
22.69086676386601
 21
21.23540063817965
 31
0.0
  0
LINE
  5
18F8
330
1F
100
AcDbEntity
  8
Dimensions
  6
PHANTOM2
 48
0.1
100
AcDbLine
 10
22.69086676386601
 20
21.23540063817965
 30
0.0
 11
22.94086676386601
 21
21.23540063817965
 31
0.0
  0
LINE
  5
18F9
330
1F
100
AcDbEntity
  8
Dimensions
  6
PHANTOM2
 48
0.1
100
AcDbLine
 10
22.94086676386601
 20
20.98540063817965
 30
0.0
 11
22.94086676386601
 21
21.23540063817965
 31
0.0
  0
LINE
  5
18FA
330
1F
100
AcDbEntity
  8
Dimensions
  6
PHANTOM2
 48
0.1
100
AcDbLine
 10
22.94086676386601
 20
21.23540063817965
 30
0.0
 11
22.94086676386601
 21
21.73540063817965
 31
0.0
  0
LINE
  5
191A
330
1F
100
AcDbEntity
  8
Dimensions
  6
PHANTOM2
 48
0.1
100
AcDbLine
 10
21.64086676386602
 20
20.98540063817965
 30
0.0
 11
22.94086676386601
 21
20.98540063817965
 31
0.0
  0
LINE
  5
191B
330
1F
100
AcDbEntity
  8
Converter
100
AcDbLine
 10
26.32477931538722
 20
17.87753786746641
 30
0.0
 11
26.36477931538722
 21
17.87753786746641
 31
0.0
  0
LINE
  5
191C
330
1F
100
AcDbEntity
  8
Converter
100
AcDbLine
 10
26.36477931538722
 20
17.87753786746641
 30
0.0
 11
26.36477931538721
 21
17.67753786746641
 31
0.0
  0
LINE
  5
191D
330
1F
100
AcDbEntity
  8
Converter
100
AcDbLine
 10
26.32477931538722
 20
17.87753786746641
 30
0.0
 11
26.32477931538721
 21
17.67753786746641
 31
0.0
  0
LINE
  5
191E
330
1F
100
AcDbEntity
  8
Converter
100
AcDbLine
 10
17.97766489046347
 20
17.17753786746637
 30
0.0
 11
18.93624353422616
 21
17.17753786746639
 31
0.0
  0
ARC
  5
191F
330
1F
100
AcDbEntity
  8
Converter
100
AcDbCircle
 10
18.93624353422616
 20
17.24824854558504
 30
0.0
 40
0.0707106781186547
100
AcDbArc
 50
270.0000000000008
 51
0.0000000000008212
  0
ARC
  5
1920
330
1F
100
AcDbEntity
  8
Converter
100
AcDbCircle
 10
17.97766489046347
 20
17.24824854558503
 30
0.0
 40
0.0707106781186547
100
AcDbArc
 50
180.0000000000008
 51
270.0000000000008
  0
LINE
  5
1921
330
1F
100
AcDbEntity
  8
Converter
100
AcDbLine
 10
19.00695421234482
 20
17.24824854558504
 30
0.0
 11
19.00695421234481
 21
17.67753786746639
 31
0.0
  0
LINE
  5
1922
330
1F
100
AcDbEntity
  8
Converter
100
AcDbLine
 10
19.00695421234481
 20
17.67753786746639
 30
0.0
 11
17.9069542123448
 21
17.67753786746637
 31
0.0
  0
LINE
  5
1923
330
1F
100
AcDbEntity
  8
Converter
100
AcDbLine
 10
17.90695421234481
 20
17.67753786746637
 30
0.0
 11
17.90695421234481
 21
17.24824854558502
 31
0.0
  0
LINE
  5
1924
330
1F
100
AcDbEntity
  8
Converter
100
AcDbLine
 10
18.81695421234481
 20
17.87753786746641
 30
0.0
 11
18.77695421234481
 21
17.87753786746641
 31
0.0
  0
LINE
  5
1925
330
1F
100
AcDbEntity
  8
Converter
100
AcDbLine
 10
18.56695421234481
 20
17.87753786746639
 30
0.0
 11
18.52695421234481
 21
17.87753786746639
 31
0.0
  0
LINE
  5
1926
330
1F
100
AcDbEntity
  8
Converter
100
AcDbLine
 10
18.52695421234481
 20
17.87753786746639
 30
0.0
 11
18.52695421234481
 21
17.67753786746639
 31
0.0
  0
LINE
  5
1927
330
1F
100
AcDbEntity
  8
Converter
100
AcDbLine
 10
18.56695421234481
 20
17.87753786746639
 30
0.0
 11
18.56695421234481
 21
17.67753786746639
 31
0.0
  0
LINE
  5
1928
330
1F
100
AcDbEntity
  8
Converter
100
AcDbLine
 10
18.77695421234481
 20
17.87753786746641
 30
0.0
 11
18.77695421234482
 21
17.67753786746641
 31
0.0
  0
LINE
  5
1929
330
1F
100
AcDbEntity
  8
Converter
100
AcDbLine
 10
18.81695421234481
 20
17.87753786746641
 30
0.0
 11
18.81695421234482
 21
17.67753786746641
 31
0.0
  0
LINE
  5
192A
330
1F
100
AcDbEntity
  8
Converter
100
AcDbLine
 10
18.06695421234481
 20
17.87753786746641
 30
0.0
 11
18.02695421234481
 21
17.87753786746641
 31
0.0
  0
LINE
  5
192B
330
1F
100
AcDbEntity
  8
Converter
100
AcDbLine
 10
18.02695421234481
 20
17.87753786746641
 30
0.0
 11
18.02695421234482
 21
17.67753786746641
 31
0.0
  0
LINE
  5
192C
330
1F
100
AcDbEntity
  8
Converter
100
AcDbLine
 10
18.06695421234481
 20
17.87753786746641
 30
0.0
 11
18.06695421234482
 21
17.67753786746641
 31
0.0
  0
ACAD_TABLE
  5
197E
330
1F
100
AcDbEntity
  8
Dimensions
160
              5896
310
0817000082000000880000001D000000000000000000F03F0000000000000000000000000000000096E149210B322D400000000000000000000000000000F03F000000000000000066A919DE1436304000000000000000000000000000000000000000000000F03F0000000000000000000000000000000000000000000000
310
000000000000000000000000000000F03F0C00000016000000010000C30C00000017000000FDFFFFFF0C0000001200000000000000B400000026000000E9B442B5CDCFD93F804E1BE8B481D6BF000000000000000000000000000000000000000000000000000000000000F03F000000000000F03F00000000000000000000
310
000000000000230000000100000001000000000000000000D03F000000000000F03F0000000000000000000000000000F03F00000000000000000000000000000000000000000000000000000000010000002200000041007200690061006C00000000000000000060290C00000016000000010000C30C00000017000000FD
310
FFFFFF0C0000001200000000000000C400000026000000D8D08D8C10F7FF3F804E1BE8B481D6BF000000000000000000000000000000000000000000000000000000000000F03F000000000000F03F00000000000000000000000000000000460055004E004300540049004F004E0000000000080000000100000000000000
310
0000D03F000000000000F03F0000000000000000000000000000F03F00000000000000000000000000000000000000000100000000000000010000002200000041007200690061006C0000000000000000005C000C00000016000000010000C30C00000017000000FDFFFFFF0C0000001200000000000000B4000000260000
310
00F9B074233E20DC3F7B5BFB5AD235E6BF000000000000000000000000000000000000000000000000000000000000F03F000000000000F03F000000000000000000000000000000003100000001000000010000000AD7A3703D0AC73F000000000000F03F0000000000000000000000000000F03F00000000000000000000
310
000000000000000000000000000000000000010000002200000041007200690061006C00000000000000000000000C00000016000000010000C30C00000017000000FDFFFFFF0C0000001200000000000000C40000002600000014160D0591510140C3974C40F049E6BF000000000000000000000000000000000000000000
310
000000000000000000F03F000000000000F03F000000000000000000000000000000004800560020004F0055005400500055005400000009000000010000000AD7A3703D0AC73F000000000000F03F0000000000000000000000000000F03F0000000000000000000000000000000000000000000000000000000001000000
310
2200000041007200690061006C00000000000000000000000C00000016000000010000C30C00000017000000FDFFFFFF0C0000001200000000000000B40000002600000080348A2FA1B6DB3F7EA3A68978DDF0BF000000000000000000000000000000000000000000000000000000000000F03F000000000000F03F000000
310
000000000000000000000000003200000001000000010000000AD7A3703D0AC73F000000000000F03F0000000000000000000000000000F03F00000000000000000000000000000000000000000000000000000000010000002200000041007200690061006C0000000000000000006E000C00000016000000010000C30C00
310
000017000000FDFFFFFF0C0000001200000000000000D400000026000000DD996135F015F93FA2414F7C87E7F0BF000000000000000000000000000000000000000000000000000000000000F03F000000000000F03F0000000000000000000000000000000043004F004E00540052004F004C002F002000500052004F0047
310
00520041004D000000200010000000010000000AD7A3703D0AC73F000000000000F03F0000000000000000000000000000F03F00000000000000000000000000000000000000000000000000000000010000002200000041007200690061006C00000000000000000073000C00000016000000010000C30C00000017000000
310
FDFFFFFF0C0000001200000000000000B400000026000000B9453DE6638DDB3F3E99CFE507A0F6BF000000000000000000000000000000000000000000000000000000000000F03F000000000000F03F000000000000000000000000000000003300000001000000010000000AD7A3703D0AC73F000000000000F03F000000
310
0000000000000000000000F03F00000000000000000000000000000000000000000000000000000000010000002200000041007200690061006C000000000000000000D8930C00000016000000010000C30C00000017000000FDFFFFFF0C0000001200000000000000B800000026000000EFC324A298F4044046FC221996A9
310
F6BF000000000000000000000000000000000000000000000000000000000000F03F000000000000F03F0000000000000000000000000000000047004E004400000003000000010000000AD7A3703D0AC73F000000000000F03F0000000000000000000000000000F03F000000000000000000000000000000000000000000
310
00000000000000010000002200000041007200690061006C000000000000000000A93F0C00000016000000010000C30C00000017000000FDFFFFFF0C0000001200000000000000B400000026000000DABF2F8EC6CFDB3F592CF9C5925FFCBF000000000000000000000000000000000000000000000000000000000000F03F
310
000000000000F03F000000000000000000000000000000003400000001000000010000000AD7A3703D0AC73F000000000000F03F0000000000000000000000000000F03F00000000000000000000000000000000000000000000000000000000010000002200000041007200690061006C00000000000000000000000C0000
310
0016000000010000C30C00000017000000FDFFFFFF0C0000001200000000000000D400000026000000BE5FA1F4DEDCF73F222DA134A66CFCBF000000000000000000000000000000000000000000000000000000000000F03F000000000000F03F000000000000000000000000000000005200450046004500520045004E00
310
43004500200056004F004C005400410047004500000011000000010000000AD7A3703D0AC73F000000000000F03F0000000000000000000000000000F03F00000000000000000000000000000000000000000000000000000000010000002200000041007200690061006C00000000000000000041000C0000001600000001
310
0000C30C00000017000000FDFFFFFF0C0000001200000000000000B40000002600000096A794F35483DB3F0D111111111101C0000000000000000000000000000000000000000000000000000000000000F03F000000000000F03F000000000000000000000000000000003500000001000000010000000AD7A3703D0AC73F
310
000000000000F03F0000000000000000000000000000F03F00000000000000000000000000000000000000000000000000000000010000002200000041007200690061006C00000000000000000000A00C00000016000000010000C30C00000017000000FDFFFFFF0C0000001200000000000000C8000000260000008179B4
310
EFA8610140E373BA685A1701C0000000000000000000000000000000000000000000000000000000000000F03F000000000000F03F00000000000000000000000000000000430041005300450020002F00200047004E00440000006E000A000000010000000AD7A3703D0AC73F000000000000F03F00000000000000000000
310
00000000F03F00000000000000000000000000000000000000000000000000000000010000002200000041007200690061006C00000000000000000000000C00000016000000010000C30C00000017000000FDFFFFFF0C0000001200000000000000B400000026000000DDE3E5D87297DB3F3F3D25FDDAF303C00000000000
310
00000000000000000000000000000000000000000000000000F03F000000000000F03F000000000000000000000000000000003600000001000000010000000AD7A3703D0AC73F000000000000F03F0000000000000000000000000000F03F0000000000000000000000000000000000000000000000000000000001000000
310
2200000041007200690061006C00000000000000000000000C00000016000000010000C30C00000017000000FDFFFFFF0C0000001200000000000000C000000026000000E4F8518E37450340ED8B25BF58F203C0000000000000000000000000000000000000000000000000000000000000F03F000000000000F03F000000
310
000000000000000000000000002B00200049004E00500055005400000007000000010000000AD7A3703D0AC73F000000000000F03F0000000000000000000000000000F03F00000000000000000000000000000000000000000000000000000000010000002200000041007200690061006C00000000000000000000000C00
310
000016000000010000C30C00000017000000FDFFFFFF0C0000001200000000000000B4000000260000005F31EA745382DB3FCD063A6DA0D306C0000000000000000000000000000000000000000000000000000000000000F03F000000000000F03F000000000000000000000000000000003700000001000000010000000A
310
D7A3703D0AC73F000000000000F03F0000000000000000000000000000F03F00000000000000000000000000000000000000000000000000000000010000002200000041007200690061006C00000000000000000000000C00000016000000010000C30C00000017000000FDFFFFFF0C0000001200000000000000D0000000
310
26000000508D5BE28AD6FA3F31078E242ADA06C0000000000000000000000000000000000000000000000000000000000000F03F000000000000F03F0000000000000000000000000000000056004F004C00540041004700450020004D004F004E00490054004F00520000000F000000010000000AD7A3703D0AC73F000000
310
000000F03F0000000000000000000000000000F03F00000000000000000000000000000000000000000000000000000000010000002200000041007200690061006C00000000000000000065000C00000016000000010000C30C00000017000000FDFFFFFF0C0000001200000000000000B400000026000000BA453DE6638D
310
DB3FFF324E596AB609C0000000000000000000000000000000000000000000000000000000000000F03F000000000000F03F000000000000000000000000000000003800000001000000010000000AD7A3703D0AC73F000000000000F03F0000000000000000000000000000F03F0000000000000000000000000000000000
310
0000000000000000000000010000002200000041007200690061006C00000000000000000000000C00000016000000010000C30C00000017000000FDFFFFFF0C0000001200000000000000C4000000260000002E16E27233530140AD814E1BE8B409C000000000000000000000000000000000000000000000000000000000
310
0000F03F000000000000F03F00000000000000000000000000000000480056002000520045005400550052004E00000009000000010000000AD7A3703D0AC73F000000000000F03F0000000000000000000000000000F03F000000000000000000000000000000000000000000000000000000000100000022000000410072
310
00690061006C0000000000000000006C290C00000016000000010000C30C00000017000000FDFFFFFF0C0000001200000000000000540000002000000002000000000000000000000000000000000000000000000000000000F03430FBCA301340000000000000000000000000000000000000000000000000000000000000
310
0000000000000000F03F0C00000016000000010000C30C00000017000000FDFFFFFF0C00000012000000000000005400000020000000020000000000000000000000009D36D06903DDBF0000000000000000F03430FBCA301340009D36D06903DDBF0000000000000000000000000000000000000000000000000000000000
310
00F03F0C00000016000000010000C30C00000017000000FDFFFFFF0C00000012000000000000005400000020000000020000000000000000000000003A6DA0D306EABF0000000000000000F03430FBCA301340003A6DA0D306EABF000000000000000000000000000000000000000000000000000000000000F03F0C000000
310
16000000010000C30C00000017000000FDFFFFFF0C00000012000000000000005400000020000000020000000000000000000000C0925F2CF9C5F2BF0000000000000000F03430FBCA301340C0925F2CF9C5F2BF000000000000000000000000000000000000000000000000000000000000F03F0C00000016000000010000
310
C30C00000017000000FDFFFFFF0C00000012000000000000005400000020000000020000000000000000000000808888888888F8BF0000000000000000F03430FBCA301340808888888888F8BF000000000000000000000000000000000000000000000000000000000000F03F0C00000016000000010000C30C0000001700
310
0000FDFFFFFF0C00000012000000000000005400000020000000020000000000000000000000407EB1E4174BFEBF0000000000000000F03430FBCA301340407EB1E4174BFEBF000000000000000000000000000000000000000000000000000000000000F03F0C00000016000000010000C30C00000017000000FDFFFFFF0C
310
00000012000000000000005400000020000000020000000000000000000000003A6DA0D30602C00000000000000000F03430FBCA301340003A6DA0D30602C0000000000000000000000000000000000000000000000000000000000000F03F0C00000016000000010000C30C00000017000000FDFFFFFF0C00000012000000
310
000000005400000020000000020000000000000000000000E0B4814E1BE804C00000000000000000F03430FBCA301340E0B4814E1BE804C0000000000000000000000000000000000000000000000000000000000000F03F0C00000016000000010000C30C00000017000000FDFFFFFF0C0000001200000000000000540000
310
0020000000020000000000000000000000C02F96FC62C907C00000000000000000F03430FBCA301340C02F96FC62C907C0000000000000000000000000000000000000000000000000000000000000F03F0C00000016000000010000C30C00000017000000FDFFFFFF0C000000120000000000000054000000200000000200
310
00000000000000000000A0AAAAAAAAAA0AC00000000000000000F03430FBCA301340A0AAAAAAAAAA0AC0000000000000000000000000000000000000000000000000000000000000F03F0C00000016000000010000C30C00000017000000FDFFFFFF0C00000012000000000000005400000020000000020000000000000000
310
000000000000000000000000000000000000000000000000000000A0AAAAAAAAAA0AC0000000000000000000000000000000000000000000000000000000000000F03F0C00000016000000010000C30C00000017000000FDFFFFFF0C0000001200000000000000540000002000000002000000000000000000F03F00000000
310
000000000000000000000000000000000000F03FA0AAAAAAAAAA0AC0000000000000000000000000000000000000000000000000000000000000F03F0C00000016000000010000C30C00000017000000FDFFFFFF0C0000001200000000000000540000002000000002000000F03430FBCA3013400000000000000000000000
310
0000000000F03430FBCA301340A0AAAAAAAAAA0AC0000000000000000000000000000000000000000000000000000000000000F03F0C00000016000000080000C30C00000017000000000000000C00000012000000000000005400000020000000020000000000000000000000000000000000000000000000000000000000
310
0000000000000000000000000000000000000000000000000000000000000000000000000000000000000000F03F080000001F000000
100
AcDbBlockReference
  2
*T18
 10
14.59774116541738
 20
16.21125591398722
 30
0.0
100
AcDbTable
280
     0
342
BCB
343
197F
 11
1.0
 21
0.0
 31
0.0
 90
       22
 91
        9
 92
        2
 93
        1
 94
        0
 95
        0
 96
        0
280
     1
141
0.4533333333333332
141
0.36
141
0.36
141
0.36
141
0.36
141
0.36
141
0.36
141
0.36
141
0.36
142
1.0
142
3.79764931184512
171
     1
172
     0
173
     0
174
     0
175
     1
176
     1
 91
   262176
178
     0
145
0.0
140
0.25
 92
        0
301
CELL_VALUE
 93
        6
 90
        4
  1
#
 94
        0
300

302
#
304
ACVALUE_END
171
     1
172
     0
173
     0
174
     0
175
     1
176
     1
 91
   262176
178
     0
145
0.0
140
0.25
 92
        0
301
CELL_VALUE
 93
        6
 90
        4
  1
{\fArial|b1|i0|c0|p34;FUNCTION}
 94
        0
300

302
{\fArial|b1|i0|c0|p34;FUNCTION}
304
ACVALUE_END
171
     1
172
     0
173
     0
174
     0
175
     1
176
     1
 91
   262144
178
     0
145
0.0
 92
        0
301
CELL_VALUE
 93
        6
 90
        1
 91
        1
 94
        0
300

302
1
304
ACVALUE_END
171
     1
172
     0
173
     0
174
     0
175
     1
176
     1
 91
   262144
178
     0
145
0.0
 92
        0
301
CELL_VALUE
 93
        6
 90
        4
  1
HV OUTPUT
 94
        0
300

302
HV OUTPUT
304
ACVALUE_END
171
     1
172
     0
173
     0
174
     0
175
     1
176
     1
 91
   262144
178
     0
145
0.0
 92
        0
301
CELL_VALUE
 93
        6
 90
        1
 91
        2
 94
        0
300

302
2
304
ACVALUE_END
171
     1
172
     0
173
     0
174
     0
175
     1
176
     1
 91
   262144
178
     0
145
0.0
 92
        0
301
CELL_VALUE
 93
        6
 90
        4
  1
CONTROL/ PROGRAM
 94
        0
300

302
CONTROL/ PROGRAM
304
ACVALUE_END
171
     1
172
     0
173
     0
174
     0
175
     1
176
     1
 91
   262144
178
     0
145
0.0
 92
        0
301
CELL_VALUE
 93
        6
 90
        1
 91
        3
 94
        0
300

302
3
304
ACVALUE_END
171
     1
172
     0
173
     0
174
     0
175
     1
176
     1
 91
   262144
178
     0
145
0.0
 92
        0
301
CELL_VALUE
 93
        6
 90
        4
  1
GND
 94
        0
300

302
GND
304
ACVALUE_END
171
     1
172
     0
173
     0
174
     0
175
     1
176
     1
 91
   262144
178
     0
145
0.0
 92
        0
301
CELL_VALUE
 93
        6
 90
        1
 91
        4
 94
        0
300

302
4
304
ACVALUE_END
171
     1
172
     0
173
     0
174
     0
175
     1
176
     1
 91
   262144
178
     0
145
0.0
 92
        0
301
CELL_VALUE
 93
        6
 90
        4
  1
REFERENCE VOLTAGE
 94
        0
300

302
REFERENCE VOLTAGE
304
ACVALUE_END
171
     1
172
     0
173
     0
174
     0
175
     1
176
     1
 91
   262144
178
     0
145
0.0
 92
        0
301
CELL_VALUE
 93
        6
 90
        1
 91
        5
 94
        0
300

302
5
304
ACVALUE_END
171
     1
172
     0
173
     0
174
     0
175
     1
176
     1
 91
   262144
178
     0
145
0.0
 92
        0
301
CELL_VALUE
 93
        6
 90
        4
  1
CASE / GND
 94
        0
300

302
CASE / GND
304
ACVALUE_END
171
     1
172
     0
173
     0
174
     0
175
     1
176
     1
 91
   262144
178
     0
145
0.0
 92
        0
301
CELL_VALUE
 93
        6
 90
        1
 91
        6
 94
        0
300

302
6
304
ACVALUE_END
171
     1
172
     0
173
     0
174
     0
175
     1
176
     1
 91
   262144
178
     0
145
0.0
 92
        0
301
CELL_VALUE
 93
        6
 90
        4
  1
+ INPUT
 94
        0
300

302
+ INPUT
304
ACVALUE_END
171
     1
172
     0
173
     0
174
     0
175
     1
176
     1
 91
   262144
178
     0
145
0.0
 92
        0
301
CELL_VALUE
 93
        6
 90
        1
 91
        7
 94
        0
300

302
7
304
ACVALUE_END
171
     1
172
     0
173
     0
174
     0
175
     1
176
     1
 91
   262144
178
     0
145
0.0
 92
        0
301
CELL_VALUE
 93
        6
 90
        4
  1
VOLTAGE MONITOR
 94
        0
300

302
VOLTAGE MONITOR
304
ACVALUE_END
171
     1
172
     0
173
     0
174
     0
175
     1
176
     1
 91
   262144
178
     0
145
0.0
 92
        0
301
CELL_VALUE
 93
        6
 90
        1
 91
        8
 94
        0
300

302
8
304
ACVALUE_END
171
     1
172
     0
173
     0
174
     0
175
     1
176
     1
 91
   262144
178
     0
145
0.0
 92
        0
301
CELL_VALUE
 93
        6
 90
        4
  1
HV RETURN
 94
        0
300

302
HV RETURN
304
ACVALUE_END
  0
LINE
  5
1A03
330
1F
100
AcDbEntity
  8
Converter
100
AcDbLine
 10
22.60086676386602
 20
17.87753786746641
 30
0.0
 11
22.56086676386602
 21
17.87753786746641
 31
0.0
  0
LINE
  5
1A04
330
1F
100
AcDbEntity
  8
Converter
100
AcDbLine
 10
22.56086676386602
 20
17.87753786746641
 30
0.0
 11
22.56086676386602
 21
17.67753786746641
 31
0.0
  0
LINE
  5
1A05
330
1F
100
AcDbEntity
  8
Converter
100
AcDbLine
 10
22.60086676386602
 20
17.87753786746641
 30
0.0
 11
22.60086676386602
 21
17.67753786746641
 31
0.0
  0
ENDSEC
  0
SECTION
  2
OBJECTS
  0
DICTIONARY
  5
C
330
0
100
AcDbDictionary
281
     1
  3
ACAD_CIP_PREVIOUS_PRODUCT_INFO
350
BE8
  3
ACAD_COLOR
350
73
  3
ACAD_DETAILVIEWSTYLE
350
BE3
  3
ACAD_GROUP
350
D
  3
ACAD_LAYOUT
350
1A
  3
ACAD_MATERIAL
350
72
  3
ACAD_MLEADERSTYLE
350
BDE
  3
ACAD_MLINESTYLE
350
17
  3
ACAD_PLOTSETTINGS
350
19
  3
ACAD_PLOTSTYLENAME
350
E
  3
ACAD_SCALELIST
350
BCC
  3
ACAD_SECTIONVIEWSTYLE
350
BE0
  3
ACAD_TABLESTYLE
350
BCA
  3
ACAD_VISUALSTYLE
350
BB1
  3
ACDB_RECOMPOSE_DATA
350
21AA
  3
AcDbVariableDictionary
350
66
  3
ASE_INDEX_DICTIONARY
350
3B8
  0
DICTIONARY
  5
BEB
330
2
100
AcDbDictionary
280
     1
281
     1
  3
ACAD_LAYERSTATES
360
BEC
  0
DICTIONARY
  5
DBC
330
10
100
AcDbDictionary
280
     1
281
     1
  3
ADSK_XREC_LAYER_RECONCILED
360
DBD
  0
DICTIONARY
  5
DBE
330
89
100
AcDbDictionary
280
     1
281
     1
  3
ADSK_XREC_LAYER_RECONCILED
360
DBF
  0
DICTIONARY
  5
DC0
330
FB
100
AcDbDictionary
280
     1
281
     1
  3
ADSK_XREC_LAYER_RECONCILED
360
DC1
  0
DICTIONARY
  5
DC2
330
2EF
100
AcDbDictionary
280
     1
281
     1
  3
ADSK_XREC_LAYER_RECONCILED
360
DC3
  0
DICTIONARY
  5
DC4
330
3BC
100
AcDbDictionary
280
     1
281
     1
  3
ADSK_XREC_LAYER_RECONCILED
360
DC5
  0
DICTIONARY
  5
DC6
330
608
100
AcDbDictionary
280
     1
281
     1
  3
ADSK_XREC_LAYER_RECONCILED
360
DC7
  0
DICTIONARY
  5
DC8
330
609
100
AcDbDictionary
280
     1
281
     1
  3
ADSK_XREC_LAYER_RECONCILED
360
DC9
  0
DICTIONARY
  5
DCA
330
C03
100
AcDbDictionary
280
     1
281
     1
  3
ADSK_XREC_LAYER_RECONCILED
360
DCB
  0
DICTIONARY
  5
12F2
330
12F1
100
AcDbDictionary
280
     1
281
     1
  0
DICTIONARY
  5
1951
330
1950
100
AcDbDictionary
280
     1
281
     1
  0
DICTIONARY
  5
151E
330
151D
100
AcDbDictionary
280
     1
281
     1
  3
ACAD_DIMASSOC
360
151F
  0
DICTIONARY
  5
1521
330
1520
100
AcDbDictionary
280
     1
281
     1
  3
ACAD_DIMASSOC
360
1522
  0
DICTIONARY
  5
1524
330
1523
100
AcDbDictionary
280
     1
281
     1
  3
ACAD_DIMASSOC
360
1525
  0
DICTIONARY
  5
1528
330
1527
100
AcDbDictionary
280
     1
281
     1
  3
ACAD_MTEXT_2008_RT
360
21A8
  0
DICTIONARY
  5
1531
330
1530
100
AcDbDictionary
280
     1
281
     1
  3
ACAD_MTEXT_2008_RT
360
21A9
  0
DICTIONARY
  5
1759
330
174B
100
AcDbDictionary
280
     1
281
     1
  3
ACAD_DIMASSOC
360
1764
  0
DICTIONARY
  5
17B7
330
17A9
100
AcDbDictionary
280
     1
281
     1
  3
ACAD_DIMASSOC
360
17C2
  0
DICTIONARY
  5
17D4
330
17C6
100
AcDbDictionary
280
     1
281
     1
  3
ACAD_DIMASSOC
360
17DF
  0
DICTIONARY
  5
17EF
330
17E0
100
AcDbDictionary
280
     1
281
     1
  3
ACAD_DIMASSOC
360
17FB
  0
DICTIONARY
  5
180B
330
17FC
100
AcDbDictionary
280
     1
281
     1
  3
ACAD_DIMASSOC
360
1817
  0
DICTIONARY
  5
1831
330
1823
100
AcDbDictionary
280
     1
281
     1
  3
ACAD_DIMASSOC
360
183C
  0
DICTIONARY
  5
184B
330
183D
100
AcDbDictionary
280
     1
281
     1
  3
ACAD_DIMASSOC
360
1856
  0
DICTIONARY
  5
1865
330
1857
100
AcDbDictionary
280
     1
281
     1
  3
ACAD_DIMASSOC
360
1870
  0
XRECORD
  5
BE8
102
{ACAD_REACTORS
330
C
102
}
330
C
100
AcDbXrecord
280
     1
300
ACDLT
300
2013
300
ACDLT_F_S
  0
DICTIONARY
  5
73
102
{ACAD_REACTORS
330
C
102
}
330
C
100
AcDbDictionary
281
     1
  0
DICTIONARY
  5
BE3
102
{ACAD_REACTORS
330
C
102
}
330
C
100
AcDbDictionary
281
     1
  3
Imperial24
350
BE4
  0
DICTIONARY
  5
D
102
{ACAD_REACTORS
330
C
102
}
330
C
100
AcDbDictionary
281
     1
  3
*A1
350
173F
  0
DICTIONARY
  5
1A
102
{ACAD_REACTORS
330
C
102
}
330
C
100
AcDbDictionary
281
     1
  3
Layout1
350
59
  3
Layout2
350
5E
  3
Model
350
22
  0
DICTIONARY
  5
72
102
{ACAD_REACTORS
330
C
102
}
330
C
100
AcDbDictionary
281
     1
  3
ByBlock
350
BA1
  3
ByLayer
350
B99
  3
Global
350
BA9
  0
DICTIONARY
  5
BDE
102
{ACAD_REACTORS
330
C
102
}
330
C
100
AcDbDictionary
281
     1
  3
Standard
350
BDF
  0
DICTIONARY
  5
17
102
{ACAD_REACTORS
330
C
102
}
330
C
100
AcDbDictionary
281
     1
  3
Standard
350
18
  0
DICTIONARY
  5
19
102
{ACAD_REACTORS
330
C
102
}
330
C
100
AcDbDictionary
281
     1
  0
ACDBDICTIONARYWDFLT
  5
E
102
{ACAD_REACTORS
330
C
102
}
330
C
100
AcDbDictionary
281
     1
  3
Normal
350
F
100
AcDbDictionaryWithDefault
340
F
  0
DICTIONARY
  5
BCC
102
{ACAD_REACTORS
330
C
102
}
330
C
100
AcDbDictionary
281
     1
  3
A0
350
BCD
  3
A1
350
BCE
  3
A2
350
BCF
  3
A3
350
BD0
  3
A4
350
BD1
  3
A5
350
BD2
  3
A6
350
BD3
  3
A7
350
BD4
  3
A8
350
BD5
  3
A9
350
BD6
  3
B0
350
BD7
  3
B1
350
BD8
  3
B2
350
BD9
  3
B3
350
BDA
  3
B4
350
BDB
  3
B5
350
BDC
  3
B6
350
BDD
  0
DICTIONARY
  5
BE0
102
{ACAD_REACTORS
330
C
102
}
330
C
100
AcDbDictionary
281
     1
  3
Imperial24
350
BE2
  0
DICTIONARY
  5
BCA
102
{ACAD_REACTORS
330
C
102
}
330
C
100
AcDbDictionary
281
     1
  3
Standard
350
BCB
  0
DICTIONARY
  5
BB1
102
{ACAD_REACTORS
330
C
102
}
330
C
100
AcDbDictionary
281
     1
  3
2dWireframe
350
BB7
  3
Basic
350
BB6
  3
Brighten
350
BBD
  3
ColorChange
350
BC1
  3
Conceptual
350
BBA
  3
Dim
350
BBC
  3
EdgeColorOff
350
BC9
  3
Facepattern
350
BC0
  3
Flat
350
BB2
  3
FlatWithEdges
350
BB3
  3
Gouraud
350
BB4
  3
GouraudWithEdges
350
BB5
  3
Hidden
350
BB9
  3
JitterOff
350
BC7
  3
Linepattern
350
BBF
  3
OverhangOff
350
BC8
  3
Realistic
350
BBB
  3
Shaded
350
BC6
  3
Shaded with edges
350
BC5
  3
Shades of Gray
350
BC2
  3
Sketchy
350
BC3
  3
Thicken
350
BBE
  3
Wireframe
350
BB8
  3
X-Ray
350
BC4
  0
XRECORD
  5
21AA
102
{ACAD_REACTORS
330
C
102
}
330
C
100
AcDbXrecord
280
     1
 90
        1
330
BCB
330
1527
330
1530
  0
DICTIONARY
  5
66
102
{ACAD_REACTORS
330
C
102
}
330
C
100
AcDbDictionary
281
     1
  3
CANNOSCALE
350
E15
  3
CMLEADERSTYLE
350
E11
  3
CTABLESTYLE
350
E10
  3
CVIEWDETAILSTYLE
350
E12
  3
CVIEWSECTIONSTYLE
350
E13
  3
DIMASSOC
350
67
  3
HIDETEXT
350
6B
  3
LAYEREVAL
350
E17
  3
LAYERNOTIFY
350
E18
  3
LIGHTINGUNITS
350
E16
  3
MSLTSCALE
350
E14
  0
DICTIONARY
  5
3B8
102
{ACAD_REACTORS
330
C
102
}
330
C
100
AcDbDictionary
281
     1
  3
ASEBlockHierarchyIndexRecord
350
3BA
1001
DCO15
1040
1708757302.563
  0
DICTIONARY
  5
BEC
102
{ACAD_REACTORS
330
BEB
102
}
330
BEB
100
AcDbDictionary
281
     1
  0
XRECORD
  5
DBD
102
{ACAD_REACTORS
330
DBC
102
}
330
DBC
100
AcDbXrecord
280
     1
290
     1
  0
XRECORD
  5
DBF
102
{ACAD_REACTORS
330
DBE
102
}
330
DBE
100
AcDbXrecord
280
     1
290
     1
  0
XRECORD
  5
DC1
102
{ACAD_REACTORS
330
DC0
102
}
330
DC0
100
AcDbXrecord
280
     1
290
     1
  0
XRECORD
  5
DC3
102
{ACAD_REACTORS
330
DC2
102
}
330
DC2
100
AcDbXrecord
280
     1
290
     1
  0
XRECORD
  5
DC5
102
{ACAD_REACTORS
330
DC4
102
}
330
DC4
100
AcDbXrecord
280
     1
290
     1
  0
XRECORD
  5
DC7
102
{ACAD_REACTORS
330
DC6
102
}
330
DC6
100
AcDbXrecord
280
     1
290
     1
  0
XRECORD
  5
DC9
102
{ACAD_REACTORS
330
DC8
102
}
330
DC8
100
AcDbXrecord
280
     1
290
     1
  0
XRECORD
  5
DCB
102
{ACAD_REACTORS
330
DCA
102
}
330
DCA
100
AcDbXrecord
280
     1
290
     1
  0
DIMASSOC
  5
151F
102
{ACAD_REACTORS
330
151E
102
}
330
151E
100
AcDbDimAssoc
330
151D
 90
        3
 70
     0
 71
     0
  1
AcDbOsnapPointRef
 72
     1
331
14DF
 73
     2
 91
        0
 40
1.0
 10
0.0
 20
0.0
 30
2.000000000000000E+50
 75
     0
  1
AcDbOsnapPointRef
 72
    13
331
14DD
 73
     2
 91
        0
 40
0.0
 10
0.0
 20
0.0
 30
2.000000000000000E+50
 75
     0
  0
DIMASSOC
  5
1522
102
{ACAD_REACTORS
330
1521
102
}
330
1521
100
AcDbDimAssoc
330
1520
 90
        3
 70
     0
 71
     0
  1
AcDbOsnapPointRef
 72
    13
331
14DB
 73
     2
 91
        0
 40
4.712388980384689
 10
0.0
 20
0.0
 30
2.000000000000000E+50
 75
     0
  1
AcDbOsnapPointRef
 72
    13
331
14DE
 73
     2
 91
        0
 40
0.0
 10
0.0
 20
0.0
 30
2.000000000000000E+50
 75
     0
  0
DIMASSOC
  5
1525
102
{ACAD_REACTORS
330
1524
102
}
330
1524
100
AcDbDimAssoc
330
1523
 90
        3
 70
     0
 71
     0
  1
AcDbOsnapPointRef
 72
    13
331
14ED
 73
     2
 91
        0
 40
0.0
 10
0.0
 20
0.0
 30
2.000000000000000E+50
 75
     0
  1
AcDbOsnapPointRef
 72
    13
331
14DF
 73
     2
 91
        0
 40
0.0
 10
0.0
 20
0.0
 30
2.000000000000000E+50
 75
     0
  0
XRECORD
  5
21A8
102
{ACAD_REACTORS
330
1528
102
}
330
1528
100
AcDbXrecord
280
     1
 40
154416.0
  1
PIN - 0.04 [1.02] Dia.\P\pxql;Tin Plated Brass\PMatte Finish 8 Plc
  0
XRECORD
  5
21A9
102
{ACAD_REACTORS
330
1531
102
}
330
1531
100
AcDbXrecord
280
     1
 40
2387.0
  1
\pxql;Cal. ADJ
  0
DIMASSOC
  5
1764
102
{ACAD_REACTORS
330
1759
102
}
330
1759
100
AcDbDimAssoc
330
174B
 90
        3
 70
     0
 71
     0
  1
AcDbOsnapPointRef
 72
     3
331
14E4
 73
     2
 91
        0
 40
0.0
 10
0.0
 20
0.0
 30
0.0
 75
     0
  1
AcDbOsnapPointRef
 72
     3
331
1740
 73
     2
 91
        0
 40
0.0
 10
0.0
 20
0.0
 30
0.0
 75
     0
  0
DIMASSOC
  5
17C2
102
{ACAD_REACTORS
330
17B7
102
}
330
17B7
100
AcDbDimAssoc
330
17A9
 90
        2
 70
     0
 71
     0
  1
AcDbOsnapPointRef
 72
     3
331
1741
 73
     2
 91
        0
 40
0.0
 10
0.0
 20
0.0
 30
0.0
 75
     0
  0
DIMASSOC
  5
17DF
102
{ACAD_REACTORS
330
17D4
102
}
330
17D4
100
AcDbDimAssoc
330
17C6
 90
        2
 70
     0
 71
     0
  1
AcDbOsnapPointRef
 72
     3
331
1742
 73
     2
 91
        0
 40
0.0
 10
0.0
 20
0.0
 30
0.0
 75
     0
  0
DIMASSOC
  5
17FB
102
{ACAD_REACTORS
330
17EF
102
}
330
17EF
100
AcDbDimAssoc
330
17E0
 90
        1
 70
     0
 71
     0
  1
AcDbOsnapPointRef
 72
     3
331
1744
 73
     2
 91
        0
 40
0.0
 10
0.0
 20
0.0
 30
0.0
 75
     0
  0
DIMASSOC
  5
1817
102
{ACAD_REACTORS
330
180B
102
}
330
180B
100
AcDbDimAssoc
330
17FC
 90
        1
 70
     0
 71
     0
  1
AcDbOsnapPointRef
 72
     1
331
14E2
 73
     2
 91
        0
 40
1.0
 10
0.0
 20
0.0
 30
2.000000000000000E+50
 75
     0
  0
DIMASSOC
  5
183C
102
{ACAD_REACTORS
330
1831
102
}
330
1831
100
AcDbDimAssoc
330
1823
 90
        2
 70
     0
 71
     0
  1
AcDbOsnapPointRef
 72
     1
331
14FA
 73
     2
 91
        0
 40
0.0
 10
0.0
 20
0.0
 30
2.000000000000000E+50
 75
     0
  0
DIMASSOC
  5
1856
102
{ACAD_REACTORS
330
184B
102
}
330
184B
100
AcDbDimAssoc
330
183D
 90
        2
 70
     0
 71
     0
  1
AcDbOsnapPointRef
 72
     3
331
1745
 73
     2
 91
        0
 40
0.0
 10
0.0
 20
0.0
 30
0.0
 75
     0
  0
DIMASSOC
  5
1870
102
{ACAD_REACTORS
330
1865
102
}
330
1865
100
AcDbDimAssoc
330
1857
 90
        2
 70
     0
 71
     0
  1
AcDbOsnapPointRef
 72
     3
331
1746
 73
     2
 91
        0
 40
0.0
 10
0.0
 20
0.0
 30
0.0
 75
     0
  0
ACDBDETAILVIEWSTYLE
  5
BE4
102
{ACAD_REACTORS
330
BE3
102
}
330
BE3
100
AcDbModelDocViewStyle
 70
     0
  3
Imperial24
290
     0
100
AcDbDetailViewStyle
 70
     0
 71
     0
 90
        3
 71
     1
340
11
 62
   256
 40
0.24
340
0
 62
   256
 40
0.24
300

 40
0.36
280
     3
 71
     2
340
16
 90
       25
 62
   256
 71
     3
340
11
 62
   256
 40
0.24
 90
        1
 40
0.75
 90
        1
300
%<\AcVar ViewType \f "%tc1">% %<\AcVar ViewDetailId>%\PSCALE %<\AcVar ViewScale \f "%sn">%
 71
     4
340
16
 90
       25
 62
   256
340
16
 90
       25
 62
   256
280
     0
  0
GROUP
  5
173F
102
{ACAD_REACTORS
330
D
102
}
330
D
100
AcDbGroup
300

 70
     1
 71
     1
340
14FB
340
14FA
340
14F9
340
14F8
340
14F7
340
14F6
340
14F5
  0
LAYOUT
  5
59
102
{ACAD_REACTORS
330
1A
102
}
330
1A
100
AcDbPlotSettings
  1

  2
None
  4

  6

 40
0.0
 41
0.0
 42
0.0
 43
0.0
 44
0.0
 45
0.0
 46
0.0
 47
0.0
 48
0.0
 49
0.0
140
0.0
141
0.0
142
1.0
143
1.0
 70
   688
 72
     0
 73
     0
 74
     5
  7

 75
    16
147
1.0
 76
     0
 77
     2
 78
   300
148
0.0
149
0.0
100
AcDbLayout
  1
Layout1
 70
     1
 71
     1
 10
0.0
 20
0.0
 11
12.0
 21
9.0
 12
0.0
 22
0.0
 32
0.0
 14
0.0
 24
0.0
 34
0.0
 15
0.0
 25
0.0
 35
0.0
146
0.0
 13
0.0
 23
0.0
 33
0.0
 16
1.0
 26
0.0
 36
0.0
 17
0.0
 27
1.0
 37
0.0
 76
     0
330
58
  0
LAYOUT
  5
5E
102
{ACAD_REACTORS
330
1A
102
}
330
1A
100
AcDbPlotSettings
  1

  2
None
  4

  6

 40
0.0
 41
0.0
 42
0.0
 43
0.0
 44
0.0
 45
0.0
 46
0.0
 47
0.0
 48
0.0
 49
0.0
140
0.0
141
0.0
142
1.0
143
1.0
 70
   688
 72
     0
 73
     0
 74
     5
  7

 75
    16
147
1.0
 76
     0
 77
     2
 78
   300
148
0.0
149
0.0
100
AcDbLayout
  1
Layout2
 70
     1
 71
     2
 10
0.0
 20
0.0
 11
12.0
 21
9.0
 12
0.0
 22
0.0
 32
0.0
 14
0.0
 24
0.0
 34
0.0
 15
0.0
 25
0.0
 35
0.0
146
0.0
 13
0.0
 23
0.0
 33
0.0
 16
1.0
 26
0.0
 36
0.0
 17
0.0
 27
1.0
 37
0.0
 76
     0
330
5D
  0
LAYOUT
  5
22
102
{ACAD_XDICTIONARY
360
DDB
102
}
102
{ACAD_REACTORS
330
1A
102
}
330
1A
100
AcDbPlotSettings
  1

  2
Adobe PDF
  4
User119
  6

 40
3.174999952316284
 41
3.174999952316284
 42
3.17498779296875
 43
3.17498779296875
 44
279.3999938964844
 45
431.8000183105469
 46
0.0
 47
1.910176185653689
 48
0.0
 49
0.0
140
0.0
141
0.0
142
1.0
143
1.024307465961801
 70
 11956
 72
     0
 73
     1
 74
     1
  7

 75
     0
147
0.9762693656255081
 76
     0
 77
     2
 78
   300
148
-346.5717503437684
149
-321.8926613049857
100
AcDbLayout
  1
Model
 70
     1
 71
     0
 10
0.0
 20
0.0
 11
12.0
 21
9.0
 12
0.0
 22
0.0
 32
0.0
 14
0.0
 24
0.0
 34
0.0
 15
0.0
 25
0.0
 35
0.0
146
0.0
 13
0.0
 23
0.0
 33
0.0
 16
1.0
 26
0.0
 36
0.0
 17
0.0
 27
1.0
 37
0.0
 76
     0
330
1F
331
B97
1001
ACAD_PSEXT
1000
Adobe PDF
1000
Adobe PDF Converter
1000
Documents\*.pdf
1000

1070
     0
  0
MATERIAL
  5
BA1
102
{ACAD_XDICTIONARY
360
BA2
102
}
102
{ACAD_REACTORS
330
72
102
}
330
72
100
AcDbMaterial
  1
ByBlock
 72
     0
 43
0.0208333333333333
 43
0.0
 43
0.0
 43
0.0
 43
0.0
 43
0.0208333333333333
 43
0.0
 43
0.0
 43
0.0
 43
0.0
 43
1.0
 43
0.0
 43
0.0
 43
0.0
 43
0.0
 43
1.0
 77
     0
 47
0.0208333333333333
 47
0.0
 47
0.0
 47
0.0
 47
0.0
 47
0.0208333333333333
 47
0.0
 47
0.0
 47
0.0
 47
0.0
 47
1.0
 47
0.0
 47
0.0
 47
0.0
 47
0.0
 47
1.0
171
     0
 49
0.0208333333333333
 49
0.0
 49
0.0
 49
0.0
 49
0.0
 49
0.0208333333333333
 49
0.0
 49
0.0
 49
0.0
 49
0.0
 49
1.0
 49
0.0
 49
0.0
 49
0.0
 49
0.0
 49
1.0
175
     0
142
0.0208333333333333
142
0.0
142
0.0
142
0.0
142
0.0
142
0.0208333333333333
142
0.0
142
0.0
142
0.0
142
0.0
142
1.0
142
0.0
142
0.0
142
0.0
142
0.0
142
1.0
179
     0
144
0.0208333333333333
144
0.0
144
0.0
144
0.0
144
0.0
144
0.0208333333333333
144
0.0
144
0.0
144
0.0
144
0.0
144
1.0
144
0.0
144
0.0
144
0.0
144
0.0
144
1.0
147
0.0208333333333333
147
0.0
147
0.0
147
0.0
147
0.0
147
0.0208333333333333
147
0.0
147
0.0
147
0.0
147
0.0
147
1.0
147
0.0
147
0.0
147
0.0
147
0.0
147
1.0
  0
MATERIAL
  5
B99
102
{ACAD_XDICTIONARY
360
B9A
102
}
102
{ACAD_REACTORS
330
72
102
}
330
72
100
AcDbMaterial
  1
ByLayer
 72
     0
 43
0.0208333333333333
 43
0.0
 43
0.0
 43
0.0
 43
0.0
 43
0.0208333333333333
 43
0.0
 43
0.0
 43
0.0
 43
0.0
 43
1.0
 43
0.0
 43
0.0
 43
0.0
 43
0.0
 43
1.0
 77
     0
 47
0.0208333333333333
 47
0.0
 47
0.0
 47
0.0
 47
0.0
 47
0.0208333333333333
 47
0.0
 47
0.0
 47
0.0
 47
0.0
 47
1.0
 47
0.0
 47
0.0
 47
0.0
 47
0.0
 47
1.0
171
     0
 49
0.0208333333333333
 49
0.0
 49
0.0
 49
0.0
 49
0.0
 49
0.0208333333333333
 49
0.0
 49
0.0
 49
0.0
 49
0.0
 49
1.0
 49
0.0
 49
0.0
 49
0.0
 49
0.0
 49
1.0
175
     0
142
0.0208333333333333
142
0.0
142
0.0
142
0.0
142
0.0
142
0.0208333333333333
142
0.0
142
0.0
142
0.0
142
0.0
142
1.0
142
0.0
142
0.0
142
0.0
142
0.0
142
1.0
179
     0
144
0.0208333333333333
144
0.0
144
0.0
144
0.0
144
0.0
144
0.0208333333333333
144
0.0
144
0.0
144
0.0
144
0.0
144
1.0
144
0.0
144
0.0
144
0.0
144
0.0
144
1.0
147
0.0208333333333333
147
0.0
147
0.0
147
0.0
147
0.0
147
0.0208333333333333
147
0.0
147
0.0
147
0.0
147
0.0
147
1.0
147
0.0
147
0.0
147
0.0
147
0.0
147
1.0
  0
MATERIAL
  5
BA9
102
{ACAD_XDICTIONARY
360
BAA
102
}
102
{ACAD_REACTORS
330
72
102
}
330
72
100
AcDbMaterial
  1
Global
 72
     0
 43
0.0208333333333333
 43
0.0
 43
0.0
 43
0.0
 43
0.0
 43
0.0208333333333333
 43
0.0
 43
0.0
 43
0.0
 43
0.0
 43
1.0
 43
0.0
 43
0.0
 43
0.0
 43
0.0
 43
1.0
 77
     0
 47
0.0208333333333333
 47
0.0
 47
0.0
 47
0.0
 47
0.0
 47
0.0208333333333333
 47
0.0
 47
0.0
 47
0.0
 47
0.0
 47
1.0
 47
0.0
 47
0.0
 47
0.0
 47
0.0
 47
1.0
171
     0
 49
0.0208333333333333
 49
0.0
 49
0.0
 49
0.0
 49
0.0
 49
0.0208333333333333
 49
0.0
 49
0.0
 49
0.0
 49
0.0
 49
1.0
 49
0.0
 49
0.0
 49
0.0
 49
0.0
 49
1.0
175
     0
142
0.0208333333333333
142
0.0
142
0.0
142
0.0
142
0.0
142
0.0208333333333333
142
0.0
142
0.0
142
0.0
142
0.0
142
1.0
142
0.0
142
0.0
142
0.0
142
0.0
142
1.0
179
     0
144
0.0208333333333333
144
0.0
144
0.0
144
0.0
144
0.0
144
0.0208333333333333
144
0.0
144
0.0
144
0.0
144
0.0
144
1.0
144
0.0
144
0.0
144
0.0
144
0.0
144
1.0
147
0.0208333333333333
147
0.0
147
0.0
147
0.0
147
0.0
147
0.0208333333333333
147
0.0
147
0.0
147
0.0
147
0.0
147
1.0
147
0.0
147
0.0
147
0.0
147
0.0
147
1.0
  0
MLEADERSTYLE
  5
BDF
102
{ACAD_REACTORS
330
BDE
102
}
330
BDE
100
AcDbMLeaderStyle
179
     2
170
     2
171
     1
172
     0
 90
        2
 40
0.0
 41
0.0
173
     1
 91
-1056964608
340
14
 92
       -2
290
     1
 42
0.09
291
     1
 43
0.36
  3
Standard
 44
0.18
300

342
11
174
     1
178
     6
175
     1
176
     0
 93
-1056964608
 45
0.18
292
     0
297
     0
 46
0.18
 94
-1056964608
 47
1.0
 49
1.0
140
1.0
293
     1
141
0.0
294
     1
177
     0
142
1.0
295
     0
296
     0
143
0.125
271
     0
272
     9
273
     9
298
     1
  0
MLINESTYLE
  5
18
102
{ACAD_REACTORS
330
17
102
}
330
17
100
AcDbMlineStyle
  2
STANDARD
 70
     0
  3

 62
   256
 51
90.0
 52
90.0
 71
     2
 49
0.5
 62
   256
  6
BYLAYER
 49
-0.5
 62
   256
  6
BYLAYER
  0
ACDBPLACEHOLDER
  5
F
102
{ACAD_REACTORS
330
E
102
}
330
E
  0
SCALE
  5
BCD
102
{ACAD_REACTORS
330
BCC
102
}
330
BCC
100
AcDbScale
 70
     0
300
1:1
140
1.0
141
1.0
290
     1
  0
SCALE
  5
BCE
102
{ACAD_REACTORS
330
BCC
102
}
330
BCC
100
AcDbScale
 70
     0
300
1/128" = 1'-0"
140
0.0078125
141
12.0
290
     0
  0
SCALE
  5
BCF
102
{ACAD_REACTORS
330
BCC
102
}
330
BCC
100
AcDbScale
 70
     0
300
1/64" = 1'-0"
140
0.015625
141
12.0
290
     0
  0
SCALE
  5
BD0
102
{ACAD_REACTORS
330
BCC
102
}
330
BCC
100
AcDbScale
 70
     0
300
1/32" = 1'-0"
140
0.03125
141
12.0
290
     0
  0
SCALE
  5
BD1
102
{ACAD_REACTORS
330
BCC
102
}
330
BCC
100
AcDbScale
 70
     0
300
1/16" = 1'-0"
140
0.0625
141
12.0
290
     0
  0
SCALE
  5
BD2
102
{ACAD_REACTORS
330
BCC
102
}
330
BCC
100
AcDbScale
 70
     0
300
3/32" = 1'-0"
140
0.09375
141
12.0
290
     0
  0
SCALE
  5
BD3
102
{ACAD_REACTORS
330
BCC
102
}
330
BCC
100
AcDbScale
 70
     0
300
1/8" = 1'-0"
140
0.125
141
12.0
290
     0
  0
SCALE
  5
BD4
102
{ACAD_REACTORS
330
BCC
102
}
330
BCC
100
AcDbScale
 70
     0
300
3/16" = 1'-0"
140
0.1875
141
12.0
290
     0
  0
SCALE
  5
BD5
102
{ACAD_REACTORS
330
BCC
102
}
330
BCC
100
AcDbScale
 70
     0
300
1/4" = 1'-0"
140
0.25
141
12.0
290
     0
  0
SCALE
  5
BD6
102
{ACAD_REACTORS
330
BCC
102
}
330
BCC
100
AcDbScale
 70
     0
300
3/8" = 1'-0"
140
0.375
141
12.0
290
     0
  0
SCALE
  5
BD7
102
{ACAD_REACTORS
330
BCC
102
}
330
BCC
100
AcDbScale
 70
     0
300
1/2" = 1'-0"
140
0.5
141
12.0
290
     0
  0
SCALE
  5
BD8
102
{ACAD_REACTORS
330
BCC
102
}
330
BCC
100
AcDbScale
 70
     0
300
3/4" = 1'-0"
140
0.75
141
12.0
290
     0
  0
SCALE
  5
BD9
102
{ACAD_REACTORS
330
BCC
102
}
330
BCC
100
AcDbScale
 70
     0
300
1" = 1'-0"
140
1.0
141
12.0
290
     0
  0
SCALE
  5
BDA
102
{ACAD_REACTORS
330
BCC
102
}
330
BCC
100
AcDbScale
 70
     0
300
1-1/2" = 1'-0"
140
1.5
141
12.0
290
     0
  0
SCALE
  5
BDB
102
{ACAD_REACTORS
330
BCC
102
}
330
BCC
100
AcDbScale
 70
     0
300
3" = 1'-0"
140
3.0
141
12.0
290
     0
  0
SCALE
  5
BDC
102
{ACAD_REACTORS
330
BCC
102
}
330
BCC
100
AcDbScale
 70
     0
300
6" = 1'-0"
140
6.0
141
12.0
290
     0
  0
SCALE
  5
BDD
102
{ACAD_REACTORS
330
BCC
102
}
330
BCC
100
AcDbScale
 70
     0
300
1'-0" = 1'-0"
140
12.0
141
12.0
290
     0
  0
ACDBSECTIONVIEWSTYLE
  5
BE2
102
{ACAD_REACTORS
330
BE0
102
}
330
BE0
100
AcDbModelDocViewStyle
 70
     0
  3
Imperial24
290
     0
100
AcDbSectionViewStyle
 70
     0
 71
     0
 90
       78
 71
     1
340
11
 62
   256
 40
0.24
340
0
340
0
 62
   256
 40
0.24
300
I, O, Q, S, X, Z
 40
0.48
 90
        3
 40
0.18
 90
        1
 71
     2
340
BE1
 90
       25
 62
   256
340
16
 90
       50
 62
   256
 40
0.24
 40
0.0
 40
0.24
 71
     3
340
11
 62
   256
 40
0.24
 90
        1
 40
0.75
 90
        1
300
%<\AcVar ViewType \f "%tc1">% %<\AcVar ViewSectionStartId>%-%<\AcVar ViewSectionEndId>%\PSCALE %<\AcVar ViewScale \f "%sn">%
 71
     4
 62
   256
 62
   257
300
ANSI31
 40
1.0
 90
        0
290
     0
290
     0
 90
        6
 40
0.0
 40
1.570796326794896
 40
0.2617993877991494
 40
1.308996938995747
 40
-0.2617993877991494
 40
1.832595714594046
  0
TABLESTYLE
  5
BCB
102
{ACAD_XDICTIONARY
360
21A6
102
}
102
{ACAD_REACTORS
330
BCA
330
197E
102
}
330
BCA
100
AcDbTableStyle
280
     0
  3
Standard
 70
     0
 71
     0
 40
0.06
 41
0.06
280
     0
281
     0
  7
Standard
140
0.18
170
     2
 62
     0
 63
     7
283
     0
 90
      512
 91
        0
  1

274
    -2
284
     1
 64
     0
275
    -2
285
     1
 65
     0
276
    -2
286
     1
 66
     0
277
    -2
287
     1
 67
     0
278
    -2
288
     1
 68
     0
279
    -2
289
     1
 69
     0
  7
Standard
140
0.25
170
     5
 62
     0
 63
     7
283
     0
 90
      512
 91
        0
  1

274
    -2
284
     1
 64
     0
275
    -2
285
     1
 65
     0
276
    -2
286
     1
 66
     0
277
    -2
287
     1
 67
     0
278
    -2
288
     1
 68
     0
279
    -2
289
     1
 69
     0
  7
Standard
140
0.18
170
     5
 62
     0
 63
     7
283
     0
 90
      512
 91
        0
  1

274
    -2
284
     1
 64
     0
275
    -2
285
     1
 65
     0
276
    -2
286
     1
 66
     0
277
    -2
287
     1
 67
     0
278
    -2
288
     1
 68
     0
279
    -2
289
     1
 69
     0
  0
VISUALSTYLE
  5
BB7
102
{ACAD_REACTORS
330
BB1
102
}
330
BB1
100
AcDbVisualStyle
  2
2dWireframe
 70
     4
177
     3
291
     0
 70
    58
 90
        0
176
     1
 90
        2
176
     1
 90
        0
176
     1
 90
        0
176
     1
 40
0.6
176
     1
 40
30.0
176
     1
 62
     7
420
 16777215
176
     1
 90
        1
176
     1
 90
        4
176
     1
 62
     7
176
     1
 62
   257
176
     1
 90
        1
176
     1
 90
        1
176
     1
 40
1.0
176
     1
 90
        0
176
     1
 62
   257
176
     1
 40
1.0
176
     1
 90
        1
176
     1
 90
        6
176
     1
 90
        2
176
     1
 62
     7
176
     1
 90
        5
176
     1
 90
        0
176
     1
 90
        0
176
     1
290
     0
176
     1
 90
        1
176
     1
 40
0.0
176
     1
 90
        0
176
     1
290
     1
176
     1
290
     1
176
     1
290
     0
176
     1
290
     0
176
     1
290
     0
176
     1
290
     0
176
     1
290
     0
176
     1
290
     0
176
     1
290
     0
176
     1
 90
       50
176
     1
 40
0.0
176
     1
 40
1.0
176
     1
 90
        0
176
     1
 62
    18
420
        0
176
     1
 90
       50
176
     1
 90
        3
176
     1
 62
     5
420
      255
176
     1
290
     0
176
     1
 90
       50
176
     1
 90
       50
176
     1
 90
       50
176
     1
290
     0
176
     1
 90
       50
176
     1
 62
   256
176
     0
 40
1.0
176
     0
 90
        2
176
     1
  1
strokes_ogs.tif
176
     1
290
     0
176
     1
 40
1.0
176
     1
 40
1.0
176
     1
  0
VISUALSTYLE
  5
BB6
102
{ACAD_REACTORS
330
BB1
102
}
330
BB1
100
AcDbVisualStyle
  2
Basic
 70
     7
177
     3
291
     1
 70
    58
 90
        1
176
     1
 90
        0
176
     1
 90
        1
176
     1
 90
        0
176
     1
 40
0.6
176
     1
 40
30.0
176
     1
 62
     7
420
 16777215
176
     1
 90
        0
176
     1
 90
        4
176
     1
 62
     7
176
     1
 62
   257
176
     1
 90
        1
176
     1
 90
        1
176
     1
 40
1.0
176
     1
 90
        8
176
     1
 62
     7
176
     1
 40
1.0
176
     1
 90
        1
176
     1
 90
        6
176
     1
 90
        2
176
     1
 62
     7
176
     1
 90
        5
176
     1
 90
        0
176
     1
 90
        0
176
     1
290
     0
176
     1
 90
        1
176
     1
 40
0.0
176
     1
 90
        0
176
     1
290
     0
176
     1
290
     1
176
     1
290
     1
176
     1
290
     0
176
     1
290
     0
176
     1
290
     0
176
     1
290
     0
176
     1
290
     0
176
     1
290
     0
176
     1
 90
       50
176
     1
 40
0.0
176
     1
 40
1.0
176
     1
 90
        0
176
     1
 62
    18
420
        0
176
     1
 90
       50
176
     1
 90
        3
176
     1
 62
     5
420
      255
176
     1
290
     0
176
     1
 90
       50
176
     1
 90
       50
176
     1
 90
       50
176
     1
290
     0
176
     1
 90
       50
176
     1
 62
   256
176
     0
 40
1.0
176
     0
 90
        2
176
     1
  1
strokes_ogs.tif
176
     1
290
     0
176
     1
 40
1.0
176
     1
 40
1.0
176
     1
  0
VISUALSTYLE
  5
BBD
102
{ACAD_REACTORS
330
BB1
102
}
330
BB1
100
AcDbVisualStyle
  2
Brighten
 70
    12
177
     3
291
     1
 70
    58
 90
        2
176
     1
 90
        2
176
     1
 90
        0
176
     1
 90
        0
176
     1
 40
0.6
176
     1
 40
30.0
176
     1
 62
     7
420
 16777215
176
     1
 90
        1
176
     1
 90
        4
176
     1
 62
     7
176
     1
 62
   257
176
     1
 90
        1
176
     1
 90
        1
176
     1
 40
1.0
176
     1
 90
        8
176
     1
 62
     7
176
     1
 40
1.0
176
     1
 90
        1
176
     1
 90
        6
176
     1
 90
        2
176
     1
 62
     7
176
     1
 90
        5
176
     1
 90
        0
176
     1
 90
        0
176
     1
290
     0
176
     1
 90
        1
176
     1
 40
50.0
176
     1
 90
        0
176
     1
290
     0
176
     1
290
     1
176
     1
290
     1
176
     1
290
     0
176
     1
290
     0
176
     1
290
     0
176
     1
290
     0
176
     1
290
     0
176
     1
290
     0
176
     1
 90
       50
176
     1
 40
0.0
176
     1
 40
1.0
176
     1
 90
        0
176
     1
 62
    18
420
        0
176
     1
 90
       50
176
     1
 90
        3
176
     1
 62
     5
420
      255
176
     1
290
     0
176
     1
 90
       50
176
     1
 90
       50
176
     1
 90
       50
176
     1
290
     0
176
     1
 90
       50
176
     1
 62
   256
176
     0
 40
1.0
176
     0
 90
        2
176
     1
  1
strokes_ogs.tif
176
     1
290
     0
176
     1
 40
1.0
176
     1
 40
1.0
176
     1
  0
VISUALSTYLE
  5
BC1
102
{ACAD_REACTORS
330
BB1
102
}
330
BB1
100
AcDbVisualStyle
  2
ColorChange
 70
    16
177
     3
291
     1
 70
    58
 90
        2
176
     1
 90
        2
176
     1
 90
        3
176
     1
 90
        0
176
     1
 40
0.6
176
     1
 40
30.0
176
     1
 62
     8
420
  8421504
176
     1
 90
        1
176
     1
 90
        4
176
     1
 62
     7
176
     1
 62
   257
176
     1
 90
        1
176
     1
 90
        1
176
     1
 40
1.0
176
     1
 90
        8
176
     1
 62
     8
420
  8421504
176
     1
 40
1.0
176
     1
 90
        1
176
     1
 90
        6
176
     1
 90
        2
176
     1
 62
     7
176
     1
 90
        5
176
     1
 90
        0
176
     1
 90
        0
176
     1
290
     0
176
     1
 90
        1
176
     1
 40
0.0
176
     1
 90
        0
176
     1
290
     0
176
     1
290
     1
176
     1
290
     1
176
     1
290
     0
176
     1
290
     0
176
     1
290
     0
176
     1
290
     0
176
     1
290
     0
176
     1
290
     0
176
     1
 90
       50
176
     1
 40
0.0
176
     1
 40
1.0
176
     1
 90
        0
176
     1
 62
    18
420
        0
176
     1
 90
       50
176
     1
 90
        3
176
     1
 62
     5
420
      255
176
     1
290
     0
176
     1
 90
       50
176
     1
 90
       50
176
     1
 90
       50
176
     1
290
     0
176
     1
 90
       50
176
     1
 62
   256
176
     0
 40
1.0
176
     0
 90
        2
176
     1
  1
strokes_ogs.tif
176
     1
290
     0
176
     1
 40
1.0
176
     1
 40
1.0
176
     1
  0
VISUALSTYLE
  5
BBA
102
{ACAD_REACTORS
330
BB1
102
}
330
BB1
100
AcDbVisualStyle
  2
Conceptual
 70
     9
177
     3
291
     0
 70
    58
 90
        3
176
     1
 90
        2
176
     1
 90
        0
176
     1
 90
        0
176
     1
 40
0.6
176
     1
 40
30.0
176
     1
 62
     7
420
 16777215
176
     1
 90
        2
176
     1
 90
        2
176
     1
 62
     7
176
     1
 62
   257
176
     1
 90
        1
176
     1
 90
        1
176
     1
 40
179.0
176
     1
 90
        8
176
     1
 62
     7
176
     1
 40
1.0
176
     1
 90
        1
176
     1
 90
        6
176
     1
 90
        2
176
     1
 62
     7
176
     1
 90
        3
176
     1
 90
        0
176
     1
 90
        0
176
     1
290
     0
176
     1
 90
        1
176
     1
 40
0.0
176
     1
 90
        0
176
     1
290
     0
176
     1
290
     1
176
     1
290
     1
176
     1
290
     0
176
     1
290
     0
176
     1
290
     0
176
     1
290
     0
176
     1
290
     0
176
     1
290
     0
176
     1
 90
       50
176
     1
 40
0.0
176
     1
 40
1.0
176
     1
 90
        0
176
     1
 62
    18
420
        0
176
     1
 90
       50
176
     1
 90
        3
176
     1
 62
     5
420
      255
176
     1
290
     0
176
     1
 90
       50
176
     1
 90
       50
176
     1
 90
       50
176
     1
290
     0
176
     1
 90
       50
176
     1
 62
   256
176
     0
 40
1.0
176
     0
 90
        2
176
     1
  1
strokes_ogs.tif
176
     1
290
     0
176
     1
 40
1.0
176
     1
 40
1.0
176
     1
  0
VISUALSTYLE
  5
BBC
102
{ACAD_REACTORS
330
BB1
102
}
330
BB1
100
AcDbVisualStyle
  2
Dim
 70
    11
177
     3
291
     1
 70
    58
 90
        2
176
     1
 90
        2
176
     1
 90
        0
176
     1
 90
        0
176
     1
 40
0.6
176
     1
 40
30.0
176
     1
 62
     7
420
 16777215
176
     1
 90
        1
176
     1
 90
        4
176
     1
 62
     7
176
     1
 62
   257
176
     1
 90
        1
176
     1
 90
        1
176
     1
 40
1.0
176
     1
 90
        8
176
     1
 62
     7
176
     1
 40
1.0
176
     1
 90
        1
176
     1
 90
        6
176
     1
 90
        2
176
     1
 62
     7
176
     1
 90
        5
176
     1
 90
        0
176
     1
 90
        0
176
     1
290
     0
176
     1
 90
        1
176
     1
 40
-50.0
176
     1
 90
        0
176
     1
290
     0
176
     1
290
     1
176
     1
290
     1
176
     1
290
     0
176
     1
290
     0
176
     1
290
     0
176
     1
290
     0
176
     1
290
     0
176
     1
290
     0
176
     1
 90
       50
176
     1
 40
0.0
176
     1
 40
1.0
176
     1
 90
        0
176
     1
 62
    18
420
        0
176
     1
 90
       50
176
     1
 90
        3
176
     1
 62
     5
420
      255
176
     1
290
     0
176
     1
 90
       50
176
     1
 90
       50
176
     1
 90
       50
176
     1
290
     0
176
     1
 90
       50
176
     1
 62
   256
176
     0
 40
1.0
176
     0
 90
        2
176
     1
  1
strokes_ogs.tif
176
     1
290
     0
176
     1
 40
1.0
176
     1
 40
1.0
176
     1
  0
VISUALSTYLE
  5
BC9
102
{ACAD_REACTORS
330
BB1
102
}
330
BB1
100
AcDbVisualStyle
  2
EdgeColorOff
 70
    22
177
     3
291
     1
 70
    58
 90
        2
176
     0
 90
        2
176
     0
 90
        0
176
     0
 90
        0
176
     0
 40
0.6
176
     0
 40
30.0
176
     0
 62
     7
420
 16777215
176
     0
 90
        1
176
     0
 90
        4
176
     0
 62
     7
176
     0
 62
   257
176
     0
 90
        1
176
     0
 90
        1
176
     0
 40
1.0
176
     0
 90
        8
176
     2
 62
     7
176
     0
 40
1.0
176
     0
 90
        1
176
     0
 90
        6
176
     0
 90
        2
176
     0
 62
     7
176
     0
 90
        5
176
     0
 90
        0
176
     0
 90
        0
176
     0
290
     0
176
     0
 90
        1
176
     0
 40
0.0
176
     0
 90
        0
176
     0
290
     0
176
     0
290
     1
176
     0
290
     1
176
     0
290
     0
176
     0
290
     0
176
     0
290
     0
176
     0
290
     0
176
     0
290
     0
176
     0
290
     0
176
     0
 90
       50
176
     0
 40
0.0
176
     0
 40
1.0
176
     0
 90
        0
176
     0
 62
    18
420
        0
176
     0
 90
       50
176
     0
 90
        3
176
     0
 62
     5
420
      255
176
     0
290
     0
176
     0
 90
       50
176
     0
 90
       50
176
     0
 90
       50
176
     0
290
     0
176
     0
 90
       50
176
     0
 62
   256
176
     0
 40
1.0
176
     0
 90
        2
176
     0
  1
strokes_ogs.tif
176
     0
290
     0
176
     0
 40
1.0
176
     0
 40
1.0
176
     0
  0
VISUALSTYLE
  5
BC0
102
{ACAD_REACTORS
330
BB1
102
}
330
BB1
100
AcDbVisualStyle
  2
Facepattern
 70
    15
177
     3
291
     1
 70
    58
 90
        2
176
     1
 90
        2
176
     1
 90
        0
176
     1
 90
        0
176
     1
 40
0.6
176
     1
 40
30.0
176
     1
 62
     7
420
 16777215
176
     1
 90
        1
176
     1
 90
        4
176
     1
 62
     7
176
     1
 62
   257
176
     1
 90
        1
176
     1
 90
        1
176
     1
 40
1.0
176
     1
 90
        8
176
     1
 62
     7
176
     1
 40
1.0
176
     1
 90
        1
176
     1
 90
        6
176
     1
 90
        2
176
     1
 62
     7
176
     1
 90
        5
176
     1
 90
        0
176
     1
 90
        0
176
     1
290
     0
176
     1
 90
        1
176
     1
 40
0.0
176
     1
 90
        0
176
     1
290
     0
176
     1
290
     1
176
     1
290
     1
176
     1
290
     0
176
     1
290
     0
176
     1
290
     0
176
     1
290
     0
176
     1
290
     0
176
     1
290
     0
176
     1
 90
       50
176
     1
 40
0.0
176
     1
 40
1.0
176
     1
 90
        0
176
     1
 62
    18
420
        0
176
     1
 90
       50
176
     1
 90
        3
176
     1
 62
     5
420
      255
176
     1
290
     0
176
     1
 90
       50
176
     1
 90
       50
176
     1
 90
       50
176
     1
290
     0
176
     1
 90
       50
176
     1
 62
   256
176
     0
 40
1.0
176
     0
 90
        2
176
     1
  1
strokes_ogs.tif
176
     1
290
     0
176
     1
 40
1.0
176
     1
 40
1.0
176
     1
  0
VISUALSTYLE
  5
BB2
102
{ACAD_REACTORS
330
BB1
102
}
330
BB1
100
AcDbVisualStyle
  2
Flat
 70
     0
177
     3
291
     1
 70
    58
 90
        2
176
     1
 90
        1
176
     1
 90
        1
176
     1
 90
        2
176
     1
 40
0.6
176
     1
 40
30.0
176
     1
 62
     7
420
 16777215
176
     1
 90
        0
176
     1
 90
        0
176
     1
 62
     7
176
     1
 62
   257
176
     1
 90
        1
176
     1
 90
        1
176
     1
 40
1.0
176
     1
 90
        8
176
     1
 62
     7
176
     1
 40
1.0
176
     1
 90
        1
176
     1
 90
        6
176
     1
 90
        2
176
     1
 62
     7
176
     1
 90
        5
176
     1
 90
        0
176
     1
 90
        0
176
     1
290
     0
176
     1
 90
       13
176
     1
 40
0.0
176
     1
 90
        0
176
     1
290
     0
176
     1
290
     1
176
     1
290
     1
176
     1
290
     0
176
     1
290
     0
176
     1
290
     0
176
     1
290
     0
176
     1
290
     0
176
     1
290
     0
176
     1
 90
       50
176
     1
 40
0.0
176
     1
 40
1.0
176
     1
 90
        0
176
     1
 62
    18
420
        0
176
     1
 90
       50
176
     1
 90
        3
176
     1
 62
     5
420
      255
176
     1
290
     0
176
     1
 90
       50
176
     1
 90
       50
176
     1
 90
       50
176
     1
290
     0
176
     1
 90
       50
176
     1
 62
   256
176
     0
 40
1.0
176
     0
 90
        2
176
     1
  1
strokes_ogs.tif
176
     1
290
     0
176
     1
 40
1.0
176
     1
 40
1.0
176
     1
  0
VISUALSTYLE
  5
BB3
102
{ACAD_REACTORS
330
BB1
102
}
330
BB1
100
AcDbVisualStyle
  2
FlatWithEdges
 70
     1
177
     3
291
     1
 70
    58
 90
        2
176
     1
 90
        1
176
     1
 90
        1
176
     1
 90
        2
176
     1
 40
0.6
176
     1
 40
30.0
176
     1
 62
     7
420
 16777215
176
     1
 90
        1
176
     1
 90
        0
176
     1
 62
     7
176
     1
 62
   257
176
     1
 90
        1
176
     1
 90
        1
176
     1
 40
1.0
176
     1
 90
        0
176
     1
 62
   257
176
     1
 40
1.0
176
     1
 90
        1
176
     1
 90
        6
176
     1
 90
        2
176
     1
 62
     7
176
     1
 90
        5
176
     1
 90
        0
176
     1
 90
        0
176
     1
290
     0
176
     1
 90
       13
176
     1
 40
0.0
176
     1
 90
        0
176
     1
290
     0
176
     1
290
     1
176
     1
290
     1
176
     1
290
     0
176
     1
290
     0
176
     1
290
     0
176
     1
290
     0
176
     1
290
     0
176
     1
290
     0
176
     1
 90
       50
176
     1
 40
0.0
176
     1
 40
1.0
176
     1
 90
        0
176
     1
 62
    18
420
        0
176
     1
 90
       50
176
     1
 90
        3
176
     1
 62
     5
420
      255
176
     1
290
     0
176
     1
 90
       50
176
     1
 90
       50
176
     1
 90
       50
176
     1
290
     0
176
     1
 90
       50
176
     1
 62
   256
176
     0
 40
1.0
176
     0
 90
        2
176
     1
  1
strokes_ogs.tif
176
     1
290
     0
176
     1
 40
1.0
176
     1
 40
1.0
176
     1
  0
VISUALSTYLE
  5
BB4
102
{ACAD_REACTORS
330
BB1
102
}
330
BB1
100
AcDbVisualStyle
  2
Gouraud
 70
     2
177
     3
291
     1
 70
    58
 90
        2
176
     1
 90
        2
176
     1
 90
        1
176
     1
 90
        2
176
     1
 40
0.6
176
     1
 40
30.0
176
     1
 62
     7
420
 16777215
176
     1
 90
        0
176
     1
 90
        0
176
     1
 62
     7
176
     1
 62
   257
176
     1
 90
        1
176
     1
 90
        1
176
     1
 40
1.0
176
     1
 90
        0
176
     1
 62
     7
176
     1
 40
1.0
176
     1
 90
        1
176
     1
 90
        6
176
     1
 90
        2
176
     1
 62
     7
176
     1
 90
        5
176
     1
 90
        0
176
     1
 90
        0
176
     1
290
     0
176
     1
 90
       13
176
     1
 40
0.0
176
     1
 90
        0
176
     1
290
     0
176
     1
290
     1
176
     1
290
     1
176
     1
290
     0
176
     1
290
     0
176
     1
290
     0
176
     1
290
     0
176
     1
290
     0
176
     1
290
     0
176
     1
 90
       50
176
     1
 40
0.0
176
     1
 40
1.0
176
     1
 90
        0
176
     1
 62
    18
420
        0
176
     1
 90
       50
176
     1
 90
        3
176
     1
 62
     5
420
      255
176
     1
290
     0
176
     1
 90
       50
176
     1
 90
       50
176
     1
 90
       50
176
     1
290
     0
176
     1
 90
       50
176
     1
 62
   256
176
     0
 40
1.0
176
     0
 90
        2
176
     1
  1
strokes_ogs.tif
176
     1
290
     0
176
     1
 40
1.0
176
     1
 40
1.0
176
     1
  0
VISUALSTYLE
  5
BB5
102
{ACAD_REACTORS
330
BB1
102
}
330
BB1
100
AcDbVisualStyle
  2
GouraudWithEdges
 70
     3
177
     3
291
     1
 70
    58
 90
        2
176
     1
 90
        2
176
     1
 90
        1
176
     1
 90
        2
176
     1
 40
0.6
176
     1
 40
30.0
176
     1
 62
     7
420
 16777215
176
     1
 90
        1
176
     1
 90
        0
176
     1
 62
     7
176
     1
 62
   257
176
     1
 90
        1
176
     1
 90
        1
176
     1
 40
1.0
176
     1
 90
        0
176
     1
 62
   257
176
     1
 40
1.0
176
     1
 90
        1
176
     1
 90
        6
176
     1
 90
        2
176
     1
 62
     7
176
     1
 90
        5
176
     1
 90
        0
176
     1
 90
        0
176
     1
290
     0
176
     1
 90
       13
176
     1
 40
0.0
176
     1
 90
        0
176
     1
290
     0
176
     1
290
     1
176
     1
290
     1
176
     1
290
     0
176
     1
290
     0
176
     1
290
     0
176
     1
290
     0
176
     1
290
     0
176
     1
290
     0
176
     1
 90
       50
176
     1
 40
0.0
176
     1
 40
1.0
176
     1
 90
        0
176
     1
 62
    18
420
        0
176
     1
 90
       50
176
     1
 90
        3
176
     1
 62
     5
420
      255
176
     1
290
     0
176
     1
 90
       50
176
     1
 90
       50
176
     1
 90
       50
176
     1
290
     0
176
     1
 90
       50
176
     1
 62
   256
176
     0
 40
1.0
176
     0
 90
        2
176
     1
  1
strokes_ogs.tif
176
     1
290
     0
176
     1
 40
1.0
176
     1
 40
1.0
176
     1
  0
VISUALSTYLE
  5
BB9
102
{ACAD_REACTORS
330
BB1
102
}
330
BB1
100
AcDbVisualStyle
  2
Hidden
 70
     6
177
     3
291
     0
 70
    58
 90
        1
176
     1
 90
        2
176
     1
 90
        2
176
     1
 90
        0
176
     1
 40
0.6
176
     1
 40
30.0
176
     1
 62
     7
420
 16777215
176
     1
 90
        2
176
     1
 90
        2
176
     1
 62
     7
176
     1
 62
   257
176
     1
 90
        2
176
     1
 90
        1
176
     1
 40
40.0
176
     1
 90
        0
176
     1
 62
   257
176
     1
 40
1.0
176
     1
 90
        1
176
     1
 90
        6
176
     1
 90
        2
176
     1
 62
     7
176
     1
 90
        3
176
     1
 90
        0
176
     1
 90
        0
176
     1
290
     0
176
     1
 90
        1
176
     1
 40
0.0
176
     1
 90
        0
176
     1
290
     0
176
     1
290
     1
176
     1
290
     1
176
     1
290
     0
176
     1
290
     0
176
     1
290
     0
176
     1
290
     0
176
     1
290
     0
176
     1
290
     0
176
     1
 90
       50
176
     1
 40
0.0
176
     1
 40
1.0
176
     1
 90
        0
176
     1
 62
    18
420
        0
176
     1
 90
       50
176
     1
 90
        3
176
     1
 62
     5
420
      255
176
     1
290
     0
176
     1
 90
       50
176
     1
 90
       50
176
     1
 90
       50
176
     1
290
     0
176
     1
 90
       50
176
     1
 62
   256
176
     0
 40
1.0
176
     0
 90
        2
176
     1
  1
strokes_ogs.tif
176
     1
290
     0
176
     1
 40
1.0
176
     1
 40
1.0
176
     1
  0
VISUALSTYLE
  5
BC7
102
{ACAD_REACTORS
330
BB1
102
}
330
BB1
100
AcDbVisualStyle
  2
JitterOff
 70
    20
177
     3
291
     1
 70
    58
 90
        2
176
     0
 90
        2
176
     0
 90
        0
176
     0
 90
        0
176
     0
 40
0.6
176
     0
 40
30.0
176
     0
 62
     7
420
 16777215
176
     0
 90
        1
176
     0
 90
        4
176
     0
 62
     7
176
     0
 62
   257
176
     0
 90
        1
176
     0
 90
        1
176
     0
 40
1.0
176
     0
 90
       10
176
     2
 62
     7
176
     0
 40
1.0
176
     0
 90
        1
176
     0
 90
        6
176
     0
 90
        2
176
     0
 62
     7
176
     0
 90
        5
176
     0
 90
        0
176
     0
 90
        0
176
     0
290
     0
176
     0
 90
        1
176
     0
 40
0.0
176
     0
 90
        0
176
     0
290
     0
176
     0
290
     1
176
     0
290
     1
176
     0
290
     0
176
     0
290
     0
176
     0
290
     0
176
     0
290
     0
176
     0
290
     0
176
     0
290
     0
176
     0
 90
       50
176
     0
 40
0.0
176
     0
 40
1.0
176
     0
 90
        0
176
     0
 62
    18
420
        0
176
     0
 90
       50
176
     0
 90
        3
176
     0
 62
     5
420
      255
176
     0
290
     0
176
     0
 90
       50
176
     0
 90
       50
176
     0
 90
       50
176
     0
290
     0
176
     0
 90
       50
176
     0
 62
   256
176
     0
 40
1.0
176
     0
 90
        2
176
     0
  1
strokes_ogs.tif
176
     0
290
     0
176
     0
 40
1.0
176
     0
 40
1.0
176
     0
  0
VISUALSTYLE
  5
BBF
102
{ACAD_REACTORS
330
BB1
102
}
330
BB1
100
AcDbVisualStyle
  2
Linepattern
 70
    14
177
     3
291
     1
 70
    58
 90
        2
176
     1
 90
        2
176
     1
 90
        0
176
     1
 90
        0
176
     1
 40
0.6
176
     1
 40
30.0
176
     1
 62
     7
420
 16777215
176
     1
 90
        1
176
     1
 90
        4
176
     1
 62
     7
176
     1
 62
   257
176
     1
 90
        7
176
     1
 90
        7
176
     1
 40
1.0
176
     1
 90
        8
176
     1
 62
     7
176
     1
 40
1.0
176
     1
 90
        1
176
     1
 90
        6
176
     1
 90
        2
176
     1
 62
     7
176
     1
 90
        5
176
     1
 90
        0
176
     1
 90
        0
176
     1
290
     0
176
     1
 90
        1
176
     1
 40
0.0
176
     1
 90
        0
176
     1
290
     0
176
     1
290
     1
176
     1
290
     1
176
     1
290
     0
176
     1
290
     0
176
     1
290
     0
176
     1
290
     0
176
     1
290
     0
176
     1
290
     0
176
     1
 90
       50
176
     1
 40
0.0
176
     1
 40
1.0
176
     1
 90
        0
176
     1
 62
    18
420
        0
176
     1
 90
       50
176
     1
 90
        3
176
     1
 62
     5
420
      255
176
     1
290
     0
176
     1
 90
       50
176
     1
 90
       50
176
     1
 90
       50
176
     1
290
     0
176
     1
 90
       50
176
     1
 62
   256
176
     0
 40
1.0
176
     0
 90
        2
176
     1
  1
strokes_ogs.tif
176
     1
290
     0
176
     1
 40
1.0
176
     1
 40
1.0
176
     1
  0
VISUALSTYLE
  5
BC8
102
{ACAD_REACTORS
330
BB1
102
}
330
BB1
100
AcDbVisualStyle
  2
OverhangOff
 70
    21
177
     3
291
     1
 70
    58
 90
        2
176
     0
 90
        2
176
     0
 90
        0
176
     0
 90
        0
176
     0
 40
0.6
176
     0
 40
30.0
176
     0
 62
     7
420
 16777215
176
     0
 90
        1
176
     0
 90
        4
176
     0
 62
     7
176
     0
 62
   257
176
     0
 90
        1
176
     0
 90
        1
176
     0
 40
1.0
176
     0
 90
        9
176
     2
 62
     7
176
     0
 40
1.0
176
     0
 90
        1
176
     0
 90
        6
176
     0
 90
        2
176
     0
 62
     7
176
     0
 90
        5
176
     0
 90
        0
176
     0
 90
        0
176
     0
290
     0
176
     0
 90
        1
176
     0
 40
0.0
176
     0
 90
        0
176
     0
290
     0
176
     0
290
     1
176
     0
290
     1
176
     0
290
     0
176
     0
290
     0
176
     0
290
     0
176
     0
290
     0
176
     0
290
     0
176
     0
290
     0
176
     0
 90
       50
176
     0
 40
0.0
176
     0
 40
1.0
176
     0
 90
        0
176
     0
 62
    18
420
        0
176
     0
 90
       50
176
     0
 90
        3
176
     0
 62
     5
420
      255
176
     0
290
     0
176
     0
 90
       50
176
     0
 90
       50
176
     0
 90
       50
176
     0
290
     0
176
     0
 90
       50
176
     0
 62
   256
176
     0
 40
1.0
176
     0
 90
        2
176
     0
  1
strokes_ogs.tif
176
     0
290
     0
176
     0
 40
1.0
176
     0
 40
1.0
176
     0
  0
VISUALSTYLE
  5
BBB
102
{ACAD_REACTORS
330
BB1
102
}
330
BB1
100
AcDbVisualStyle
  2
Realistic
 70
     8
177
     3
291
     0
 70
    58
 90
        2
176
     1
 90
        3
176
     1
 90
        0
176
     1
 90
        2
176
     1
 40
0.6
176
     1
 40
30.0
176
     1
 62
     7
420
 16777215
176
     1
 90
        0
176
     1
 90
        0
176
     1
 62
     7
176
     1
 62
   257
176
     1
 90
        1
176
     1
 90
        1
176
     1
 40
1.0
176
     1
 90
        8
176
     1
 62
   257
176
     1
 40
1.0
176
     1
 90
        1
176
     1
 90
        6
176
     1
 90
        2
176
     1
 62
     7
176
     1
 90
        3
176
     1
 90
        0
176
     1
 90
        0
176
     1
290
     0
176
     1
 90
       13
176
     1
 40
0.0
176
     1
 90
        0
176
     1
290
     0
176
     1
290
     1
176
     1
290
     1
176
     1
290
     0
176
     1
290
     0
176
     1
290
     0
176
     1
290
     0
176
     1
290
     0
176
     1
290
     0
176
     1
 90
       50
176
     1
 40
0.0
176
     1
 40
1.0
176
     1
 90
        0
176
     1
 62
    18
420
        0
176
     1
 90
       50
176
     1
 90
        3
176
     1
 62
     5
420
      255
176
     1
290
     0
176
     1
 90
       50
176
     1
 90
       50
176
     1
 90
       50
176
     1
290
     0
176
     1
 90
       50
176
     1
 62
   256
176
     0
 40
1.0
176
     0
 90
        2
176
     1
  1
strokes_ogs.tif
176
     1
290
     0
176
     1
 40
1.0
176
     1
 40
1.0
176
     1
  0
VISUALSTYLE
  5
BC6
102
{ACAD_REACTORS
330
BB1
102
}
330
BB1
100
AcDbVisualStyle
  2
Shaded
 70
    27
177
     3
291
     0
 70
    58
 90
        2
176
     1
 90
        2
176
     1
 90
        1
176
     1
 90
        2
176
     1
 40
0.6
176
     1
 40
30.0
176
     1
 62
     7
420
 16777215
176
     1
 90
        0
176
     1
 90
        4
176
     1
 62
     7
176
     1
 62
   257
176
     1
 90
        1
176
     1
 90
        1
176
     1
 40
1.0
176
     1
 90
        8
176
     1
 62
   257
176
     1
 40
1.0
176
     1
 90
        1
176
     1
 90
        6
176
     1
 90
        2
176
     1
 62
     8
420
  7895160
176
     1
 90
        3
176
     1
 90
        0
176
     1
 90
        0
176
     1
290
     0
176
     1
 90
        5
176
     1
 40
0.0
176
     1
 90
        0
176
     1
290
     0
176
     1
290
     1
176
     1
290
     1
176
     1
290
     0
176
     1
290
     0
176
     1
290
     0
176
     1
290
     0
176
     1
290
     0
176
     1
290
     0
176
     1
 90
       50
176
     1
 40
0.0
176
     1
 40
1.0
176
     1
 90
        0
176
     1
 62
    18
420
        0
176
     1
 90
       50
176
     1
 90
        3
176
     1
 62
     5
420
      255
176
     1
290
     0
176
     1
 90
       50
176
     1
 90
       50
176
     1
 90
       50
176
     1
290
     0
176
     1
 90
       50
176
     1
 62
   256
176
     0
 40
1.0
176
     0
 90
        2
176
     1
  1
strokes_ogs.tif
176
     1
290
     0
176
     1
 40
1.0
176
     1
 40
1.0
176
     1
  0
VISUALSTYLE
  5
BC5
102
{ACAD_REACTORS
330
BB1
102
}
330
BB1
100
AcDbVisualStyle
  2
Shaded with edges
 70
    26
177
     3
291
     0
 70
    58
 90
        2
176
     1
 90
        2
176
     1
 90
        1
176
     1
 90
        2
176
     1
 40
0.6
176
     1
 40
30.0
176
     1
 62
     7
420
 16777215
176
     1
 90
        1
176
     1
 90
       10
176
     1
 62
     7
176
     1
 62
   257
176
     1
 90
        2
176
     1
 90
        1
176
     1
 40
1.0
176
     1
 90
        8
176
     1
 62
   257
176
     1
 40
1.0
176
     1
 90
        1
176
     1
 90
        6
176
     1
 90
        2
176
     1
 62
     7
176
     1
 90
        3
176
     1
 90
        0
176
     1
 90
        0
176
     1
290
     0
176
     1
 90
        5
176
     1
 40
0.0
176
     1
 90
        0
176
     1
290
     0
176
     1
290
     1
176
     1
290
     1
176
     1
290
     0
176
     1
290
     0
176
     1
290
     0
176
     1
290
     0
176
     1
290
     0
176
     1
290
     0
176
     1
 90
       50
176
     1
 40
0.0
176
     1
 40
1.0
176
     1
 90
        0
176
     1
 62
    18
420
        0
176
     1
 90
       50
176
     1
 90
        3
176
     1
 62
     5
420
      255
176
     1
290
     0
176
     1
 90
       50
176
     1
 90
       50
176
     1
 90
       50
176
     1
290
     0
176
     1
 90
       50
176
     1
 62
   256
176
     0
 40
1.0
176
     0
 90
        2
176
     1
  1
strokes_ogs.tif
176
     1
290
     0
176
     1
 40
1.0
176
     1
 40
1.0
176
     1
  0
VISUALSTYLE
  5
BC2
102
{ACAD_REACTORS
330
BB1
102
}
330
BB1
100
AcDbVisualStyle
  2
Shades of Gray
 70
    23
177
     3
291
     0
 70
    58
 90
        2
176
     1
 90
        2
176
     1
 90
        3
176
     1
 90
        0
176
     1
 40
0.6
176
     1
 40
30.0
176
     1
 62
     7
420
 16777215
176
     1
 90
        2
176
     1
 90
        2
176
     1
 62
     7
176
     1
 62
     7
176
     1
 90
        1
176
     1
 90
        1
176
     1
 40
40.0
176
     1
 90
        8
176
     1
 62
     7
176
     1
 40
1.0
176
     1
 90
        1
176
     1
 90
        6
176
     1
 90
        2
176
     1
 62
     7
176
     1
 90
        3
176
     1
 90
        0
176
     1
 90
        0
176
     1
290
     0
176
     1
 90
        1
176
     1
 40
0.0
176
     1
 90
        0
176
     1
290
     0
176
     1
290
     1
176
     1
290
     1
176
     1
290
     0
176
     1
290
     0
176
     1
290
     0
176
     1
290
     0
176
     1
290
     0
176
     1
290
     0
176
     1
 90
       50
176
     1
 40
0.0
176
     1
 40
1.0
176
     1
 90
        0
176
     1
 62
    18
420
        0
176
     1
 90
       50
176
     1
 90
        3
176
     1
 62
     5
420
      255
176
     1
290
     0
176
     1
 90
       50
176
     1
 90
       50
176
     1
 90
       50
176
     1
290
     0
176
     1
 90
       50
176
     1
 62
   256
176
     0
 40
1.0
176
     0
 90
        2
176
     1
  1
strokes_ogs.tif
176
     1
290
     0
176
     1
 40
1.0
176
     1
 40
1.0
176
     1
  0
VISUALSTYLE
  5
BC3
102
{ACAD_REACTORS
330
BB1
102
}
330
BB1
100
AcDbVisualStyle
  2
Sketchy
 70
    24
177
     3
291
     0
 70
    58
 90
        1
176
     1
 90
        2
176
     1
 90
        2
176
     1
 90
        0
176
     1
 40
0.6
176
     1
 40
30.0
176
     1
 62
     7
420
 16777215
176
     1
 90
        2
176
     1
 90
        2
176
     1
 62
     7
176
     1
 62
     7
176
     1
 90
        1
176
     1
 90
        1
176
     1
 40
40.0
176
     1
 90
       11
176
     1
 62
     7
176
     1
 40
1.0
176
     1
 90
        1
176
     1
 90
        6
176
     1
 90
        2
176
     1
 62
     7
176
     1
 90
        6
176
     1
 90
        0
176
     1
 90
        0
176
     1
290
     0
176
     1
 90
        1
176
     1
 40
0.0
176
     1
 90
        0
176
     1
290
     0
176
     1
290
     1
176
     1
290
     1
176
     1
290
     0
176
     1
290
     0
176
     1
290
     0
176
     1
290
     0
176
     1
290
     0
176
     1
290
     0
176
     1
 90
       50
176
     1
 40
0.0
176
     1
 40
1.0
176
     1
 90
        0
176
     1
 62
    18
420
        0
176
     1
 90
       50
176
     1
 90
        3
176
     1
 62
     5
420
      255
176
     1
290
     0
176
     1
 90
       50
176
     1
 90
       50
176
     1
 90
       50
176
     1
290
     0
176
     1
 90
       50
176
     1
 62
   256
176
     0
 40
1.0
176
     0
 90
        2
176
     1
  1
strokes_ogs.tif
176
     1
290
     0
176
     1
 40
1.0
176
     1
 40
1.0
176
     1
  0
VISUALSTYLE
  5
BBE
102
{ACAD_REACTORS
330
BB1
102
}
330
BB1
100
AcDbVisualStyle
  2
Thicken
 70
    13
177
     3
291
     1
 70
    58
 90
        2
176
     1
 90
        2
176
     1
 90
        0
176
     1
 90
        0
176
     1
 40
0.6
176
     1
 40
30.0
176
     1
 62
     7
420
 16777215
176
     1
 90
        1
176
     1
 90
        4
176
     1
 62
     7
176
     1
 62
   257
176
     1
 90
        1
176
     1
 90
        1
176
     1
 40
1.0
176
     1
 90
       12
176
     1
 62
     7
176
     1
 40
1.0
176
     1
 90
        1
176
     1
 90
        6
176
     1
 90
        2
176
     1
 62
     7
176
     1
 90
        5
176
     1
 90
        0
176
     1
 90
        0
176
     1
290
     0
176
     1
 90
        1
176
     1
 40
0.0
176
     1
 90
        0
176
     1
290
     0
176
     1
290
     1
176
     1
290
     1
176
     1
290
     0
176
     1
290
     0
176
     1
290
     0
176
     1
290
     0
176
     1
290
     0
176
     1
290
     0
176
     1
 90
       50
176
     1
 40
0.0
176
     1
 40
1.0
176
     1
 90
        0
176
     1
 62
    18
420
        0
176
     1
 90
       50
176
     1
 90
        3
176
     1
 62
     5
420
      255
176
     1
290
     0
176
     1
 90
       50
176
     1
 90
       50
176
     1
 90
       50
176
     1
290
     0
176
     1
 90
       50
176
     1
 62
   256
176
     0
 40
1.0
176
     0
 90
        2
176
     1
  1
strokes_ogs.tif
176
     1
290
     0
176
     1
 40
1.0
176
     1
 40
1.0
176
     1
  0
VISUALSTYLE
  5
BB8
102
{ACAD_REACTORS
330
BB1
102
}
330
BB1
100
AcDbVisualStyle
  2
Wireframe
 70
     5
177
     3
291
     0
 70
    58
 90
        0
176
     1
 90
        2
176
     1
 90
        0
176
     1
 90
        0
176
     1
 40
0.6
176
     1
 40
30.0
176
     1
 62
     7
420
 16777215
176
     1
 90
        1
176
     1
 90
        4
176
     1
 62
     7
176
     1
 62
   257
176
     1
 90
        1
176
     1
 90
        1
176
     1
 40
1.0
176
     1
 90
        0
176
     1
 62
   257
176
     1
 40
1.0
176
     1
 90
        1
176
     1
 90
        6
176
     1
 90
        2
176
     1
 62
     7
176
     1
 90
        3
176
     1
 90
        0
176
     1
 90
        0
176
     1
290
     0
176
     1
 90
        1
176
     1
 40
0.0
176
     1
 90
        0
176
     1
290
     0
176
     1
290
     1
176
     1
290
     1
176
     1
290
     0
176
     1
290
     0
176
     1
290
     0
176
     1
290
     0
176
     1
290
     0
176
     1
290
     0
176
     1
 90
       50
176
     1
 40
0.0
176
     1
 40
1.0
176
     1
 90
        0
176
     1
 62
    18
420
        0
176
     1
 90
       50
176
     1
 90
        3
176
     1
 62
     5
420
      255
176
     1
290
     0
176
     1
 90
       50
176
     1
 90
       50
176
     1
 90
       50
176
     1
290
     0
176
     1
 90
       50
176
     1
 62
   256
176
     0
 40
1.0
176
     0
 90
        2
176
     1
  1
strokes_ogs.tif
176
     1
290
     0
176
     1
 40
1.0
176
     1
 40
1.0
176
     1
  0
VISUALSTYLE
  5
BC4
102
{ACAD_REACTORS
330
BB1
102
}
330
BB1
100
AcDbVisualStyle
  2
X-Ray
 70
    25
177
     3
291
     0
 70
    58
 90
        2
176
     1
 90
        2
176
     1
 90
        1
176
     1
 90
        1
176
     1
 40
0.5
176
     1
 40
30.0
176
     1
 62
     7
420
 16777215
176
     1
 90
        1
176
     1
 90
        0
176
     1
 62
     7
176
     1
 62
   257
176
     1
 90
        1
176
     1
 90
        1
176
     1
 40
1.0
176
     1
 90
        8
176
     1
 62
     7
176
     1
 40
1.0
176
     1
 90
        1
176
     1
 90
        6
176
     1
 90
        2
176
     1
 62
     7
176
     1
 90
        3
176
     1
 90
        0
176
     1
 90
        0
176
     1
290
     0
176
     1
 90
       13
176
     1
 40
0.0
176
     1
 90
        0
176
     1
290
     0
176
     1
290
     1
176
     1
290
     1
176
     1
290
     0
176
     1
290
     0
176
     1
290
     0
176
     1
290
     0
176
     1
290
     0
176
     1
290
     0
176
     1
 90
       50
176
     1
 40
0.0
176
     1
 40
1.0
176
     1
 90
        0
176
     1
 62
    18
420
        0
176
     1
 90
       50
176
     1
 90
        3
176
     1
 62
     5
420
      255
176
     1
290
     0
176
     1
 90
       50
176
     1
 90
       50
176
     1
 90
       50
176
     1
290
     0
176
     1
 90
       50
176
     1
 62
   256
176
     0
 40
1.0
176
     0
 90
        2
176
     1
  1
strokes_ogs.tif
176
     1
290
     0
176
     1
 40
1.0
176
     1
 40
1.0
176
     1
  0
DICTIONARYVAR
  5
E15
102
{ACAD_REACTORS
330
66
102
}
330
66
100
DictionaryVariables
280
     0
  1
1:1
  0
DICTIONARYVAR
  5
E11
102
{ACAD_REACTORS
330
66
102
}
330
66
100
DictionaryVariables
280
     0
  1
STANDARD
  0
DICTIONARYVAR
  5
E10
102
{ACAD_REACTORS
330
66
102
}
330
66
100
DictionaryVariables
280
     0
  1
STANDARD
  0
DICTIONARYVAR
  5
E12
102
{ACAD_REACTORS
330
66
102
}
330
66
100
DictionaryVariables
280
     0
  1
Imperial24
  0
DICTIONARYVAR
  5
E13
102
{ACAD_REACTORS
330
66
102
}
330
66
100
DictionaryVariables
280
     0
  1
Imperial24
  0
DICTIONARYVAR
  5
67
102
{ACAD_REACTORS
330
66
102
}
330
66
100
DictionaryVariables
280
     0
  1
2
  0
DICTIONARYVAR
  5
6B
102
{ACAD_REACTORS
330
66
102
}
330
66
100
DictionaryVariables
280
     0
  1
1
  0
DICTIONARYVAR
  5
E17
102
{ACAD_REACTORS
330
66
102
}
330
66
100
DictionaryVariables
280
     0
  1
1
  0
DICTIONARYVAR
  5
E18
102
{ACAD_REACTORS
330
66
102
}
330
66
100
DictionaryVariables
280
     0
  1
15
  0
DICTIONARYVAR
  5
E16
102
{ACAD_REACTORS
330
66
102
}
330
66
100
DictionaryVariables
280
     0
  1
0
  0
DICTIONARYVAR
  5
E14
102
{ACAD_REACTORS
330
66
102
}
330
66
100
DictionaryVariables
280
     0
  1
0
  0
XRECORD
  5
3BA
102
{ACAD_REACTORS
330
3B8
102
}
330
3B8
100
AcDbXrecord
280
     1
  0
DICTIONARY
  5
DDB
330
22
100
AcDbDictionary
280
     1
281
     1
  0
DICTIONARY
  5
BA2
330
BA1
100
AcDbDictionary
280
     1
281
     1
  3
BUMPTILE
360
BA4
  3
DIFFUSETILE
360
BA3
  3
OPACITYTILE
360
BA7
  3
REFLECTIONTILE
360
BA6
  3
REFRACTIONTILE
360
BA8
  3
SPECULARTILE
360
BA5
  0
DICTIONARY
  5
B9A
330
B99
100
AcDbDictionary
280
     1
281
     1
  3
BUMPTILE
360
B9C
  3
DIFFUSETILE
360
B9B
  3
OPACITYTILE
360
B9F
  3
REFLECTIONTILE
360
B9E
  3
REFRACTIONTILE
360
BA0
  3
SPECULARTILE
360
B9D
  0
DICTIONARY
  5
BAA
330
BA9
100
AcDbDictionary
280
     1
281
     1
  3
BUMPTILE
360
BAC
  3
DIFFUSETILE
360
BAB
  3
OPACITYTILE
360
BAF
  3
REFLECTIONTILE
360
BAE
  3
REFRACTIONTILE
360
BB0
  3
SPECULARTILE
360
BAD
  0
DICTIONARY
  5
21A6
330
BCB
100
AcDbDictionary
280
     1
281
     1
  3
ACAD_ROUNDTRIP_2008_TABLESTYLE_CELLSTYLEMAP
360
21A7
  0
XRECORD
  5
BA4
102
{ACAD_REACTORS
330
BA2
102
}
330
BA2
100
AcDbXrecord
280
     1
270
     1
271
     1
  0
XRECORD
  5
BA3
102
{ACAD_REACTORS
330
BA2
102
}
330
BA2
100
AcDbXrecord
280
     1
270
     1
271
     1
  0
XRECORD
  5
BA7
102
{ACAD_REACTORS
330
BA2
102
}
330
BA2
100
AcDbXrecord
280
     1
270
     1
271
     1
  0
XRECORD
  5
BA6
102
{ACAD_REACTORS
330
BA2
102
}
330
BA2
100
AcDbXrecord
280
     1
270
     1
271
     1
  0
XRECORD
  5
BA8
102
{ACAD_REACTORS
330
BA2
102
}
330
BA2
100
AcDbXrecord
280
     1
270
     1
271
     1
  0
XRECORD
  5
BA5
102
{ACAD_REACTORS
330
BA2
102
}
330
BA2
100
AcDbXrecord
280
     1
270
     1
271
     1
  0
XRECORD
  5
B9C
102
{ACAD_REACTORS
330
B9A
102
}
330
B9A
100
AcDbXrecord
280
     1
270
     1
271
     1
  0
XRECORD
  5
B9B
102
{ACAD_REACTORS
330
B9A
102
}
330
B9A
100
AcDbXrecord
280
     1
270
     1
271
     1
  0
XRECORD
  5
B9F
102
{ACAD_REACTORS
330
B9A
102
}
330
B9A
100
AcDbXrecord
280
     1
270
     1
271
     1
  0
XRECORD
  5
B9E
102
{ACAD_REACTORS
330
B9A
102
}
330
B9A
100
AcDbXrecord
280
     1
270
     1
271
     1
  0
XRECORD
  5
BA0
102
{ACAD_REACTORS
330
B9A
102
}
330
B9A
100
AcDbXrecord
280
     1
270
     1
271
     1
  0
XRECORD
  5
B9D
102
{ACAD_REACTORS
330
B9A
102
}
330
B9A
100
AcDbXrecord
280
     1
270
     1
271
     1
  0
XRECORD
  5
BAC
102
{ACAD_REACTORS
330
BAA
102
}
330
BAA
100
AcDbXrecord
280
     1
270
     1
271
     1
  0
XRECORD
  5
BAB
102
{ACAD_REACTORS
330
BAA
102
}
330
BAA
100
AcDbXrecord
280
     1
270
     1
271
     1
  0
XRECORD
  5
BAF
102
{ACAD_REACTORS
330
BAA
102
}
330
BAA
100
AcDbXrecord
280
     1
270
     1
271
     1
  0
XRECORD
  5
BAE
102
{ACAD_REACTORS
330
BAA
102
}
330
BAA
100
AcDbXrecord
280
     1
270
     1
271
     1
  0
XRECORD
  5
BB0
102
{ACAD_REACTORS
330
BAA
102
}
330
BAA
100
AcDbXrecord
280
     1
270
     1
271
     1
  0
XRECORD
  5
BAD
102
{ACAD_REACTORS
330
BAA
102
}
330
BAA
100
AcDbXrecord
280
     1
270
     1
271
     1
  0
CELLSTYLEMAP
  5
21A7
102
{ACAD_REACTORS
330
21A6
102
}
330
21A6
100
AcDbCellStyleMap
 90
        3
300
CELLSTYLE
  1
TABLEFORMAT_BEGIN
 90
        5
170
     1
 91
        0
 92
    32768
 62
   257
 93
        1
300
CONTENTFORMAT
  1
CONTENTFORMAT_BEGIN
 90
        0
 91
        0
 92
      512
 93
        0
300

 40
0.0
140
1.0
 94
        5
 62
     0
340
11
144
0.25
309
CONTENTFORMAT_END
171
     0
 94
        0
309
TABLEFORMAT_END
  1
CELLSTYLE_BEGIN
 90
        1
 91
        1
300
_TITLE
309
CELLSTYLE_END
300
CELLSTYLE
  1
TABLEFORMAT_BEGIN
 90
        5
170
     1
 91
        0
 92
        0
 62
   257
 93
        1
300
CONTENTFORMAT
  1
CONTENTFORMAT_BEGIN
 90
        0
 91
        0
 92
      512
 93
        0
300

 40
0.0
140
1.0
 94
        5
 62
     0
340
11
144
0.18
309
CONTENTFORMAT_END
171
     0
 94
        0
309
TABLEFORMAT_END
  1
CELLSTYLE_BEGIN
 90
        2
 91
        1
300
_HEADER
309
CELLSTYLE_END
300
CELLSTYLE
  1
TABLEFORMAT_BEGIN
 90
        5
170
     1
 91
        0
 92
        0
 62
   257
 93
        1
300
CONTENTFORMAT
  1
CONTENTFORMAT_BEGIN
 90
        0
 91
        0
 92
      512
 93
        0
300

 40
0.0
140
1.0
 94
        2
 62
     0
340
11
144
0.18
309
CONTENTFORMAT_END
171
     0
 94
        0
309
TABLEFORMAT_END
  1
CELLSTYLE_BEGIN
 90
        3
 91
        2
300
_DATA
309
CELLSTYLE_END
  0
ENDSEC
  0
SECTION
  2
ACDSDATA
 70
     2
 71
     2
  0
ACDSSCHEMA
 90
        0
  1
AcDb_Thumbnail_Schema
  2
AcDbDs::ID
280
    10
 91
        8
  2
Thumbnail_Data
280
    15
 91
        0
101
ACDSRECORD
 95
        0
 90
        1
  2
AcDbDs::TreatedAsObjectData
280
     1
291
     1
101
ACDSRECORD
 95
        0
 90
        2
  2
AcDbDs::Legacy
280
     1
291
     1
101
ACDSRECORD
  1
AcDbDs::ID
 90
        3
  2
AcDs:Indexable
280
     1
291
     1
101
ACDSRECORD
  1
AcDbDs::ID
 90
        4
  2
AcDbDs::HandleAttribute
280
     7
282
     1
  0
ACDSSCHEMA
 90
        1
  1
AcDbDs::TreatedAsObjectDataSchema
  2
AcDbDs::TreatedAsObjectData
280
     1
 91
        0
  0
ACDSSCHEMA
 90
        2
  1
AcDbDs::LegacySchema
  2
AcDbDs::Legacy
280
     1
 91
        0
  0
ACDSSCHEMA
 90
        3
  1
AcDbDs::IndexedPropertySchema
  2
AcDs:Indexable
280
     1
 91
        0
  0
ACDSSCHEMA
 90
        4
  1
AcDbDs::HandleAttributeSchema
  2
AcDbDs::HandleAttribute
280
     7
 91
        1
284
     1
  0
ACDSRECORD
 90
        0
  2
AcDbDs::ID
280
    10
320
22
  2
Thumbnail_Data
280
    15
 94
     1667
310
89504E470D0A1A0A0000000D49484452000001000000008B0803000000B9ACB7FB00000300504C5445212830000000C8C8C80000000000000000000000000000000000000000000000000000330000660000990000CC0000FF0033000033330033660033990033CC0033FF0066000066330066660066990066CC0066FF0099
310
000099330099660099990099CC0099FF00CC0000CC3300CC6600CC9900CCCC00CCFF00FF0000FF3300FF6600FF9900FFCC00FFFF3300003300333300663300993300CC3300FF3333003333333333663333993333CC3333FF3366003366333366663366993366CC3366FF3399003399333399663399993399CC3399FF33CC00
310
33CC3333CC6633CC9933CCCC33CCFF33FF0033FF3333FF6633FF9933FFCC33FFFF6600006600336600666600996600CC6600FF6633006633336633666633996633CC6633FF6666006666336666666666996666CC6666FF6699006699336699666699996699CC6699FF66CC0066CC3366CC6666CC9966CCCC66CCFF66FF0066
310
FF3366FF6666FF9966FFCC66FFFF9900009900339900669900999900CC9900FF9933009933339933669933999933CC9933FF9966009966339966669966999966CC9966FF9999009999339999669999999999CC9999FF99CC0099CC3399CC6699CC9999CCCC99CCFF99FF0099FF3399FF6699FF9999FFCC99FFFFCC0000CC00
310
33CC0066CC0099CC00CCCC00FFCC3300CC3333CC3366CC3399CC33CCCC33FFCC6600CC6633CC6666CC6699CC66CCCC66FFCC9900CC9933CC9966CC9999CC99CCCC99FFCCCC00CCCC33CCCC66CCCC99CCCCCCCCCCFFCCFF00CCFF33CCFF66CCFF99CCFFCCCCFFFFFF0000FF0033FF0066FF0099FF00CCFF00FFFF3300FF3333
310
FF3366FF3399FF33CCFF33FFFF6600FF6633FF6666FF6699FF66CCFF66FFFF9900FF9933FF9966FF9999FF99CCFF99FFFFCC00FFCC33FFCC66FFCC99FFCCCCFFCCFFFFFF00FFFF33FFFF66FFFF99FFFFCCFFFFFF0000000D0D0D1A1A1A2828283535354343435050505D5D5D6B6B6B787878868686939393A1A1A1AEAEAEBB
310
BBBBC9C9C9D6D6D6E4E4E4F1F1F1FFFFFF000000000000000000000000000000000000000000000000000000000000B21171F6000002D24944415478DAED9D5B76C3200C44D9FFA2B42BFDB7063F781A2707C75833F3D398364EB84842807CEA1C4551144551144551D7A46FD450006F1C3402200002200002981980342F08
310
C02C00D915BD5C1BD000D0058E3E0B0C80D4E237B3174C0099FFA3B98060BA003680D4FC43032A00BA80939D88430882524A55B717E142D5B2051499EEFF0D55E25F1A07102C5CCE840020F274F583BEB60573D0D25BEC01D82F0F009201705601A4B3A0EE50D66E1E00ACBA4003800FFFCB2C60164062D1529915F5A6AD91
310
89016C4170B500DFEE2D60498B60A7C1E15B635327427224427ED0C56D8799A62DA03E0D7A004B24340CA0B116F087D8B2FC3C9606F682E04948885DA0BE64800300B321D2B48081B3C1DC5B627500F15F19DF116A02301E036AE702A800302D802E503D1AC3760187EE0204303C059C1A40AB44061000A805C0BBC00FF502
310
007746005A000110000110C03C37BB3DED2380F700D8ABC33A980C036866BFE3AA43A67681E454A0B538B01C038ECD402000390EE300C251BFBA7AE95FE1E6E141676D03D8CECE3F2B259C1640715373003ACFB0EFF501995AA1FFDB47E21F04D07BA348AD5D1B539F7EF93D6606506D574700E000ECB8402F6A85B2B04A0C
310
341204FB89D00F12E13702107400F6D6028D62E0634F203D29B4572677520D2DAE289190DA3B6CBA4067370002C00F44000470CBCDE40BD902F079EA660F80E49B7AE7A34E0004C020683F089E75D92080F2648300700030066416D0EF390110006380FD59208203B018220068008C01A9055CE83A01D0050096C3671A0860
310
827FB1F1EC6AB05E2CA138CB610D56905B034E0C887B9C5797E41FFAF344A8D9E1FB5D00084064EF61E06709824F584004002706CC380B743B3ED605FCA0FB6ADBD4D88B0FB60AA0E5ED30002E1BBBF918E06689014FA5C2971CC31C80565F3583A36653E16AAB2CC9A0AE5F6E4B0E4D1649B55D20CF094703985DB5A4D821
310
E9A96D278AA2288AA2288A7A93FE00C302E11B332F10630000000049454E44AE4260823FDEE3A21D5F545B220000000049454E44AE4260824FFBB9AA75823CF89A2E002302A1E9002A9564A142ECC905DE3F9749391F00B6C0600B0B2F005EE79C68C01E179F3671F20220A4FB7A1FF75600584AD9A171408AD21FF7643F7E
310
7CDE6F190000000049454E44AE426082
  0
ENDSEC
  0
EOF
