  0
SECTION
  2
HEADER
  9
$ACADVER
  1
AC1009
  9
$INSBASE
 10
0.0
 20
0.0
 30
0.0
  9
$EXTMIN
 10
13.64518180642162
 20
12.67713362705155
 30
-0.000000000000013
  9
$EXTMAX
 10
30.646709702000031
 20
23.683522302723631
 30
0.0000000000000023
  9
$LIMMIN
 10
0.0
 20
0.0
  9
$LIMMAX
 10
12.0
 20
9.0
  9
$ORTHOMODE
 70
     1
  9
$REGENMODE
 70
     1
  9
$FILLMODE
 70
     1
  9
$QTEXTMODE
 70
     0
  9
$MIRRTEXT
 70
     0
  9
$DRAGMODE
 70
     2
  9
$LTSCALE
 40
1.0
  9
$OSMODE
 70
    39
  9
$ATTMODE
 70
     1
  9
$TEXTSIZE
 40
0.125
  9
$TRACEWID
 40
0.05
  9
$TEXTSTYLE
  7
STANDARD
  9
$CLAYER
  8
DIMENSIONS
  9
$CELTYPE
  6
BYLAYER
  9
$CECOLOR
 62
   256
  9
$DIMSCALE
 40
1.0
  9
$DIMASZ
 40
0.125
  9
$DIMEXO
 40
0.0625
  9
$DIMDLI
 40
0.38
  9
$DIMRND
 40
0.0
  9
$DIMDLE
 40
0.0
  9
$DIMEXE
 40
0.18
  9
$DIMTP
 40
0.0
  9
$DIMTM
 40
0.0
  9
$DIMTXT
 40
0.125
  9
$DIMCEN
 40
0.09
  9
$DIMTSZ
 40
0.0
  9
$DIMTOL
 70
     0
  9
$DIMLIM
 70
     0
  9
$DIMTIH
 70
     1
  9
$DIMTOH
 70
     1
  9
$DIMSE1
 70
     0
  9
$DIMSE2
 70
     0
  9
$DIMTAD
 70
     0
  9
$DIMZIN
 70
     0
  9
$DIMBLK
  1

  9
$DIMASO
 70
     1
  9
$DIMSHO
 70
     1
  9
$DIMPOST
  1

  9
$DIMAPOST
  1

  9
$DIMALT
 70
     1
  9
$DIMALTD
 70
     2
  9
$DIMALTF
 40
25.399999999999999
  9
$DIMLFAC
 40
1.0
  9
$DIMTOFL
 70
     0
  9
$DIMTVP
 40
0.0
  9
$DIMTIX
 70
     0
  9
$DIMSOXD
 70
     0
  9
$DIMSAH
 70
     0
  9
$DIMBLK1
  1

  9
$DIMBLK2
  1

  9
$DIMSTYLE
  2
STANDARD
  9
$DIMCLRD
 70
     0
  9
$DIMCLRE
 70
     0
  9
$DIMCLRT
 70
     0
  9
$DIMTFAC
 40
1.0
  9
$DIMGAP
 40
0.09
  9
$LUNITS
 70
     2
  9
$LUPREC
 70
     4
  9
$SKETCHINC
 40
0.1
  9
$FILLETRAD
 40
0.0
  9
$AUNITS
 70
     0
  9
$AUPREC
 70
     0
  9
$MENU
  1
.
  9
$ELEVATION
 40
0.0
  9
$PELEVATION
 40
0.0
  9
$THICKNESS
 40
0.0
  9
$LIMCHECK
 70
     0
  9
$BLIPMODE
 70
     0
  9
$CHAMFERA
 40
0.0
  9
$CHAMFERB
 40
0.0
  9
$SKPOLY
 70
     0
  9
$TDCREATE
 40
2455580.4643647461
  9
$TDUPDATE
 40
2456822.3821581248
  9
$TDINDWG
 40
0.1044555093
  9
$TDUSRTIMER
 40
0.1044555093
  9
$USRTIMER
 70
     1
  9
$ANGBASE
 50
0.0
  9
$ANGDIR
 70
     0
  9
$PDMODE
 70
     0
  9
$PDSIZE
 40
0.0
  9
$PLINEWID
 40
0.0
  9
$COORDS
 70
     1
  9
$SPLFRAME
 70
     0
  9
$SPLINETYPE
 70
     6
  9
$SPLINESEGS
 70
     8
  9
$ATTDIA
 70
     0
  9
$ATTREQ
 70
     1
  9
$HANDLING
 70
     1
  9
$HANDSEED
  5
128A
  9
$SURFTAB1
 70
     6
  9
$SURFTAB2
 70
     6
  9
$SURFTYPE
 70
     6
  9
$SURFU
 70
     6
  9
$SURFV
 70
     6
  9
$UCSNAME
  2

  9
$UCSORG
 10
0.0
 20
0.0
 30
0.0
  9
$UCSXDIR
 10
1.0
 20
0.0
 30
0.0
  9
$UCSYDIR
 10
0.0
 20
1.0
 30
0.0
  9
$PUCSNAME
  2

  9
$PUCSORG
 10
0.0
 20
0.0
 30
0.0
  9
$PUCSXDIR
 10
1.0
 20
0.0
 30
0.0
  9
$PUCSYDIR
 10
0.0
 20
1.0
 30
0.0
  9
$USERI1
 70
     0
  9
$USERI2
 70
     0
  9
$USERI3
 70
     0
  9
$USERI4
 70
     0
  9
$USERI5
 70
     0
  9
$USERR1
 40
0.0
  9
$USERR2
 40
0.0
  9
$USERR3
 40
0.0
  9
$USERR4
 40
0.0
  9
$USERR5
 40
0.0
  9
$WORLDVIEW
 70
     1
  9
$SHADEDGE
 70
     3
  9
$SHADEDIF
 70
    70
  9
$TILEMODE
 70
     1
  9
$MAXACTVP
 70
    64
  9
$PLIMCHECK
 70
     0
  9
$PEXTMIN
 10
0.0
 20
0.0
 30
0.0
  9
$PEXTMAX
 10
0.0
 20
0.0
 30
0.0
  9
$PLIMMIN
 10
0.0
 20
0.0
  9
$PLIMMAX
 10
12.0
 20
9.0
  9
$UNITMODE
 70
     0
  9
$VISRETAIN
 70
     1
  9
$PLINEGEN
 70
     0
  9
$PSLTSCALE
 70
     1
  0
ENDSEC
  0
SECTION
  2
TABLES
  0
TABLE
  2
VPORT
 70
     1
  0
VPORT
  2
*ACTIVE
 70
     0
 10
0.0
 20
0.0
 11
1.0
 21
1.0
 12
22.146438979678891
 22
18.778880232625959
 13
0.0
 23
0.0
 14
0.5
 24
0.5
 15
0.5
 25
0.5
 16
0.0
 26
0.0
 36
1.0
 17
0.0
 27
0.0
 37
0.0
 40
12.3125410273216
 41
2.2000000000000002
 42
50.0
 43
0.0
 44
0.0
 50
0.0
 51
0.0
 71
     0
 72
  1000
 73
     1
 74
     2
 75
     0
 76
     0
 77
     0
 78
     0
  0
ENDTAB
  0
TABLE
  2
LTYPE
 70
     2
  0
LTYPE
  2
CONTINUOUS
 70
     0
  3
Solid line
 72
    65
 73
     0
 40
0.0
  0
LTYPE
  2
PHANTOM2
 70
     0
  3
___ _ _ ___ _ _ ___ _ _ ___ _ _
 72
    65
 73
     6
 40
1.25
 49
0.625
 49
-0.125
 49
0.125
 49
-0.125
 49
0.125
 49
-0.125
  0
ENDTAB
  0
TABLE
  2
LAYER
 70
    10
  0
LAYER
  2
0
 70
     0
 62
     7
  6
CONTINUOUS
  0
LAYER
  2
FRAME
 70
     0
 62
     7
  6
CONTINUOUS
  0
LAYER
  2
FRAME_TEXT
 70
     0
 62
     1
  6
CONTINUOUS
  0
LAYER
  2
DEFPOINTS
 70
     0
 62
     7
  6
CONTINUOUS
  0
LAYER
  2
DIMENSIONS
 70
     0
 62
     1
  6
CONTINUOUS
  0
LAYER
  2
CONVERTER
 70
     0
 62
     7
  6
CONTINUOUS
  0
LAYER
  2
GRID
 70
     0
 62
     7
  6
CONTINUOUS
  0
LAYER
  2
PINOUT
 70
     0
 62
     1
  6
CONTINUOUS
  0
LAYER
  2
CONSTRUCTION
 70
     0
 62
   141
  6
CONTINUOUS
  0
LAYER
  2
TOPSILK
 70
     0
 62
     7
  6
CONTINUOUS
  0
ENDTAB
  0
TABLE
  2
STYLE
 70
     2
  0
STYLE
  2
STANDARD
 70
     0
 40
0.0
 41
1.0
 50
0.0
 71
     0
 42
0.125
  3
txt
  4

  0
ENDTAB
  0
TABLE
  2
VIEW
 70
     0
  0
ENDTAB
  0
TABLE
  2
UCS
 70
     0
  0
ENDTAB
  0
TABLE
  2
APPID
 70
     8
  0
APPID
  2
ACAD
 70
     0
  0
APPID
  2
DCO15
 70
     0
  0
APPID
  2
ACAD_NAV_VCDISPLAY
 70
     0
  0
APPID
  2
ACAECLAYERSTANDARD
 70
     0
  0
APPID
  2
ACCMTRANSPARENCY
 70
     0
  0
APPID
  2
ACAD_DSTYLE_DIMJAG
 70
     0
  0
APPID
  2
ACAD_DSTYLE_DIMTALN
 70
     0
  0
APPID
  2
ACAD_MLEADERVER
 70
     0
  0
ENDTAB
  0
TABLE
  2
DIMSTYLE
 70
     2
  0
DIMSTYLE
  2
STANDARD
 70
     0
  3

  4

  5

  6

  7

 40
1.0
 41
0.125
 42
0.0625
 43
0.38
 44
0.18
 45
0.0
 46
0.0
 47
0.0
 48
0.0
140
0.125
141
0.09
142
0.0
143
25.399999999999999
144
1.0
145
0.0
146
1.0
147
0.09
 71
     0
 72
     0
 73
     1
 74
     1
 75
     0
 76
     0
 77
     0
 78
     0
170
     1
171
     2
172
     0
173
     0
174
     0
175
     0
176
     0
177
     0
178
     0
  0
ENDTAB
  0
ENDSEC
  0
SECTION
  2
BLOCKS
  0
BLOCK
  8
0
  2
$MODEL_SPACE
 70
     0
 10
0.0
 20
0.0
 30
0.0
  3
$MODEL_SPACE
  1

  0
ENDBLK
  5
21
  8
0
  0
BLOCK
 67
     1
  8
0
  2
$PAPER_SPACE
 70
     0
 10
0.0
 20
0.0
 30
0.0
  3
$PAPER_SPACE
  1

  0
ENDBLK
  5
5B
 67
     1
  8
0
  0
BLOCK
  8
0
  2
A$C22C92D23
 70
     0
 10
0.0
 20
0.0
 30
0.0
  3
A$C22C92D23
  1

  0
TEXT
  5
117
  8
FRAME_TEXT
 10
-0.0000000000000284
 20
0.0416666867809426
 30
0.0
 40
0.125
  1
Dimensional Drawing
  0
ENDBLK
  5
119
  8
0
  0
BLOCK
  8
0
  2
A$C5BC8728C
 70
     0
 10
0.0
 20
0.0
 30
0.0
  3
A$C5BC8728C
  1

  0
TEXT
  5
5E9
  8
FRAME_TEXT
 10
-0.0000000086647987
 20
-0.0000000014337491
 30
0.0
 40
0.05
  1
CDL    03/05
  0
ENDBLK
  5
5EB
  8
0
  0
BLOCK
  8
0
  2
A$C62316909
 70
     0
 10
0.0
 20
0.0
 30
0.0
  3
A$C62316909
  1

  0
INSERT
  5
60E
  8
DIMENSIONS
  2
*U35
 10
0.0
 20
0.0
 30
0.0
  0
ENDBLK
  5
610
  8
0
  0
BLOCK
  8
0
  2
*D24
 70
     1
 10
0.0
 20
0.0
 30
0.0
  3
*D24
  1

  0
LINE
  5
1052
  8
DIMENSIONS
 62
     0
 10
20.84057366080172
 20
21.050600396990308
 30
0.0
 11
20.84057366080172
 21
22.64886478937105
 31
0.0
  0
LINE
  5
1053
  8
DIMENSIONS
 62
     0
 10
22.440573660801729
 20
21.550600396990301
 30
0.0
 11
22.440573660801729
 21
22.64886478937105
 31
0.0
  0
LINE
  5
1054
  8
DIMENSIONS
 62
     0
 10
20.965573660801731
 20
22.46886478937105
 30
0.0
 11
21.06909384825666
 21
22.46886478937105
 31
0.0
  0
LINE
  5
1055
  8
DIMENSIONS
 62
     0
 10
22.315573660801721
 20
22.46886478937105
 30
0.0
 11
22.212053473346788
 21
22.46886478937105
 31
0.0
  0
SOLID
  5
1056
  8
DIMENSIONS
 62
     0
 10
20.965573660801731
 20
22.48969812270439
 30
0.0
 11
20.965573660801731
 21
22.448031456037722
 31
0.0
 12
20.84057366080172
 22
22.46886478937105
 32
0.0
 13
20.84057366080172
 23
22.46886478937105
 33
0.0
  0
SOLID
  5
1057
  8
DIMENSIONS
 62
     0
 10
22.315573660801721
 20
22.48969812270439
 30
0.0
 11
22.315573660801721
 21
22.448031456037722
 31
0.0
 12
22.440573660801729
 22
22.46886478937105
 32
0.0
 13
22.440573660801729
 23
22.46886478937105
 33
0.0
  0
INSERT
  5
1058
  8
DIMENSIONS
  2
*U97
 10
0.0
 20
0.0
 30
0.0
  0
POINT
  5
1059
  8
DEFPOINTS
 62
     0
 10
20.84057366080172
 20
20.988100396990308
 30
0.0
  0
POINT
  5
105A
  8
DEFPOINTS
 62
     0
 10
22.440573660801729
 20
21.488100396990301
 30
0.0
  0
POINT
  5
105B
  8
DEFPOINTS
 62
     0
 10
22.440573660801729
 20
22.46886478937105
 30
0.0
  0
ENDBLK
  5
F59
  8
0
  0
BLOCK
  8
0
  2
*D25
 70
     1
 10
0.0
 20
0.0
 30
0.0
  3
*D25
  1

  0
LINE
  5
105C
  8
DIMENSIONS
 62
     0
 10
20.628073660801729
 20
21.813100396990311
 30
0.0
 11
20.628073660801729
 21
22.342661158627621
 31
0.0
  0
LINE
  5
105D
  8
DIMENSIONS
 62
     0
 10
20.84057366080172
 20
21.050600396990308
 30
0.0
 11
20.84057366080172
 21
22.342661158627621
 31
0.0
  0
LINE
  5
105E
  8
DIMENSIONS
 62
     0
 10
20.503073660801721
 20
22.162661158627621
 30
0.0
 11
20.378073660801729
 21
22.162661158627621
 31
0.0
  0
LINE
  5
105F
  8
DIMENSIONS
 62
     0
 10
20.965573660801731
 20
22.162661158627621
 30
0.0
 11
21.09057366080172
 21
22.162661158627621
 31
0.0
  0
SOLID
  5
1060
  8
DIMENSIONS
 62
     0
 10
20.503073660801721
 20
22.18349449196095
 30
0.0
 11
20.503073660801721
 21
22.141827825294289
 31
0.0
 12
20.628073660801729
 22
22.162661158627621
 32
0.0
 13
20.628073660801729
 23
22.162661158627621
 33
0.0
  0
SOLID
  5
1061
  8
DIMENSIONS
 62
     0
 10
20.965573660801731
 20
22.18349449196095
 30
0.0
 11
20.965573660801731
 21
22.141827825294289
 31
0.0
 12
20.84057366080172
 22
22.162661158627621
 32
0.0
 13
20.84057366080172
 23
22.162661158627621
 33
0.0
  0
INSERT
  5
1062
  8
DIMENSIONS
  2
*U98
 10
0.0
 20
0.0
 30
0.0
  0
POINT
  5
1063
  8
DEFPOINTS
 62
     0
 10
20.628073660801729
 20
21.750600396990301
 30
0.0
  0
POINT
  5
1064
  8
DEFPOINTS
 62
     0
 10
20.84057366080172
 20
20.988100396990308
 30
0.0
  0
POINT
  5
1065
  8
DEFPOINTS
 62
     0
 10
20.84057366080172
 20
22.162661158627621
 30
0.0
  0
ENDBLK
  5
F66
  8
0
  0
BLOCK
  8
0
  2
*D26
 70
     1
 10
0.0
 20
0.0
 30
0.0
  3
*D26
  1

  0
LINE
  5
1206
  8
DIMENSIONS
 62
     0
 10
20.77807366080172
 20
19.988100396990301
 30
0.0
 11
20.0525545089079
 21
19.988100396990301
 31
0.0
  0
LINE
  5
1207
  8
DIMENSIONS
 62
     0
 10
20.565573660801729
 20
19.725600396990298
 30
0.0
 11
20.0525545089079
 21
19.725600396990298
 31
0.0
  0
LINE
  5
1208
  8
DIMENSIONS
 62
     0
 10
20.232554508907899
 20
20.113100396990308
 30
0.0
 11
20.232554508907899
 21
20.238100396990301
 31
0.0
  0
LINE
  5
1209
  8
DIMENSIONS
 62
     0
 10
20.232554508907899
 20
19.600600396990298
 30
0.0
 11
20.232554508907899
 21
19.475600396990298
 31
0.0
  0
LINE
  5
120A
  8
DIMENSIONS
 62
     0
 10
20.107554508907899
 20
19.35740318863267
 30
0.0
 11
20.232554508907899
 21
19.35740318863267
 31
0.0
  0
LINE
  5
120B
  8
DIMENSIONS
 62
     0
 10
20.232554508907899
 20
19.35740318863267
 30
0.0
 11
20.232554508907899
 21
19.475600396990298
 31
0.0
  0
TEXT
  8
DIMENSIONS
  40
0.125
  5
1289
  62
0
  72
0
  71
0
 10
19.3247
 20
19.1362
 30
0.000000
  1
0.263 [6.67]
  0
SOLID
  5
120D
  8
DIMENSIONS
 62
     0
 10
20.211721175574571
 20
20.113100396990308
 30
0.0
 11
20.253387842241231
 21
20.113100396990308
 31
0.0
 12
20.232554508907899
 22
19.988100396990301
 32
0.0
 13
20.232554508907899
 23
19.988100396990301
 33
0.0
  0
SOLID
  5
120E
  8
DIMENSIONS
 62
     0
 10
20.211721175574571
 20
19.600600396990298
 30
0.0
 11
20.253387842241231
 21
19.600600396990298
 31
0.0
 12
20.232554508907899
 22
19.725600396990298
 32
0.0
 13
20.232554508907899
 23
19.725600396990298
 33
0.0
  0
POINT
  5
120F
  8
DEFPOINTS
 62
     0
 10
20.84057366080172
 20
19.988100396990301
 30
0.0
  0
POINT
  5
1210
  8
DEFPOINTS
 62
     0
 10
20.628073660801729
 20
19.725600396990298
 30
0.0
  0
POINT
  5
1211
  8
DEFPOINTS
 62
     0
 10
20.232554508907899
 20
19.725600396990298
 30
0.0
  0
ENDBLK
  5
F73
  8
0
  0
BLOCK
  8
0
  2
*D27
 70
     1
 10
0.0
 20
0.0
 30
0.0
  3
*D27
  1

  0
LINE
  5
1072
  8
DIMENSIONS
 62
     0
 10
20.628073660801729
 20
21.813100396990311
 30
0.0
 11
20.628073660801729
 21
22.995008044048522
 31
0.0
  0
LINE
  5
1073
  8
DIMENSIONS
 62
     0
 10
22.65307366080172
 20
21.813100396990311
 30
0.0
 11
22.65307366080172
 21
22.995008044048522
 31
0.0
  0
LINE
  5
1074
  8
DIMENSIONS
 62
     0
 10
20.753073660801721
 20
22.815008044048518
 30
0.0
 11
21.060261836720969
 21
22.815008044048518
 31
0.0
  0
LINE
  5
1075
  8
DIMENSIONS
 62
     0
 10
22.528073660801731
 20
22.815008044048518
 30
0.0
 11
22.220885484882469
 21
22.815008044048518
 31
0.0
  0
SOLID
  5
1076
  8
DIMENSIONS
 62
     0
 10
20.753073660801721
 20
22.83584137738185
 30
0.0
 11
20.753073660801721
 21
22.79417471071519
 31
0.0
 12
20.628073660801729
 22
22.815008044048518
 32
0.0
 13
20.628073660801729
 23
22.815008044048518
 33
0.0
  0
SOLID
  5
1077
  8
DIMENSIONS
 62
     0
 10
22.528073660801731
 20
22.83584137738185
 30
0.0
 11
22.528073660801731
 21
22.79417471071519
 31
0.0
 12
22.65307366080172
 22
22.815008044048518
 32
0.0
 13
22.65307366080172
 23
22.815008044048518
 33
0.0
  0
INSERT
  5
1078
  8
DIMENSIONS
  2
*U99
 10
0.0
 20
0.0
 30
0.0
  0
POINT
  5
1079
  8
DEFPOINTS
 62
     0
 10
20.628073660801729
 20
21.750600396990301
 30
0.0
  0
POINT
  5
107A
  8
DEFPOINTS
 62
     0
 10
22.65307366080172
 20
21.750600396990301
 30
0.0
  0
POINT
  5
107B
  8
DEFPOINTS
 62
     0
 10
22.65307366080172
 20
22.815008044048518
 30
0.0
  0
ENDBLK
  5
F82
  8
0
  0
BLOCK
  8
0
  2
*D28
 70
     1
 10
0.0
 20
0.0
 30
0.0
  3
*D28
  1

  0
LINE
  5
107C
  8
DIMENSIONS
 62
     0
 10
20.565573660801729
 20
21.750600396990301
 30
0.0
 11
19.457080249433378
 21
21.750600396990301
 31
0.0
  0
LINE
  5
107D
  8
DIMENSIONS
 62
     0
 10
20.565573660801729
 20
19.725600396990298
 30
0.0
 11
19.457080249433378
 21
19.725600396990298
 31
0.0
  0
LINE
  5
107E
  8
DIMENSIONS
 62
     0
 10
19.637080249433382
 20
21.625600396990301
 30
0.0
 11
19.637080249433382
 21
20.908940339311862
 31
0.0
  0
LINE
  5
107F
  8
DIMENSIONS
 62
     0
 10
19.637080249433382
 20
19.850600396990298
 30
0.0
 11
19.637080249433382
 21
20.567260454668752
 31
0.0
  0
SOLID
  5
1080
  8
DIMENSIONS
 62
     0
 10
19.616246916100039
 20
21.625600396990301
 30
0.0
 11
19.65791358276671
 21
21.625600396990301
 31
0.0
 12
19.637080249433382
 22
21.750600396990301
 32
0.0
 13
19.637080249433382
 23
21.750600396990301
 33
0.0
  0
SOLID
  5
1081
  8
DIMENSIONS
 62
     0
 10
19.616246916100039
 20
19.850600396990298
 30
0.0
 11
19.65791358276671
 21
19.850600396990298
 31
0.0
 12
19.637080249433382
 22
19.725600396990298
 32
0.0
 13
19.637080249433382
 23
19.725600396990298
 33
0.0
  0
INSERT
  5
1082
  8
DIMENSIONS
  2
*U100
 10
0.0
 20
0.0
 30
0.0
  0
POINT
  5
1083
  8
DEFPOINTS
 62
     0
 10
20.628073660801729
 20
21.750600396990301
 30
0.0
  0
POINT
  5
1084
  8
DEFPOINTS
 62
     0
 10
20.628073660801729
 20
19.725600396990298
 30
0.0
  0
POINT
  5
1085
  8
DEFPOINTS
 62
     0
 10
19.637080249433382
 20
19.725600396990298
 30
0.0
  0
ENDBLK
  5
F8F
  8
0
  0
BLOCK
  8
0
  2
*D29
 70
     1
 10
0.0
 20
0.0
 30
0.0
  3
*D29
  1

  0
LINE
  5
1086
  8
DIMENSIONS
 62
     0
 10
22.71557366080172
 20
17.924571973169961
 30
0.0
 11
23.657157542005098
 21
17.924571973169961
 31
0.0
  0
LINE
  5
1087
  8
DIMENSIONS
 62
     0
 10
22.603073660801719
 20
17.414571973169949
 30
0.0
 11
23.657157542005098
 21
17.414571973169949
 31
0.0
  0
LINE
  5
1088
  8
DIMENSIONS
 62
     0
 10
23.477157542005099
 20
18.049571973169961
 30
0.0
 11
23.477157542005099
 21
18.17457197316995
 31
0.0
  0
LINE
  5
1089
  8
DIMENSIONS
 62
     0
 10
23.477157542005099
 20
17.289571973169949
 30
0.0
 11
23.477157542005099
 21
17.164571973169949
 31
0.0
  0
SOLID
  5
108A
  8
DIMENSIONS
 62
     0
 10
23.45632420867177
 20
18.049571973169961
 30
0.0
 11
23.497990875338431
 21
18.049571973169961
 31
0.0
 12
23.477157542005099
 22
17.924571973169961
 32
0.0
 13
23.477157542005099
 23
17.924571973169961
 33
0.0
  0
SOLID
  5
108B
  8
DIMENSIONS
 62
     0
 10
23.45632420867177
 20
17.289571973169949
 30
0.0
 11
23.497990875338431
 21
17.289571973169949
 31
0.0
 12
23.477157542005099
 22
17.414571973169949
 32
0.0
 13
23.477157542005099
 23
17.414571973169949
 33
0.0
  0
INSERT
  5
108C
  8
DIMENSIONS
  2
*U101
 10
0.0
 20
0.0
 30
0.0
  0
POINT
  5
108D
  8
DEFPOINTS
 62
     0
 10
22.65307366080172
 20
17.924571973169961
 30
0.0
  0
POINT
  5
108E
  8
DEFPOINTS
 62
     0
 10
22.540573660801709
 20
17.414571973169949
 30
0.0
  0
POINT
  5
108F
  8
DEFPOINTS
 62
     0
 10
23.477157542005099
 20
17.414571973169949
 30
0.0
  0
ENDBLK
  5
FD0
  8
0
  0
BLOCK
  8
0
  2
*D30
 70
     1
 10
0.0
 20
0.0
 30
0.0
  3
*D30
  1

  0
LINE
  5
1090
  8
DIMENSIONS
 62
     0
 10
20.565573660801729
 20
17.924571973169961
 30
0.0
 11
19.737328286167241
 21
17.924571973169961
 31
0.0
  0
LINE
  5
1091
  8
DIMENSIONS
 62
     0
 10
20.758073660801731
 20
18.17457197316995
 30
0.0
 11
19.737328286167241
 21
18.17457197316995
 31
0.0
  0
LINE
  5
1092
  8
DIMENSIONS
 62
     0
 10
19.91732828616724
 20
17.799571973169961
 30
0.0
 11
19.91732828616724
 21
17.674571973169961
 31
0.0
  0
LINE
  5
1093
  8
DIMENSIONS
 62
     0
 10
19.91732828616724
 20
18.299571973169961
 30
0.0
 11
19.91732828616724
 21
18.52948656865285
 31
0.0
  0
LINE
  5
1094
  8
DIMENSIONS
 62
     0
 10
19.91732828616724
 20
18.52948656865285
 30
0.0
 11
20.04232828616724
 21
18.52948656865285
 31
0.0
  0
SOLID
  5
1095
  8
DIMENSIONS
 62
     0
 10
19.896494952833908
 20
17.799571973169961
 30
0.0
 11
19.938161619500569
 21
17.799571973169961
 31
0.0
 12
19.91732828616724
 22
17.924571973169961
 32
0.0
 13
19.91732828616724
 23
17.924571973169961
 33
0.0
  0
SOLID
  5
1096
  8
DIMENSIONS
 62
     0
 10
19.896494952833908
 20
18.299571973169961
 30
0.0
 11
19.938161619500569
 21
18.299571973169961
 31
0.0
 12
19.91732828616724
 22
18.17457197316995
 32
0.0
 13
19.91732828616724
 23
18.17457197316995
 33
0.0
  0
INSERT
  5
1097
  8
DIMENSIONS
  2
*U102
 10
0.0
 20
0.0
 30
0.0
  0
POINT
  5
1098
  8
DEFPOINTS
 62
     0
 10
20.628073660801729
 20
17.924571973169961
 30
0.0
  0
POINT
  5
1099
  8
DEFPOINTS
 62
     0
 10
20.820573660801731
 20
18.17457197316995
 30
0.0
  0
POINT
  5
109A
  8
DEFPOINTS
 62
     0
 10
19.91732828616724
 20
18.17457197316995
 30
0.0
  0
ENDBLK
  5
FDD
  8
0
  0
BLOCK
  8
0
  2
*D31
 70
     1
 10
0.0
 20
0.0
 30
0.0
  3
*D31
  1

  0
LINE
  5
109B
  8
DIMENSIONS
 62
     0
 10
22.503073660801729
 20
19.988100396990301
 30
0.0
 11
23.40120062623544
 21
19.988100396990301
 31
0.0
  0
LINE
  5
109C
  8
DIMENSIONS
 62
     0
 10
22.503073660801729
 20
20.488100396990308
 30
0.0
 11
23.40120062623544
 21
20.488100396990308
 31
0.0
  0
LINE
  5
109D
  8
DIMENSIONS
 62
     0
 10
23.22120062623544
 20
19.863100396990301
 30
0.0
 11
23.22120062623544
 21
19.738100396990301
 31
0.0
  0
LINE
  5
109E
  8
DIMENSIONS
 62
     0
 10
23.22120062623544
 20
20.613100396990301
 30
0.0
 11
23.22120062623544
 21
20.738100396990308
 31
0.0
  0
SOLID
  5
109F
  8
DIMENSIONS
 62
     0
 10
23.200367292902111
 20
19.863100396990301
 30
0.0
 11
23.242033959568769
 21
19.863100396990301
 31
0.0
 12
23.22120062623544
 22
19.988100396990301
 32
0.0
 13
23.22120062623544
 23
19.988100396990301
 33
0.0
  0
SOLID
  5
10A0
  8
DIMENSIONS
 62
     0
 10
23.200367292902111
 20
20.613100396990301
 30
0.0
 11
23.242033959568769
 21
20.613100396990301
 31
0.0
 12
23.22120062623544
 22
20.488100396990308
 32
0.0
 13
23.22120062623544
 23
20.488100396990308
 33
0.0
  0
INSERT
  5
10A1
  8
DIMENSIONS
  2
*U103
 10
0.0
 20
0.0
 30
0.0
  0
POINT
  5
10A2
  8
DEFPOINTS
 62
     0
 10
22.440573660801729
 20
19.988100396990301
 30
0.0
  0
POINT
  5
10A3
  8
DEFPOINTS
 62
     0
 10
22.440573660801729
 20
20.488100396990308
 30
0.0
  0
POINT
  5
10A4
  8
DEFPOINTS
 62
     0
 10
23.22120062623544
 20
20.488100396990308
 30
0.0
  0
ENDBLK
  5
FEB
  8
0
  0
BLOCK
  8
0
  2
*D32
 70
     1
 10
0.0
 20
0.0
 30
0.0
  3
*D32
  1

  0
LINE
  5
10A5
  8
DIMENSIONS
 62
     0
 10
22.503073660801729
 20
19.988100396990301
 30
0.0
 11
24.093362841169661
 21
19.988100396990301
 31
0.0
  0
LINE
  5
10A6
  8
DIMENSIONS
 62
     0
 10
22.503073660801729
 20
20.988100396990308
 30
0.0
 11
24.093362841169661
 21
20.988100396990301
 31
0.0
  0
LINE
  5
10A7
  8
DIMENSIONS
 62
     0
 10
23.913362841169651
 20
20.113100396990308
 30
0.0
 11
23.913362841169651
 21
20.34636301666043
 31
0.0
  0
LINE
  5
10A8
  8
DIMENSIONS
 62
     0
 10
23.913362841169651
 20
20.863100396990301
 30
0.0
 11
23.913362841169651
 21
20.68804290130354
 31
0.0
  0
SOLID
  5
10A9
  8
DIMENSIONS
 62
     0
 10
23.892529507836318
 20
20.113100396990308
 30
0.0
 11
23.93419617450299
 21
20.113100396990308
 31
0.0
 12
23.913362841169651
 22
19.988100396990301
 32
0.0
 13
23.913362841169651
 23
19.988100396990301
 33
0.0
  0
SOLID
  5
10AA
  8
DIMENSIONS
 62
     0
 10
23.892529507836318
 20
20.863100396990301
 30
0.0
 11
23.93419617450299
 21
20.863100396990301
 31
0.0
 12
23.913362841169651
 22
20.988100396990308
 32
0.0
 13
23.913362841169651
 23
20.988100396990308
 33
0.0
  0
INSERT
  5
10AB
  8
DIMENSIONS
  2
*U104
 10
0.0
 20
0.0
 30
0.0
  0
POINT
  5
10AC
  8
DEFPOINTS
 62
     0
 10
22.440573660801729
 20
19.988100396990301
 30
0.0
  0
POINT
  5
10AD
  8
DEFPOINTS
 62
     0
 10
22.440573660801729
 20
20.988100396990308
 30
0.0
  0
POINT
  5
10AE
  8
DEFPOINTS
 62
     0
 10
23.913362841169651
 20
20.988100396990308
 30
0.0
  0
ENDBLK
  5
FF8
  8
0
  0
BLOCK
  8
0
  2
*D33
 70
     1
 10
0.0
 20
0.0
 30
0.0
  3
*D33
  1

  0
LINE
  5
10AF
  8
DIMENSIONS
 62
     0
 10
22.503073660801729
 20
19.988100396990301
 30
0.0
 11
24.65647790028364
 21
19.988100396990301
 31
0.0
  0
LINE
  5
10B0
  8
DIMENSIONS
 62
     0
 10
22.503073660801729
 20
21.488100396990301
 30
0.0
 11
24.65647790028364
 21
21.488100396990301
 31
0.0
  0
LINE
  5
10B1
  8
DIMENSIONS
 62
     0
 10
24.476477900283641
 20
20.113100396990301
 30
0.0
 11
24.476477900283641
 21
20.672132968117442
 31
0.0
  0
LINE
  5
10B2
  8
DIMENSIONS
 62
     0
 10
24.476477900283641
 20
21.363100396990301
 30
0.0
 11
24.476477900283641
 21
21.013812852760552
 31
0.0
  0
SOLID
  5
10B3
  8
DIMENSIONS
 62
     0
 10
24.455644566950308
 20
20.113100396990301
 30
0.0
 11
24.497311233616969
 21
20.113100396990301
 31
0.0
 12
24.476477900283641
 22
19.988100396990301
 32
0.0
 13
24.476477900283641
 23
19.988100396990301
 33
0.0
  0
SOLID
  5
10B4
  8
DIMENSIONS
 62
     0
 10
24.455644566950308
 20
21.363100396990301
 30
0.0
 11
24.497311233616969
 21
21.363100396990301
 31
0.0
 12
24.476477900283641
 22
21.488100396990301
 32
0.0
 13
24.476477900283641
 23
21.488100396990301
 33
0.0
  0
INSERT
  5
10B5
  8
DIMENSIONS
  2
*U105
 10
0.0
 20
0.0
 30
0.0
  0
POINT
  5
10B6
  8
DEFPOINTS
 62
     0
 10
22.440573660801729
 20
19.988100396990301
 30
0.0
  0
POINT
  5
10B7
  8
DEFPOINTS
 62
     0
 10
22.440573660801729
 20
21.488100396990301
 30
0.0
  0
POINT
  5
10B8
  8
DEFPOINTS
 62
     0
 10
24.476477900283641
 20
21.488100396990301
 30
0.0
  0
ENDBLK
  5
1005
  8
0
  0
BLOCK
  8
0
  2
*U35
 70
     1
 10
0.0
 20
0.0
 30
0.0
  3
*U35
  1

  0
TEXT
  5
111B
  8
PINOUT
 10
-0.0030641437731005
 20
-0.0000000038621124
 30
0.0
 40
0.125
  1
PIN #
  0
ENDBLK
  5
111D
  8
0
  0
BLOCK
  8
0
  2
*U36
 70
     1
 10
0.0
 20
0.0
 30
0.0
  3
*U36
  1

  0
TEXT
  5
111F
  8
PINOUT
 10
19.731345750261699
 20
15.82345055340341
 30
0.0
 40
0.125
  1
DUAL
  0
ENDBLK
  5
1121
  8
0
  0
BLOCK
  8
0
  2
*U37
 70
     1
 10
0.0
 20
0.0
 30
0.0
  3
*U37
  1

  0
TEXT
  5
1123
  8
PINOUT
 10
19.477470479893999
 20
14.4215084754267
 30
0.0
 40
0.125
  1
OUTPUT 2 +
  0
ENDBLK
  5
1125
  8
0
  0
BLOCK
  8
0
  2
*U38
 70
     1
 10
0.0
 20
0.0
 30
0.0
  3
*U38
  1

  0
TEXT
  5
1127
  8
PINOUT
 10
19.641042938437622
 20
14.771993994920891
 30
0.0
 40
0.125
  1
+ INPUT
  0
ENDBLK
  5
1129
  8
0
  0
BLOCK
  8
0
  2
*U39
 70
     1
 10
0.0
 20
0.0
 30
0.0
  3
*U39
  1

  0
TEXT
  5
112B
  8
PINOUT
 10
19.659563125892561
 20
15.11932522458088
 30
0.0
 40
0.125
  1
ON/OFF
  0
ENDBLK
  5
112D
  8
0
  0
BLOCK
  8
0
  2
*U40
 70
     1
 10
0.0
 20
0.0
 30
0.0
  3
*U40
  1

  0
TEXT
  5
112F
  8
PINOUT
 10
19.660284106426079
 20
15.47296503390924
 30
0.0
 40
0.125
  1
- INPUT
  0
ENDBLK
  5
1131
  8
0
  0
BLOCK
  8
0
  2
*U41
 70
     1
 10
0.0
 20
0.0
 30
0.0
  3
*U41
  1

  0
TEXT
  5
1133
  8
PINOUT
 10
19.500677040816861
 20
14.071022955932531
 30
0.0
 40
0.125
  1
OUTPUT 2 -
  0
ENDBLK
  5
1135
  8
0
  0
BLOCK
  8
0
  2
*U42
 70
     1
 10
0.0
 20
0.0
 30
0.0
  3
*U42
  1

  0
TEXT
  5
1137
  8
PINOUT
 10
18.197180432360419
 20
14.07102295593252
 30
0.0
 40
0.125
  1
NO PIN
  0
ENDBLK
  5
1139
  8
0
  0
BLOCK
  8
0
  2
*U43
 70
     1
 10
0.0
 20
0.0
 30
0.0
  3
*U43
  1

  0
TEXT
  5
113B
  8
PINOUT
 10
17.329478773661432
 20
14.07102295593252
 30
0.0
 40
0.125
  1
5
  0
ENDBLK
  5
113D
  8
0
  0
BLOCK
  8
0
  2
*U44
 70
     1
 10
0.0
 20
0.0
 30
0.0
  3
*U44
  1

  0
TEXT
  5
113F
  8
PINOUT
 10
18.17397387143756
 20
15.47296503390924
 30
0.0
 40
0.125
  1
- INPUT
  0
ENDBLK
  5
1141
  8
0
  0
BLOCK
  8
0
  2
*U45
 70
     1
 10
0.0
 20
0.0
 30
0.0
  3
*U45
  1

  0
TEXT
  5
1143
  8
PINOUT
 10
18.173252890904038
 20
15.119325224580869
 30
0.0
 40
0.125
  1
ON/OFF
  0
ENDBLK
  5
1145
  8
0
  0
BLOCK
  8
0
  2
*U46
 70
     1
 10
0.0
 20
0.0
 30
0.0
  3
*U46
  1

  0
TEXT
  5
1147
  8
PINOUT
 10
18.154732703449099
 20
14.771993994920869
 30
0.0
 40
0.125
  1
+ INPUT
  0
ENDBLK
  5
1149
  8
0
  0
BLOCK
  8
0
  2
*U47
 70
     1
 10
0.0
 20
0.0
 30
0.0
  3
*U47
  1

  0
TEXT
  5
114B
  8
PINOUT
 10
18.19718043236043
 20
14.4215084754267
 30
0.0
 40
0.125
  1
NO PIN
  0
ENDBLK
  5
114D
  8
0
  0
BLOCK
  8
0
  2
*U48
 70
     1
 10
0.0
 20
0.0
 30
0.0
  3
*U48
  1

  0
TEXT
  5
114F
  8
PINOUT
 10
17.33542686306301
 20
14.4215084754267
 30
0.0
 40
0.125
  1
4
  0
ENDBLK
  5
1151
  8
0
  0
BLOCK
  8
0
  2
*U49
 70
     1
 10
0.0
 20
0.0
 30
0.0
  3
*U49
  1

  0
TEXT
  5
1153
  8
PINOUT
 10
17.33083061216179
 20
14.77199399492088
 30
0.0
 40
0.125
  1
3
  0
ENDBLK
  5
1155
  8
0
  0
BLOCK
  8
0
  2
*U50
 70
     1
 10
0.0
 20
0.0
 30
0.0
  3
*U50
  1

  0
TEXT
  5
1157
  8
PINOUT
 10
17.33434539226273
 20
15.12247951441506
 30
0.0
 40
0.125
  1
2
  0
ENDBLK
  5
1159
  8
0
  0
BLOCK
  8
0
  2
*U51
 70
     1
 10
0.0
 20
0.0
 30
0.0
  3
*U51
  1

  0
TEXT
  5
115B
  8
PINOUT
 10
17.31668136919135
 20
15.47296503390924
 30
0.0
 40
0.125
  1
1
  0
ENDBLK
  5
115D
  8
0
  0
BLOCK
  8
0
  2
*U52
 70
     1
 10
0.0
 20
0.0
 30
0.0
  3
*U52
  1

  0
TEXT
  5
115F
  8
PINOUT
 10
18.169197375402959
 20
15.82345055340342
 30
0.0
 40
0.125
  1
SINGLE
  0
ENDBLK
  5
1161
  8
0
  0
BLOCK
  8
0
  2
*U53
 70
     1
 10
0.0
 20
0.0
 30
0.0
  3
*U53
  1

  0
TEXT
  5
1163
  8
PINOUT
 10
17.161402920208669
 20
15.823450553403401
 30
0.0
 40
0.125
  1
PIN #
  0
ENDBLK
  5
1165
  8
0
  0
BLOCK
  8
0
  2
*U54
 70
     1
 10
0.0
 20
0.0
 30
0.0
  3
*U54
  1

  0
TEXT
  5
1167
  8
PINOUT
 10
17.33037999932834
 20
13.72053743643834
 30
0.0
 40
0.125
  1
6
  0
ENDBLK
  5
1169
  8
0
  0
BLOCK
  8
0
  2
*U55
 70
     1
 10
0.0
 20
0.0
 30
0.0
  3
*U55
  1

  0
TEXT
  5
116B
  8
PINOUT
 10
17.33146147012862
 20
13.370051916944171
 30
0.0
 40
0.125
  1
7
  0
ENDBLK
  5
116D
  8
0
  0
BLOCK
  8
0
  2
*U56
 70
     1
 10
0.0
 20
0.0
 30
0.0
  3
*U56
  1

  0
TEXT
  5
116F
  8
PINOUT
 10
19.500677040816861
 20
13.72053743643834
 30
0.0
 40
0.125
  1
OUTPUT 1 -
  0
ENDBLK
  5
1171
  8
0
  0
BLOCK
  8
0
  2
*U57
 70
     1
 10
0.0
 20
0.0
 30
0.0
  3
*U57
  1

  0
TEXT
  5
1173
  8
PINOUT
 10
19.477470479893999
 20
13.37005191694416
 30
0.0
 40
0.125
  1
OUTPUT 1 +
  0
ENDBLK
  5
1175
  8
0
  0
BLOCK
  8
0
  2
*U58
 70
     1
 10
0.0
 20
0.0
 30
0.0
  3
*U58
  1

  0
TEXT
  5
1177
  8
PINOUT
 10
18.014366805828342
 20
13.72053743643834
 30
0.0
 40
0.125
  1
OUTPUT 1 -
  0
ENDBLK
  5
1179
  8
0
  0
BLOCK
  8
0
  2
*U59
 70
     1
 10
0.0
 20
0.0
 30
0.0
  3
*U59
  1

  0
TEXT
  5
117B
  8
PINOUT
 10
17.99116024490549
 20
13.37005191694416
 30
0.0
 40
0.125
  1
OUTPUT 1 +
  0
ENDBLK
  5
117D
  8
0
  0
BLOCK
  8
0
  2
*U60
 70
     1
 10
0.0
 20
0.0
 30
0.0
  3
*U60
  1

  0
TEXT
  5
11B6
  8
DIMENSIONS
 62
     0
 10
22.981528486489591
 20
17.623503933340061
 30
0.0
 40
0.125
  1
0.510 [12.95]
  0
ENDBLK
  5
11B8
  8
0
  0
BLOCK
  8
0
  2
*U61
 70
     1
 10
0.0
 20
0.0
 30
0.0
  3
*U61
  1

  0
TEXT
  5
11BA
  8
DIMENSIONS
 62
     0
 10
20.171801970377761
 20
18.48532651097441
 30
0.0
 40
0.125
  1
0.25 [6.35]
  0
ENDBLK
  5
11BC
  8
0
  0
BLOCK
  8
0
  2
*U62
 70
     1
 10
0.0
 20
0.0
 30
0.0
  3
*U62
  1

  0
TEXT
  5
11BE
  8
DIMENSIONS
 62
     0
 10
22.725571570719939
 20
20.181984054699811
 30
0.0
 40
0.125
  1
0.500 [12.70]
  0
ENDBLK
  5
11C0
  8
0
  0
BLOCK
  8
0
  2
*U63
 70
     1
 10
0.0
 20
0.0
 30
0.0
  3
*U63
  1

  0
TEXT
  5
11C2
  8
DIMENSIONS
 62
     0
 10
23.410253612618821
 20
20.47304290130355
 30
0.0
 40
0.125
  1
1.000 [25.40]
  0
ENDBLK
  5
11C4
  8
0
  0
BLOCK
  8
0
  2
*U64
 70
     1
 10
0.0
 20
0.0
 30
0.0
  3
*U64
  1

  0
TEXT
  5
11C6
  8
DIMENSIONS
 62
     0
 10
23.9733686717328
 20
20.798812852760559
 30
0.0
 40
0.125
  1
1.500 [38.10]
  0
ENDBLK
  5
11C8
  8
0
  0
BLOCK
  8
0
  2
*U65
 70
     1
 10
0.0
 20
0.0
 30
0.0
  3
*U65
  1

  0
TEXT
  5
11CA
  8
DIMENSIONS
 62
     0
 10
21.137464432250891
 20
22.424704731692611
 30
0.0
 40
0.125
  1
1.600 [40.64]
  0
ENDBLK
  5
11CC
  8
0
  0
BLOCK
  8
0
  2
*U66
 70
     1
 10
0.0
 20
0.0
 30
0.0
  3
*U66
  1

  0
TEXT
  5
11CE
  8
DIMENSIONS
 62
     0
 10
21.173904590866609
 20
22.118501100949182
 30
0.0
 40
0.125
  1
0.213 [5.40]
  0
ENDBLK
  5
11D0
  8
0
  0
BLOCK
  8
0
  2
*U67
 70
     1
 10
0.0
 20
0.0
 30
0.0
  3
*U67
  1

  0
TEXT
  5
11D2
  8
DIMENSIONS
 62
     0
 10
19.217536484394561
 20
19.313243130954231
 30
0.0
 40
0.125
  1
0.26 [6.67]
  0
ENDBLK
  5
11D4
  8
0
  0
BLOCK
  8
0
  2
*U68
 70
     1
 10
0.0
 20
0.0
 30
0.0
  3
*U68
  1

  0
TEXT
  5
11D6
  8
DIMENSIONS
 62
     0
 10
21.19243919793222
 20
22.770847986370072
 30
0.0
 40
0.125
  1
2.03 [51.44]
  0
ENDBLK
  5
11D8
  8
0
  0
BLOCK
  8
0
  2
*U69
 70
     1
 10
0.0
 20
0.0
 30
0.0
  3
*U69
  1

  0
TEXT
  5
11DA
  8
DIMENSIONS
 62
     0
 10
19.18894578656387
 20
20.693940339311869
 30
0.0
 40
0.125
  1
2.03 [51.44]
  0
ENDBLK
  5
11DC
  8
0
  0
BLOCK
  8
0
  2
*U70
 70
     1
 10
0.0
 20
0.0
 30
0.0
  3
*U70
  1

  0
TEXT
  5
11DE
  8
DIMENSIONS
 62
     0
 10
21.137464432250891
 20
22.424704731692611
 30
0.0
 40
0.125
  1
1.600 [40.64]
  0
ENDBLK
  5
11E0
  8
0
  0
BLOCK
  8
0
  2
*U71
 70
     1
 10
0.0
 20
0.0
 30
0.0
  3
*U71
  1

  0
TEXT
  5
11E2
  8
DIMENSIONS
 62
     0
 10
21.173904590866609
 20
22.118501100949182
 30
0.0
 40
0.125
  1
0.213 [5.40]
  0
ENDBLK
  5
11E4
  8
0
  0
BLOCK
  8
0
  2
*U72
 70
     1
 10
0.0
 20
0.0
 30
0.0
  3
*U72
  1

  0
TEXT
  5
11E6
  8
DIMENSIONS
 62
     0
 10
19.125250976103281
 20
19.313243130954231
 30
0.0
 40
0.125
  1
0.263 [6.67]
  0
ENDBLK
  5
11E8
  8
0
  0
BLOCK
  8
0
  2
*U73
 70
     1
 10
0.0
 20
0.0
 30
0.0
  3
*U73
  1

  0
TEXT
  5
11EA
  8
DIMENSIONS
 62
     0
 10
21.146296443786589
 20
22.770847986370072
 30
0.0
 40
0.125
  1
2.025 [51.44]
  0
ENDBLK
  5
11EC
  8
0
  0
BLOCK
  8
0
  2
*U74
 70
     1
 10
0.0
 20
0.0
 30
0.0
  3
*U74
  1

  0
TEXT
  5
11EE
  8
DIMENSIONS
 62
     0
 10
19.142803032418229
 20
20.693940339311869
 30
0.0
 40
0.125
  1
2.025 [51.44]
  0
ENDBLK
  5
11F0
  8
0
  0
BLOCK
  8
0
  2
*U75
 70
     1
 10
0.0
 20
0.0
 30
0.0
  3
*U75
  1

  0
TEXT
  5
11F2
  8
DIMENSIONS
 62
     0
 10
22.981528486489591
 20
17.623503933340061
 30
0.0
 40
0.125
  1
0.510 [12.95]
  0
ENDBLK
  5
11F4
  8
0
  0
BLOCK
  8
0
  2
*U76
 70
     1
 10
0.0
 20
0.0
 30
0.0
  3
*U76
  1

  0
TEXT
  5
11F6
  8
DIMENSIONS
 62
     0
 10
20.12565921623213
 20
18.48532651097441
 30
0.0
 40
0.125
  1
0.250 [6.35]
  0
ENDBLK
  5
11F8
  8
0
  0
BLOCK
  8
0
  2
*U77
 70
     1
 10
0.0
 20
0.0
 30
0.0
  3
*U77
  1

  0
TEXT
  5
11FA
  8
DIMENSIONS
 62
     0
 10
22.725571570719939
 20
20.181984054699811
 30
0.0
 40
0.125
  1
0.500 [12.70]
  0
ENDBLK
  5
11FC
  8
0
  0
BLOCK
  8
0
  2
*U78
 70
     1
 10
0.0
 20
0.0
 30
0.0
  3
*U78
  1

  0
TEXT
  5
11FE
  8
DIMENSIONS
 62
     0
 10
23.410253612618821
 20
20.47304290130355
 30
0.0
 40
0.125
  1
1.000 [25.40]
  0
ENDBLK
  5
1200
  8
0
  0
BLOCK
  8
0
  2
*U79
 70
     1
 10
0.0
 20
0.0
 30
0.0
  3
*U79
  1

  0
TEXT
  5
1202
  8
DIMENSIONS
 62
     0
 10
23.9733686717328
 20
20.798812852760559
 30
0.0
 40
0.125
  1
1.500 [38.10]
  0
ENDBLK
  5
1204
  8
0
  0
BLOCK
  8
0
  2
*U80
 70
     1
 10
0.0
 20
0.0
 30
0.0
  3
*U80
  1

  0
TEXT
  5
1213
  8
DIMENSIONS
 10
19.882236234771749
 20
18.70636957279261
 30
0.0
 40
0.125
  1
MIN PIN LENGTH
  0
ENDBLK
  5
1215
  8
0
  0
BLOCK
  8
0
  2
*U81
 70
     1
 10
0.0
 20
0.0
 30
0.0
  3
*U81
  1

  0
TEXT
  5
1217
  8
CONVERTER
 10
20.903894925723939
 20
19.97832512675399
 30
0.0
 40
0.06
  1
1
  0
ENDBLK
  5
1219
  8
0
  0
BLOCK
  8
0
  2
*U82
 70
     1
 10
0.0
 20
0.0
 30
0.0
  3
*U82
  1

  0
TEXT
  5
121B
  8
CONVERTER
 10
20.912373656798199
 20
20.47832512675399
 30
0.0
 40
0.06
  1
2
  0
ENDBLK
  5
121D
  8
0
  0
BLOCK
  8
0
  2
*U83
 70
     1
 10
0.0
 20
0.0
 30
0.0
  3
*U83
  1

  0
TEXT
  5
121F
  8
CONVERTER
 10
20.910686562349749
 20
20.97832512675399
 30
0.0
 40
0.06
  1
3
  0
ENDBLK
  5
1221
  8
0
  0
BLOCK
  8
0
  2
*U84
 70
     1
 10
0.0
 20
0.0
 30
0.0
  3
*U84
  1

  0
TEXT
  5
1223
  8
CONVERTER
 10
22.313056289174391
 20
21.458325126753991
 30
0.0
 40
0.08
  1
7
  0
ENDBLK
  5
1225
  8
0
  0
BLOCK
  8
0
  2
*U85
 70
     1
 10
0.0
 20
0.0
 30
0.0
  3
*U85
  1

  0
TEXT
  5
1227
  8
CONVERTER
 10
22.312364147862208
 20
20.958325126753991
 30
0.0
 40
0.08
  1
6
  0
ENDBLK
  5
1229
  8
0
  0
BLOCK
  8
0
  2
*U86
 70
     1
 10
0.0
 20
0.0
 30
0.0
  3
*U86
  1

  0
TEXT
  5
122B
  8
CONVERTER
 10
22.315594140652411
 20
20.458325126753991
 30
0.0
 40
0.08
  1
5
  0
ENDBLK
  5
122D
  8
0
  0
BLOCK
  8
0
  2
*U87
 70
     1
 10
0.0
 20
0.0
 30
0.0
  3
*U87
  1

  0
TEXT
  5
122F
  8
CONVERTER
 10
22.32564460928975
 20
19.97832512675399
 30
0.0
 40
0.06
  1
4
  0
ENDBLK
  5
1231
  8
0
  0
BLOCK
  8
0
  2
*U88
 70
     1
 10
0.0
 20
0.0
 30
0.0
  3
*U88
  1

  0
SOLID
  5
1233
  8
DIMENSIONS
 10
21.701062507993381
 20
17.303216115024991
 30
0.0
 11
21.640573660801721
 21
17.414571973169949
 31
0.0
 12
21.733908254030041
 22
17.328853355094981
 32
0.0
 13
21.733908254030041
 23
17.328853355094981
 33
0.0
  0
POLYLINE
  5
1234
  8
DIMENSIONS
 66
     1
 10
0.0
 20
0.0
 30
0.0
  0
VERTEX
  5
1235
  8
DIMENSIONS
 10
21.717485381011709
 20
17.316034735059979
 30
0.0
  0
VERTEX
  5
1236
  8
DIMENSIONS
 10
22.025660638652969
 20
16.921208840399331
 30
0.0
  0
VERTEX
  5
1237
  8
DIMENSIONS
 10
22.232174589166579
 20
16.920375889895102
 30
0.0
  0
SEQEND
  5
1238
  8
DIMENSIONS
  0
ENDBLK
  5
123A
  8
0
  0
BLOCK
  8
0
  2
*U89
 70
     1
 10
0.0
 20
0.0
 30
0.0
  3
*U89
  1

  0
TEXT
  5
123C
  8
DIMENSIONS
 10
22.334533330324209
 20
16.85983673895829
 30
0.0
 40
0.125
  1
NICKEL PLATED COPPER CASE
  0
ENDBLK
  5
123E
  8
0
  0
BLOCK
  8
0
  2
*U90
 70
     1
 10
0.0
 20
0.0
 30
0.0
  3
*U90
  1

  0
TEXT
  5
1240
  8
DIMENSIONS
 10
19.494360732853728
 20
19.117890783342919
 30
0.0
 40
0.125
  1
REF
  0
ENDBLK
  5
1242
  8
0
  0
BLOCK
  8
0
  2
*U91
 70
     1
 10
0.0
 20
0.0
 30
0.0
  3
*U91
  1

  0
TEXT
  5
1244
  8
DIMENSIONS
 10
21.373970494254952
 20
21.928388708146461
 30
0.0
 40
0.125
  1
REF
  0
ENDBLK
  5
1246
  8
0
  0
BLOCK
  8
0
  2
*U92
 70
     1
 10
0.0
 20
0.0
 30
0.0
  3
*U92
  1

  0
SOLID
  5
1248
  8
DIMENSIONS
 10
22.537191318654909
 20
18.275511372231321
 30
0.0
 11
22.460573660801721
 21
18.17457197316995
 31
0.0
 12
22.500312721237538
 22
18.29490415861282
 32
0.0
 13
22.500312721237538
 23
18.29490415861282
 33
0.0
  0
POLYLINE
  5
1249
  8
DIMENSIONS
 66
     1
 10
0.0
 20
0.0
 30
0.0
  0
VERTEX
  5
124A
  8
DIMENSIONS
 10
22.51875201994622
 20
18.285207765422069
 30
0.0
  0
VERTEX
  5
124B
  8
DIMENSIONS
 10
22.679532017079861
 20
18.590957577254901
 30
0.0
  0
VERTEX
  5
124C
  8
DIMENSIONS
 10
22.881116459330929
 20
18.591078807097031
 30
0.0
  0
SEQEND
  5
124D
  8
DIMENSIONS
  0
ENDBLK
  5
124F
  8
0
  0
BLOCK
  8
0
  2
*U93
 70
     1
 10
0.0
 20
0.0
 30
0.0
  3
*U93
  1

  0
TEXT
  5
1251
  8
DIMENSIONS
 10
22.668322763951231
 20
19.085224446872871
 30
0.0
 40
0.125
  1
NONCONDUCTIVE BASE PLATE
  0
ENDBLK
  5
1253
  8
0
  0
BLOCK
  8
0
  2
*U94
 70
     1
 10
0.0
 20
0.0
 30
0.0
  3
*U94
  1

  0
SOLID
  5
1255
  8
DIMENSIONS
 10
21.719840489479651
 20
18.023444606639089
 30
0.0
 11
21.640573660801721
 21
17.924571973169961
 31
0.0
 12
21.68348899599356
 22
18.043808300617378
 32
0.0
 13
21.68348899599356
 23
18.043808300617378
 33
0.0
  0
POLYLINE
  5
1256
  8
DIMENSIONS
 66
     1
 10
0.0
 20
0.0
 30
0.0
  0
VERTEX
  5
1257
  8
DIMENSIONS
 10
21.7016647427366
 20
18.033626453628241
 30
0.0
  0
VERTEX
  5
1258
  8
DIMENSIONS
 10
22.320983122444218
 20
19.139179702943281
 30
0.0
  0
VERTEX
  5
1259
  8
DIMENSIONS
 10
22.602936941537831
 20
19.138934602190091
 30
0.0
  0
SEQEND
  5
125A
  8
DIMENSIONS
  0
ENDBLK
  5
125C
  8
0
  0
BLOCK
  8
0
  2
*U95
 70
     1
 10
0.0
 20
0.0
 30
0.0
  3
*U95
  1

  0
TEXT
  5
125E
  8
DIMENSIONS
 10
22.957940597717649
 20
18.559492055092129
 30
0.0
 40
0.125
  1
PIN -  0.040 [1.02] Dia.
  0
ENDBLK
  5
1260
  8
0
  0
BLOCK
  8
0
  2
*U96
 70
     1
 10
0.0
 20
0.0
 30
0.0
  3
*U96
  1

  0
TEXT
  5
1262
  8
DIMENSIONS
 10
22.940495539200199
 20
18.365547142375291
 30
0.0
 40
0.125
  1
TIN PLATED BRASS, MATTE FINISH
  0
ENDBLK
  5
1264
  8
0
  0
BLOCK
  8
0
  2
*U97
 70
     1
 10
0.0
 20
0.0
 30
0.0
  3
*U97
  1

  0
TEXT
  5
1266
  8
DIMENSIONS
 62
     0
 10
21.137464432250891
 20
22.424704731692611
 30
0.0
 40
0.125
  1
1.600 [40.64]
  0
ENDBLK
  5
1268
  8
0
  0
BLOCK
  8
0
  2
*U98
 70
     1
 10
0.0
 20
0.0
 30
0.0
  3
*U98
  1

  0
TEXT
  5
126A
  8
DIMENSIONS
 62
     0
 10
21.173904590866609
 20
22.118501100949182
 30
0.0
 40
0.125
  1
0.213 [5.40]
  0
ENDBLK
  5
126C
  8
0
  0
BLOCK
  8
0
  2
*U99
 70
     1
 10
0.0
 20
0.0
 30
0.0
  3
*U99
  1

  0
TEXT
  5
126E
  8
DIMENSIONS
 62
     0
 10
21.146296443786589
 20
22.770847986370072
 30
0.0
 40
0.125
  1
2.025 [51.44]
  0
ENDBLK
  5
1270
  8
0
  0
BLOCK
  8
0
  2
*U100
 70
     1
 10
0.0
 20
0.0
 30
0.0
  3
*U100
  1

  0
TEXT
  5
1272
  8
DIMENSIONS
 62
     0
 10
19.142803032418229
 20
20.693940339311869
 30
0.0
 40
0.125
  1
2.025 [51.44]
  0
ENDBLK
  5
1274
  8
0
  0
BLOCK
  8
0
  2
*U101
 70
     1
 10
0.0
 20
0.0
 30
0.0
  3
*U101
  1

  0
TEXT
  5
1276
  8
DIMENSIONS
 62
     0
 10
22.981528486489591
 20
17.623503933340061
 30
0.0
 40
0.125
  1
0.510 [12.95]
  0
ENDBLK
  5
1278
  8
0
  0
BLOCK
  8
0
  2
*U102
 70
     1
 10
0.0
 20
0.0
 30
0.0
  3
*U102
  1

  0
TEXT
  5
127A
  8
DIMENSIONS
 62
     0
 10
20.12565921623213
 20
18.48532651097441
 30
0.0
 40
0.125
  1
0.250 [6.35]
  0
ENDBLK
  5
127C
  8
0
  0
BLOCK
  8
0
  2
*U103
 70
     1
 10
0.0
 20
0.0
 30
0.0
  3
*U103
  1

  0
TEXT
  5
127E
  8
DIMENSIONS
 62
     0
 10
22.725571570719939
 20
20.181984054699811
 30
0.0
 40
0.125
  1
0.500 [12.70]
  0
ENDBLK
  5
1280
  8
0
  0
BLOCK
  8
0
  2
*U104
 70
     1
 10
0.0
 20
0.0
 30
0.0
  3
*U104
  1

  0
TEXT
  5
1282
  8
DIMENSIONS
 62
     0
 10
23.410253612618821
 20
20.47304290130355
 30
0.0
 40
0.125
  1
1.000 [25.40]
  0
ENDBLK
  5
1284
  8
0
  0
BLOCK
  8
0
  2
*U105
 70
     1
 10
0.0
 20
0.0
 30
0.0
  3
*U105
  1

  0
TEXT
  5
1286
  8
DIMENSIONS
 62
     0
 10
23.9733686717328
 20
20.798812852760559
 30
0.0
 40
0.125
  1
1.500 [38.10]
  0
ENDBLK
  5
1288
  8
0
  0
ENDSEC
  0
SECTION
  2
ENTITIES
  0
LINE
  5
C3
  8
FRAME
 10
13.64670945225887
 20
12.6835221097257
 30
0.0
 11
30.646709452258879
 21
12.6835221097257
 31
0.0
  0
TEXT
  5
C4
  8
FRAME_TEXT
 10
28.697352482513882
 20
13.94952683626645
 30
0.0
 40
0.125
  1
American Power Design
 72
     1
 11
29.6045713001058
 21
14.01202683626645
 31
0.0
 73
     2
  0
LINE
  5
C5
  8
FRAME
 10
26.454538981841409
 20
14.218683127061681
 30
0.0
 11
26.454538981841409
 21
12.6835221097257
 31
0.0
  0
LINE
  5
C6
  8
FRAME
 10
27.61771867574598
 20
14.218683127061681
 30
0.0
 11
27.617718675745969
 21
13.39205796388077
 31
0.0
  0
LINE
  5
C7
  8
FRAME
 10
28.562433147952731
 20
14.218683127061681
 30
0.0
 11
28.562433147952731
 21
12.6835221097257
 31
0.0
  0
TEXT
  5
C8
  8
FRAME
 10
26.887472363127781
 20
14.088972929133609
 30
0.0
 40
0.0354267927077533
  1
SPECIFIED
 72
     1
 11
27.016817192451551
 21
14.088972929133609
 31
0.0
  0
TEXT
  5
C9
  8
FRAME_TEXT
 10
28.630759191880859
 20
12.888763681425139
 30
0.0
 40
0.09
  1
1:1
  0
LINE
  5
CA
  8
FRAME
 10
28.562433147952731
 20
13.80537054547122
 30
0.0
 11
30.646709452258879
 21
13.80537054547122
 31
0.0
  0
LINE
  5
CB
  8
FRAME
 10
28.562433147952731
 20
13.114548087670039
 30
0.0
 11
30.646709452258879
 21
13.114548087670039
 31
0.0
  0
LINE
  5
CC
  8
FRAME
 10
28.562433147952731
 20
12.82231545483428
 30
0.0
 11
30.646709452258879
 21
12.82231545483428
 31
0.0
  0
TEXT
  5
CD
  8
FRAME
 10
28.6032962195887
 20
13.739427536150689
 30
0.0
 40
0.0354267927077533
  1
TITLE
  0
TEXT
  5
CE
  8
FRAME
 10
28.594450260706221
 20
13.0499966485282
 30
0.0
 40
0.0354267927077533
  1
SCALE
  0
TEXT
  5
CF
  8
FRAME
 10
28.629053570452399
 20
12.733227845812889
 30
0.0
 40
0.0354267927077533
  1
SHEET       OF       
  0
LINE
  5
D0
  8
FRAME
 10
26.454538981841409
 20
13.39205796388077
 30
0.0
 11
28.562433147952731
 21
13.39205796388077
 31
0.0
  0
LINE
  5
D1
  8
FRAME
 10
26.454538981841409
 20
13.037790036803241
 30
0.0
 11
28.562433147952731
 21
13.037790036803241
 31
0.0
  0
TEXT
  5
D4
  8
FRAME
 10
26.568275042057319
 20
13.98802240839653
 30
0.0
 40
0.0354267927077533
  1
DIMENSIONS IN INCHES [MM]
  0
TEXT
  5
D5
  8
FRAME
 10
26.568275042057319
 20
13.806041506803011
 30
0.0
 40
0.0354267927077533
  1
TOLERANCES
  0
TEXT
  5
D6
  8
FRAME
 10
26.537574361229868
 20
13.67086645534965
 30
0.0
 40
0.0354267927077533
  1
FRAC =                         .XX =
  0
TEXT
  5
D7
  8
FRAME
 10
26.539395588058621
 20
13.514870802896819
 30
0.0
 40
0.0354267927077533
  1
.XXX =                       ANGLE =
  0
TEXT
  5
D8
  8
FRAME
 10
26.48890724986861
 20
13.325860394772301
 30
0.0
 40
0.0354267927077533
  1
MATERIAL
  0
TEXT
  5
D9
  8
FRAME
 10
26.48890724986861
 20
12.97660820187318
 30
0.0
 40
0.0354267927077533
  1
FINISH
  0
LINE
  5
DA
  8
FRAME
 10
27.617718675745969
 20
13.52490843653484
 30
0.0
 11
28.562433147952731
 21
13.52490843653484
 31
0.0
  0
LINE
  5
DB
  8
FRAME
 10
27.617718675745969
 20
13.657758909188921
 30
0.0
 11
28.562433147952731
 21
13.657758909188921
 31
0.0
  0
LINE
  5
DC
  8
FRAME
 10
27.617718675745969
 20
13.790609381842989
 30
0.0
 11
28.562433147952731
 21
13.790609381842989
 31
0.0
  0
LINE
  5
DD
  8
FRAME
 10
27.61771867574598
 20
13.92345985449707
 30
0.0
 11
28.562433147952731
 21
13.92345985449707
 31
0.0
  0
LINE
  5
DE
  8
FRAME
 10
27.61771867574598
 20
14.05631032715114
 30
0.0
 11
28.562433147952731
 21
14.05631032715114
 31
0.0
  0
TEXT
  5
DF
  8
FRAME
 10
27.638586979149011
 20
13.835291201321199
 30
0.0
 40
0.0354267927077533
  1
DWN
  0
TEXT
  5
E0
  8
FRAME
 10
27.642702163862321
 20
13.70275125041884
 30
0.0
 40
0.0354267927077533
  1
CHK
  0
TEXT
  5
E1
  8
FRAME
 10
27.642702163862321
 20
13.57460835949901
 30
0.0
 40
0.0354267927077533
  1
CH DR
  0
TEXT
  5
E2
  8
FRAME
 10
27.64733174666479
 20
13.469707071344059
 30
0.0
 40
0.0354267927077533
  1
COG
  0
TEXT
  5
E3
  8
FRAME
 10
27.64733174666479
 20
13.410662416831141
 30
0.0
 40
0.0354267927077533
  1
ENG
  0
TEXT
  5
E4
  8
FRAME
 10
27.856691768954331
 20
13.96280594081494
 30
0.0
 40
0.0531401890616299
  1
APPROVAL
  0
TEXT
  5
E5
  8
FRAME
 10
28.410184112894239
 20
13.44239314619367
 30
0.0
 40
0.0354267927077533
  1
DATE
  0
TEXT
  5
E6
  8
FRAME
 10
28.410184112894239
 20
13.70809409150182
 30
0.0
 40
0.0354267927077533
  1
DATE
  0
TEXT
  5
E7
  8
FRAME
 10
28.410184112894239
 20
13.57524361884775
 30
0.0
 40
0.0354267927077533
  1
DATE
  0
TEXT
  5
E8
  8
FRAME
 10
28.410184112894239
 20
13.840944564155899
 30
0.0
 40
0.0354267927077533
  1
DATE
  0
TEXT
  5
EA
  8
FRAME_TEXT
 10
28.806760598398512
 20
12.709782299665919
 30
0.0
 40
0.1
  1
1  1
  0
LINE
  5
EB
  8
FRAME
 10
28.857656420517351
 20
13.114548087670039
 30
0.0
 11
28.857656420517351
 21
12.82231545483428
 31
0.0
  0
TEXT
  5
EC
  8
FRAME_TEXT
 10
28.93293827559188
 20
12.84907746336148
 30
0.0
 40
0.1476116362823053
  1
B
  0
TEXT
  5
ED
  8
FRAME
 10
29.158510227095238
 20
13.05031435861466
 30
0.0
 40
0.0354267927077533
  1
FILE
  0
LINE
  5
EE
  8
FRAME
 10
29.123357365825498
 20
13.114548087670039
 30
0.0
 11
29.123357365825491
 21
12.82231545483428
 31
0.0
  0
LINE
  5
EF
  8
FRAME
 10
29.701994980052131
 20
12.82231545483428
 30
0.0
 11
29.701994980052131
 21
12.6835221097257
 31
0.0
  0
TEXT
  5
F0
  8
FRAME
 10
29.86202413351403
 20
12.733227845812889
 30
0.0
 40
0.0354267927077533
  1
DO NOT SCALE PRINT
  0
TEXT
  5
F1
  8
FRAME
 10
30.39096043963437
 20
13.0499966485282
 30
0.0
 40
0.0354267927077533
  1
REV.
  0
LINE
  5
F2
  8
FRAME
 10
30.35148617969428
 20
13.114548087670039
 30
0.0
 11
30.35148617969428
 21
12.82231545483428
 31
0.0
  0
LINE
  5
F3
  8
FRAME
 10
26.45453898184142
 20
14.218683127061681
 30
0.0
 11
30.646709452258879
 21
14.218683127061681
 31
0.0
  0
TEXT
  5
F4
  8
FRAME
 10
27.642702163862321
 20
14.13491943156019
 30
0.0
 40
0.0531401890616299
  1
STANDARD
  0
TEXT
  5
F5
  8
FRAME
 10
26.782217183190891
 20
14.15092639599369
 30
0.0
 40
0.0354267927077533
  1
UNLESS OTHERWISE
 72
     1
 11
27.03867191439651
 21
14.15092639599369
 31
0.0
  0
TEXT
  5
F6
  8
FRAME_TEXT
 10
26.757202096569451
 20
13.50446367242704
 30
0.0
 40
0.05
  1
%%p.005
  0
TEXT
  5
F7
  8
FRAME_TEXT
 10
30.459840987620218
 20
12.887976862917579
 30
0.0
 40
0.12
  1
-
  0
LINE
  5
F8
  8
0
 10
30.646709452258879
 20
12.6835221097257
 30
0.0
 11
30.646709452258879
 21
23.683522109725711
 31
0.0
  0
LINE
  5
F9
  8
0
 10
30.646709452258879
 20
23.683522109725711
 30
0.0
 11
13.64670945225887
 21
23.683522109725711
 31
0.0
  0
LINE
  5
FA
  8
0
 10
13.64670945225887
 20
23.683522109725711
 30
0.0
 11
13.64670945225887
 21
12.6835221097257
 31
0.0
  0
TEXT
  5
126
  8
FRAME_TEXT
 10
28.977986057462399
 20
13.396246871198841
 30
0.0
 40
0.125
  1
H10 Dimensions
 72
     1
 11
29.600913238428511
 21
13.458746871198841
 31
0.0
 73
     2
  0
TEXT
  5
4C9
  8
FRAME_TEXT
 10
27.290374541847552
 20
13.665881946633879
 30
0.0
 40
0.05
  1
%%p.05
  0
TEXT
  5
4D0
  8
FRAME_TEXT
 10
26.771739143223179
 20
13.66141386644885
 30
0.0
 40
0.05
  1
%%p1/64
  0
TEXT
  5
4D9
  8
FRAME_TEXT
 10
27.359125217827842
 20
13.505978030148629
 30
0.0
 40
0.05
  1
%%p1°0
  0
TEXT
  5
4DB
  8
FRAME
 10
28.887688288179579
 20
13.0499966485282
 30
0.0
 40
0.0354267927077533
  1
SIZE
  0
TEXT
  5
5DF
  8
FRAME_TEXT
 10
29.389426745133559
 20
12.90798911704344
 30
0.0
 40
0.1
  1
h10_cadd
  0
TEXT
  5
5E6
  8
FRAME_TEXT
 10
27.810685378734579
 20
13.833699792690499
 30
0.0
 40
0.05
  1
CDL    11/95
  0
TEXT
  5
5EC
  8
FRAME_TEXT
 10
27.810685378734579
 20
13.69941576351696
 30
0.0
 40
0.05
  1
NJN    11/95
  0
INSERT
  5
938
  8
DIMENSIONS
  2
*U36
 10
0.0
 20
0.0
 30
0.0
  0
INSERT
  5
939
  8
DIMENSIONS
  2
*U37
 10
0.0
 20
0.0
 30
0.0
  0
INSERT
  5
93A
  8
DIMENSIONS
  2
*U38
 10
0.0
 20
0.0
 30
0.0
  0
INSERT
  5
93B
  8
DIMENSIONS
  2
*U39
 10
0.0
 20
0.0
 30
0.0
  0
INSERT
  5
93C
  8
DIMENSIONS
  2
*U40
 10
0.0
 20
0.0
 30
0.0
  0
INSERT
  5
93D
  8
DIMENSIONS
  2
*U41
 10
0.0
 20
0.0
 30
0.0
  0
LINE
  5
93E
  8
GRID
 10
20.730403895874201
 20
16.055315084743249
 30
0.0
 11
20.730403895874201
 21
13.25143092878983
 31
0.0
  0
INSERT
  5
93F
  8
DIMENSIONS
  2
*U42
 10
0.0
 20
0.0
 30
0.0
  0
INSERT
  5
940
  8
DIMENSIONS
  2
*U43
 10
0.0
 20
0.0
 30
0.0
  0
LINE
  5
941
  8
GRID
 10
20.730403895874201
 20
13.95240196777819
 30
0.0
 11
17.000584779336329
 21
13.952401967778179
 31
0.0
  0
INSERT
  5
942
  8
DIMENSIONS
  2
*U44
 10
0.0
 20
0.0
 30
0.0
  0
INSERT
  5
943
  8
DIMENSIONS
  2
*U45
 10
0.0
 20
0.0
 30
0.0
  0
INSERT
  5
944
  8
DIMENSIONS
  2
*U46
 10
0.0
 20
0.0
 30
0.0
  0
INSERT
  5
945
  8
DIMENSIONS
  2
*U47
 10
0.0
 20
0.0
 30
0.0
  0
INSERT
  5
946
  8
DIMENSIONS
  2
*U48
 10
0.0
 20
0.0
 30
0.0
  0
INSERT
  5
947
  8
DIMENSIONS
  2
*U49
 10
0.0
 20
0.0
 30
0.0
  0
INSERT
  5
948
  8
DIMENSIONS
  2
*U50
 10
0.0
 20
0.0
 30
0.0
  0
INSERT
  5
949
  8
DIMENSIONS
  2
*U51
 10
0.0
 20
0.0
 30
0.0
  0
LINE
  5
94A
  8
GRID
 10
20.730403895874201
 20
14.302887487272359
 30
0.0
 11
17.000584779336329
 21
14.302887487272359
 31
0.0
  0
LINE
  5
94B
  8
GRID
 10
20.730403895874201
 20
14.65337300676654
 30
0.0
 11
17.000584779336329
 21
14.65337300676654
 31
0.0
  0
LINE
  5
94C
  8
GRID
 10
20.730403895874201
 20
15.00385852626072
 30
0.0
 11
17.000584779336329
 21
15.00385852626072
 31
0.0
  0
LINE
  5
94D
  8
GRID
 10
20.730403895874201
 20
15.3543440457549
 30
0.0
 11
17.000584779336329
 21
15.3543440457549
 31
0.0
  0
INSERT
  5
94E
  8
DIMENSIONS
  2
*U52
 10
0.0
 20
0.0
 30
0.0
  0
LINE
  5
94F
  8
GRID
 10
17.757783425897159
 20
16.055315084743249
 30
0.0
 11
17.75778342589717
 21
13.25143092878983
 31
0.0
  0
LINE
  5
950
  8
GRID
 10
20.730403895874201
 20
15.70482956524908
 30
0.0
 11
17.000584779336329
 21
15.70482956524908
 31
0.0
  0
INSERT
  5
951
  8
DIMENSIONS
  2
*U53
 10
0.0
 20
0.0
 30
0.0
  0
LINE
  5
952
  8
GRID
 10
17.000584779336329
 20
16.055315084743249
 30
0.0
 11
17.000584779336339
 21
13.25143092878983
 31
0.0
  0
LINE
  5
953
  8
GRID
 10
19.244093660885682
 20
16.055315084743249
 30
0.0
 11
19.244093660885689
 21
13.25143092878983
 31
0.0
  0
LINE
  5
954
  8
GRID
 10
17.000584779336329
 20
16.055315084743249
 30
0.0
 11
20.730403895874201
 21
16.055315084743249
 31
0.0
  0
LINE
  5
9EA
  8
GRID
 10
20.730403895874201
 20
13.25143092878983
 30
0.0
 11
17.000584779336329
 21
13.25143092878983
 31
0.0
  0
LINE
  5
9EB
  8
GRID
 10
20.730403895874201
 20
13.60191644828401
 30
0.0
 11
17.000584779336329
 21
13.60191644828401
 31
0.0
  0
INSERT
  5
9EC
  8
DIMENSIONS
  2
*U54
 10
0.0
 20
0.0
 30
0.0
  0
INSERT
  5
9ED
  8
DIMENSIONS
  2
*U55
 10
0.0
 20
0.0
 30
0.0
  0
INSERT
  5
A00
  8
DIMENSIONS
  2
*U56
 10
0.0
 20
0.0
 30
0.0
  0
INSERT
  5
A01
  8
DIMENSIONS
  2
*U57
 10
0.0
 20
0.0
 30
0.0
  0
INSERT
  5
A02
  8
DIMENSIONS
  2
*U58
 10
0.0
 20
0.0
 30
0.0
  0
INSERT
  5
A03
  8
DIMENSIONS
  2
*U59
 10
0.0
 20
0.0
 30
0.0
  0
DIMENSION
  5
EE3
  8
DIMENSIONS
  2
*D24
 10
22.440573660801729
 20
22.46886478937105
 30
0.0
 11
21.640573660801721
 21
22.46886478937105
 31
0.0
 70
   128
 13
20.84057366080172
 23
20.988100396990308
 33
0.0
 14
22.440573660801729
 24
21.488100396990301
 34
0.0
1001
ACAD
1000
DSTYLE
1002
{
1070
   271
1070
     3
1002
}
  0
DIMENSION
  5
EE4
  8
DIMENSIONS
  2
*D25
 10
20.84057366080172
 20
22.162661158627621
 30
0.0
 11
21.623390892236479
 21
22.162661158627621
 31
0.0
 70
   128
 13
20.628073660801729
 23
21.750600396990301
 33
0.0
 14
20.84057366080172
 24
20.988100396990308
 34
0.0
1001
ACAD
1000
DSTYLE
1002
{
1070
   271
1070
     3
1002
}
  0
DIMENSION
  5
EE5
  8
DIMENSIONS
  2
*D26
 10
20.232554508907899
 20
19.725600396990298
 30
0.0
 11
20.09671853037046
 21
19.35740318863267
 31
0.0
 70
   128
 13
20.84057366080172
 23
19.988100396990301
 33
0.0
 14
20.628073660801729
 24
19.725600396990298
 34
0.0
 50
270.0
1001
ACAD
1000
DSTYLE
1002
{
1070
   287
1070
     4
1070
   279
1070
     1
1002
}
  0
CIRCLE
  5
EE6
  8
CONVERTER
 10
20.84057366080172
 20
19.988100396990301
 30
0.0
 40
0.02
  0
ARC
  5
EE7
  8
CONVERTER
 10
20.740573660801719
 20
17.514571973169961
 30
0.0
 40
0.1
 50
180.0
 51
270.0
  0
ARC
  5
EE8
  8
CONVERTER
 10
22.540573660801709
 20
17.514571973169961
 30
0.0
 40
0.1
 50
270.0
 51
0.0
  0
LINE
  5
EE9
  8
CONVERTER
 10
22.64057366080171
 20
17.893571973169959
 30
0.0
 11
22.64057366080171
 21
17.514571973169961
 31
0.0
  0
LINE
  5
EEA
  8
CONVERTER
 10
20.628073660801729
 20
17.924571973169961
 30
0.0
 11
22.65307366080172
 21
17.924571973169961
 31
0.0
  0
LINE
  5
EEB
  8
CONVERTER
 10
20.64057366080171
 20
17.514571973169961
 30
0.0
 11
20.64057366080171
 21
17.893571973169959
 31
0.0
  0
LINE
  5
EEC
  8
CONVERTER
 10
22.540573660801709
 20
17.414571973169949
 30
0.0
 11
20.740573660801719
 21
17.414571973169949
 31
0.0
  0
DIMENSION
  5
EED
  8
DIMENSIONS
  2
*D27
 10
22.65307366080172
 20
22.815008044048518
 30
0.0
 11
21.640573660801721
 21
22.815008044048518
 31
0.0
 70
   128
 13
20.628073660801729
 23
21.750600396990301
 33
0.0
 14
22.65307366080172
 24
21.750600396990301
 34
0.0
  0
DIMENSION
  5
EEE
  8
DIMENSIONS
  2
*D28
 10
19.637080249433382
 20
19.725600396990298
 30
0.0
 11
19.637080249433371
 21
20.738100396990308
 31
0.0
 70
   128
 13
20.628073660801729
 23
21.750600396990301
 33
0.0
 14
20.628073660801729
 24
19.725600396990298
 34
0.0
 50
90.0
  0
CIRCLE
  5
EEF
  8
CONVERTER
 10
22.440573660801729
 20
19.988100396990301
 30
0.0
 40
0.02
  0
CIRCLE
  5
EF0
  8
CONVERTER
 10
22.440573660801729
 20
21.488100396990301
 30
0.0
 40
0.02
  0
CIRCLE
  5
EF1
  8
CONVERTER
 10
22.440573660801729
 20
20.988100396990308
 30
0.0
 40
0.02
  0
CIRCLE
  5
EF2
  8
CONVERTER
 10
22.440573660801729
 20
20.488100396990308
 30
0.0
 40
0.02
  0
CIRCLE
  5
EF3
  8
CONVERTER
 10
20.84057366080172
 20
20.488100396990308
 30
0.0
 40
0.02
  0
CIRCLE
  5
EF4
  8
CONVERTER
 10
20.84057366080172
 20
20.988100396990308
 30
0.0
 40
0.02
  0
LINE
  5
EF5
  8
CONVERTER
 10
20.628073660801729
 20
19.725600396990298
 30
0.0
 11
20.628073660801729
 21
21.750600396990301
 31
0.0
  0
LINE
  5
EF6
  8
CONVERTER
 10
22.65307366080172
 20
19.725600396990298
 30
0.0
 11
20.628073660801729
 21
19.725600396990298
 31
0.0
  0
LINE
  5
EF7
  8
CONVERTER
 10
22.65307366080172
 20
21.750600396990301
 30
0.0
 11
22.65307366080172
 21
19.725600396990298
 31
0.0
  0
LINE
  5
EF8
  8
CONVERTER
 10
20.628073660801729
 20
21.750600396990301
 30
0.0
 11
22.65307366080172
 21
21.750600396990301
 31
0.0
  0
LINE
  5
EF9
  8
CONVERTER
 10
20.820573660801731
 20
18.17457197316995
 30
0.0
 11
20.820573660801731
 21
17.924571973169961
 31
0.0
  0
LINE
  5
EFA
  8
CONVERTER
 10
20.86057366080172
 20
18.17457197316995
 30
0.0
 11
20.86057366080172
 21
17.924571973169961
 31
0.0
  0
LINE
  5
EFB
  8
CONVERTER
 10
22.420573660801729
 20
18.17457197316995
 30
0.0
 11
22.420573660801729
 21
17.924571973169961
 31
0.0
  0
LINE
  5
EFC
  8
CONVERTER
 10
22.460573660801721
 20
18.17457197316995
 30
0.0
 11
22.460573660801721
 21
17.924571973169961
 31
0.0
  0
LINE
  5
EFD
  8
CONVERTER
 10
20.820573660801731
 20
18.17457197316995
 30
0.0
 11
20.86057366080172
 21
18.17457197316995
 31
0.0
  0
LINE
  5
EFE
  8
CONVERTER
 10
22.420573660801729
 20
18.17457197316995
 30
0.0
 11
22.460573660801732
 21
18.17457197316995
 31
0.0
  0
LINE
  5
EFF
  8
CONVERTER
 10
15.74332084542818
 20
18.17457197316995
 30
0.0
 11
15.783320845428181
 21
18.17457197316995
 31
0.0
  0
LINE
  5
F00
  8
CONVERTER
 10
15.783320845428181
 20
18.17457197316995
 30
0.0
 11
15.783320845428181
 21
17.924571973169961
 31
0.0
  0
LINE
  5
F01
  8
CONVERTER
 10
15.74332084542818
 20
18.17457197316995
 30
0.0
 11
15.74332084542818
 21
17.924571973169961
 31
0.0
  0
LINE
  5
F02
  8
CONVERTER
 10
17.413320845428181
 20
17.414571973169949
 30
0.0
 11
15.613320845428181
 21
17.414571973169949
 31
0.0
  0
LINE
  5
F03
  8
CONVERTER
 10
15.513320845428179
 20
17.514571973169961
 30
0.0
 11
15.513320845428179
 21
17.893571973169959
 31
0.0
  0
LINE
  5
F04
  8
CONVERTER
 10
17.513320845428179
 20
17.893571973169959
 30
0.0
 11
17.513320845428179
 21
17.514571973169961
 31
0.0
  0
ARC
  5
F05
  8
CONVERTER
 10
17.413320845428181
 20
17.514571973169961
 30
0.0
 40
0.1
 50
270.0
 51
0.0
  0
ARC
  5
F06
  8
CONVERTER
 10
15.613320845428181
 20
17.514571973169961
 30
0.0
 40
0.1
 50
180.0
 51
270.0
  0
LINE
  5
F07
  8
CONVERTER
 10
16.24332084542818
 20
18.17457197316995
 30
0.0
 11
16.24332084542818
 21
17.924571973169961
 31
0.0
  0
LINE
  5
F08
  8
CONVERTER
 10
16.283320845428179
 20
18.17457197316995
 30
0.0
 11
16.283320845428179
 21
17.924571973169961
 31
0.0
  0
LINE
  5
F09
  8
CONVERTER
 10
16.24332084542818
 20
18.17457197316995
 30
0.0
 11
16.283320845428179
 21
18.17457197316995
 31
0.0
  0
LINE
  5
F0A
  8
CONVERTER
 10
16.74332084542818
 20
18.17457197316995
 30
0.0
 11
16.783320845428179
 21
18.17457197316995
 31
0.0
  0
LINE
  5
F0B
  8
CONVERTER
 10
16.783320845428179
 20
18.17457197316995
 30
0.0
 11
16.783320845428179
 21
17.924571973169961
 31
0.0
  0
LINE
  5
F0C
  8
CONVERTER
 10
16.74332084542818
 20
18.17457197316995
 30
0.0
 11
16.74332084542818
 21
17.924571973169961
 31
0.0
  0
LINE
  5
F0D
  8
CONVERTER
 10
17.24332084542818
 20
18.17457197316995
 30
0.0
 11
17.283320845428179
 21
18.17457197316995
 31
0.0
  0
LINE
  5
F0E
  8
CONVERTER
 10
17.283320845428179
 20
18.17457197316995
 30
0.0
 11
17.283320845428179
 21
17.924571973169961
 31
0.0
  0
LINE
  5
F0F
  8
CONVERTER
 10
17.24332084542818
 20
18.17457197316995
 30
0.0
 11
17.24332084542818
 21
17.924571973169961
 31
0.0
  0
DIMENSION
  5
F10
  8
DIMENSIONS
  2
*D29
 10
23.477157542005099
 20
17.414571973169949
 30
0.0
 11
23.477157542005099
 21
17.667663991018511
 31
0.0
 70
   128
 13
22.65307366080172
 23
17.924571973169961
 33
0.0
 14
22.540573660801709
 24
17.414571973169949
 34
0.0
 50
90.0
1001
ACAD
1000
DSTYLE
1002
{
1070
   271
1070
     3
1002
}
  0
INSERT
  5
F13
  8
DIMENSIONS
  2
*U80
 10
0.0
 20
0.0
 30
0.0
  0
INSERT
  5
F14
  8
DIMENSIONS
  2
*U81
 10
0.0
 20
0.0
 30
0.0
  0
INSERT
  5
F15
  8
DIMENSIONS
  2
*U82
 10
0.0
 20
0.0
 30
0.0
  0
INSERT
  5
F16
  8
DIMENSIONS
  2
*U83
 10
0.0
 20
0.0
 30
0.0
  0
INSERT
  5
F17
  8
DIMENSIONS
  2
*U84
 10
0.0
 20
0.0
 30
0.0
  0
INSERT
  5
F18
  8
DIMENSIONS
  2
*U85
 10
0.0
 20
0.0
 30
0.0
  0
INSERT
  5
F19
  8
DIMENSIONS
  2
*U86
 10
0.0
 20
0.0
 30
0.0
  0
INSERT
  5
F1A
  8
DIMENSIONS
  2
*U87
 10
0.0
 20
0.0
 30
0.0
  0
LINE
  5
F1B
  8
CONVERTER
 10
26.037826476175251
 20
18.17457197316995
 30
0.0
 11
26.037826476175251
 21
17.924571973169961
 31
0.0
  0
LINE
  5
F1C
  8
CONVERTER
 10
25.997826476175248
 20
18.17457197316995
 30
0.0
 11
25.997826476175248
 21
17.924571973169961
 31
0.0
  0
LINE
  5
F1D
  8
CONVERTER
 10
26.037826476175251
 20
18.17457197316995
 30
0.0
 11
25.997826476175248
 21
18.17457197316995
 31
0.0
  0
LINE
  5
F1E
  8
CONVERTER
 10
26.537826476175251
 20
18.17457197316995
 30
0.0
 11
26.537826476175251
 21
17.924571973169961
 31
0.0
  0
LINE
  5
F1F
  8
CONVERTER
 10
26.497826476175248
 20
18.17457197316995
 30
0.0
 11
26.497826476175248
 21
17.924571973169961
 31
0.0
  0
LINE
  5
F20
  8
CONVERTER
 10
26.537826476175251
 20
18.17457197316995
 30
0.0
 11
26.497826476175248
 21
18.17457197316995
 31
0.0
  0
LINE
  5
F21
  8
CONVERTER
 10
27.03782647617524
 20
18.17457197316995
 30
0.0
 11
26.997826476175248
 21
18.17457197316995
 31
0.0
  0
LINE
  5
F22
  8
CONVERTER
 10
26.997826476175248
 20
18.17457197316995
 30
0.0
 11
26.997826476175248
 21
17.924571973169961
 31
0.0
  0
LINE
  5
F23
  8
CONVERTER
 10
27.03782647617524
 20
18.17457197316995
 30
0.0
 11
27.03782647617524
 21
17.924571973169961
 31
0.0
  0
ARC
  5
F24
  8
CONVERTER
 10
27.66782647617525
 20
17.514571973169961
 30
0.0
 40
0.1
 50
270.0
 51
0.0
  0
ARC
  5
F25
  8
CONVERTER
 10
25.867826476175239
 20
17.514571973169961
 30
0.0
 40
0.1
 50
180.0
 51
270.0
  0
LINE
  5
F26
  8
CONVERTER
 10
25.767826476175252
 20
17.893571973169959
 30
0.0
 11
25.767826476175252
 21
17.514571973169961
 31
0.0
  0
LINE
  5
F27
  8
CONVERTER
 10
27.767826476175252
 20
17.514571973169961
 30
0.0
 11
27.767826476175252
 21
17.893571973169959
 31
0.0
  0
LINE
  5
F28
  8
CONVERTER
 10
25.867826476175239
 20
17.414571973169949
 30
0.0
 11
27.66782647617525
 21
17.414571973169949
 31
0.0
  0
LINE
  5
F29
  8
CONVERTER
 10
27.537826476175251
 20
18.17457197316995
 30
0.0
 11
27.537826476175251
 21
17.924571973169961
 31
0.0
  0
LINE
  5
F2A
  8
CONVERTER
 10
27.497826476175248
 20
18.17457197316995
 30
0.0
 11
27.497826476175248
 21
17.924571973169961
 31
0.0
  0
LINE
  5
F2B
  8
CONVERTER
 10
27.537826476175251
 20
18.17457197316995
 30
0.0
 11
27.497826476175248
 21
18.17457197316995
 31
0.0
  0
INSERT
  5
F2C
  8
DIMENSIONS
  2
*U88
 10
0.0
 20
0.0
 30
0.0
1001
ACAD
1000
DSTYLE
1002
{
1070
   147
1040
0.09
1070
    77
1070
     0
1002
}
  0
INSERT
  5
F2D
  8
DIMENSIONS
  2
*U89
 10
0.0
 20
0.0
 30
0.0
  0
LINE
  5
F2E
  8
CONVERTER
 10
20.628073660801729
 20
17.893571973169959
 30
0.0
 11
22.65307366080172
 21
17.893571973169959
 31
0.0
  0
LINE
  5
F2F
  8
CONVERTER
 10
20.628073660801729
 20
17.924571973169961
 30
0.0
 11
20.628073660801729
 21
17.893571973169959
 31
0.0
  0
LINE
  5
F30
  8
CONVERTER
 10
22.65307366080172
 20
17.924571973169961
 30
0.0
 11
22.65307366080172
 21
17.893571973169959
 31
0.0
  0
LINE
  5
F31
  8
CONVERTER
 10
25.755326476175259
 20
17.924571973169961
 30
0.0
 11
27.780326476175251
 21
17.924571973169961
 31
0.0
  0
LINE
  5
F32
  8
CONVERTER
 10
25.755326476175259
 20
17.893571973169959
 30
0.0
 11
27.780326476175251
 21
17.893571973169959
 31
0.0
  0
LINE
  5
F33
  8
CONVERTER
 10
25.755326476175259
 20
17.924571973169961
 30
0.0
 11
25.755326476175259
 21
17.893571973169959
 31
0.0
  0
LINE
  5
F34
  8
CONVERTER
 10
27.780326476175251
 20
17.924571973169961
 30
0.0
 11
27.780326476175251
 21
17.893571973169959
 31
0.0
  0
LINE
  5
F35
  8
CONVERTER
 10
15.500820845428191
 20
17.924571973169961
 30
0.0
 11
17.525820845428189
 21
17.924571973169961
 31
0.0
  0
LINE
  5
F36
  8
CONVERTER
 10
15.500820845428191
 20
17.893571973169959
 30
0.0
 11
17.525820845428189
 21
17.893571973169959
 31
0.0
  0
LINE
  5
F37
  8
CONVERTER
 10
15.500820845428191
 20
17.924571973169961
 30
0.0
 11
15.500820845428191
 21
17.893571973169959
 31
0.0
  0
LINE
  5
F38
  8
CONVERTER
 10
17.525820845428189
 20
17.924571973169961
 30
0.0
 11
17.525820845428189
 21
17.893571973169959
 31
0.0
  0
DIMENSION
  5
F39
  8
DIMENSIONS
  2
*D30
 10
19.91732828616724
 20
18.17457197316995
 30
0.0
 11
20.575145517601989
 21
18.52948656865286
 31
0.0
 70
   128
 13
20.628073660801729
 23
17.924571973169961
 33
0.0
 14
20.820573660801731
 24
18.17457197316995
 34
0.0
 50
90.0
  0
LINE
  5
F3C
  8
CONVERTER
 10
21.150134020099319
 20
20.738100396990308
 30
0.0
 11
21.570175638648529
 21
20.738100396990308
 31
0.0
  0
LINE
  5
F3D
  8
CONVERTER
 10
21.598334791487019
 20
20.738100396990308
 30
0.0
 11
21.682812530116429
 21
20.738100396990308
 31
0.0
  0
LINE
  5
F3E
  8
CONVERTER
 10
21.71097168295492
 20
20.738100396990308
 30
0.0
 11
22.131013301504129
 21
20.738100396990308
 31
0.0
  0
LINE
  5
F3F
  8
CONVERTER
 10
21.640573660801721
 20
20.2476607562879
 30
0.0
 11
21.640573660801721
 21
20.667702374837098
 31
0.0
  0
LINE
  5
F40
  8
CONVERTER
 10
21.640573660801721
 20
20.6958615276756
 30
0.0
 11
21.640573660801721
 21
20.78033926630501
 31
0.0
  0
LINE
  5
F41
  8
CONVERTER
 10
21.640573660801721
 20
20.808498419143501
 30
0.0
 11
21.640573660801721
 21
21.22854003769271
 31
0.0
  0
INSERT
  5
F42
  8
DIMENSIONS
  2
*U90
 10
0.0
 20
0.0
 30
0.0
  0
INSERT
  5
F43
  8
DIMENSIONS
  2
*U91
 10
0.0
 20
0.0
 30
0.0
  0
DIMENSION
  5
F44
  8
DIMENSIONS
  2
*D31
 10
23.22120062623544
 20
20.488100396990308
 30
0.0
 11
23.22120062623544
 21
20.22614411237825
 31
0.0
 70
   128
 13
22.440573660801729
 23
19.988100396990301
 33
0.0
 14
22.440573660801729
 24
20.488100396990308
 34
0.0
 50
90.0
1001
ACAD
1000
DSTYLE
1002
{
1070
   271
1070
     3
1002
}
  0
DIMENSION
  5
F47
  8
DIMENSIONS
  2
*D32
 10
23.913362841169651
 20
20.988100396990308
 30
0.0
 11
23.913362841169651
 21
20.51720295898199
 31
0.0
 70
   128
 13
22.440573660801729
 23
19.988100396990301
 33
0.0
 14
22.440573660801729
 24
20.988100396990308
 34
0.0
 50
90.0
1001
ACAD
1000
DSTYLE
1002
{
1070
   271
1070
     3
1002
}
  0
DIMENSION
  5
F4A
  8
DIMENSIONS
  2
*D33
 10
24.476477900283641
 20
21.488100396990301
 30
0.0
 11
24.47647790028363
 21
20.842972910438998
 31
0.0
 70
   128
 13
22.440573660801729
 23
19.988100396990301
 33
0.0
 14
22.440573660801729
 24
21.488100396990301
 34
0.0
 50
90.0
1001
ACAD
1000
DSTYLE
1002
{
1070
   271
1070
     3
1002
}
  0
LINE
  5
F4D
  8
DIMENSIONS
 10
21.025412508115391
 20
19.988100396990301
 30
0.0
 11
22.247713621403669
 21
19.988100396990301
 31
0.0
  0
LINE
  5
F4E
  8
DIMENSIONS
 10
21.025412508115391
 20
20.488100396990308
 30
0.0
 11
22.247713621403669
 21
20.488100396990308
 31
0.0
  0
LINE
  5
F4F
  8
DIMENSIONS
 10
21.025412508115391
 20
20.988100396990308
 30
0.0
 11
22.247713621403669
 21
20.988100396990308
 31
0.0
  0
TEXT
  5
F50
  8
TOPSILK
 10
21.274737877677008
 20
21.414906473210628
 30
0.0
 40
0.05
  1
American Power Design
 72
     1
 11
21.637625404713781
 21
21.414906473210628
 31
0.0
  0
TEXT
  5
F51
  8
TOPSILK
 10
21.27058572013938
 20
21.297356373090381
 30
0.0
 40
0.05
  1
www.apowerdesign.com
 72
     1
 11
21.637582836217241
 21
21.297356373090381
 31
0.0
  0
INSERT
  5
F52
  8
DIMENSIONS
  2
*U92
 10
0.0
 20
0.0
 30
0.0
1001
ACAD
1000
DSTYLE
1002
{
1070
   147
1040
0.09
1070
    77
1070
     0
1002
}
  0
INSERT
  5
F53
  8
DIMENSIONS
  2
*U93
 10
0.0
 20
0.0
 30
0.0
  0
INSERT
  5
F54
  8
DIMENSIONS
  2
*U94
 10
0.0
 20
0.0
 30
0.0
1001
ACAD
1000
DSTYLE
1002
{
1070
   147
1040
0.09
1070
    77
1070
     0
1002
}
  0
INSERT
  5
F55
  8
DIMENSIONS
  2
*U95
 10
0.0
 20
0.0
 30
0.0
  0
INSERT
  5
F56
  8
DIMENSIONS
  2
*U96
 10
0.0
 20
0.0
 30
0.0
  0
ENDSEC
  0
EOF
