  0
SECTION
  2
HEADER
  9
$ACADVER
  1
AC1009
  9
$INSBASE
 10
0.0
 20
0.0
 30
0.0
  9
$EXTMIN
 10
13.64538997407074
 20
12.68274808530135
 30
-0.0000000000112498
  9
$EXTMAX
 10
30.647177240916111
 20
23.683883612908449
 30
0.0000000000002956
  9
$LIMMIN
 10
0.0
 20
0.0
  9
$LIMMAX
 10
12.0
 20
9.0
  9
$ORTHOMODE
 70
     1
  9
$REGENMODE
 70
     1
  9
$FILLMODE
 70
     1
  9
$QTEXTMODE
 70
     0
  9
$MIRRTEXT
 70
     0
  9
$DRAGMODE
 70
     2
  9
$LTSCALE
 40
1.0
  9
$OSMODE
 70
    39
  9
$ATTMODE
 70
     1
  9
$TEXTSIZE
 40
0.125
  9
$TRACEWID
 40
0.05
  9
$TEXTSTYLE
  7
STANDARD
  9
$CLAYER
  8
DIMENSIONS
  9
$CELTYPE
  6
BYLAYER
  9
$CECOLOR
 62
   256
  9
$DIMSCALE
 40
1.0
  9
$DIMASZ
 40
0.125
  9
$DIMEXO
 40
0.0625
  9
$DIMDLI
 40
0.38
  9
$DIMRND
 40
0.0
  9
$DIMDLE
 40
0.0
  9
$DIMEXE
 40
0.18
  9
$DIMTP
 40
0.0
  9
$DIMTM
 40
0.0
  9
$DIMTXT
 40
0.125
  9
$DIMCEN
 40
0.09
  9
$DIMTSZ
 40
0.0
  9
$DIMTOL
 70
     0
  9
$DIMLIM
 70
     0
  9
$DIMTIH
 70
     1
  9
$DIMTOH
 70
     1
  9
$DIMSE1
 70
     0
  9
$DIMSE2
 70
     0
  9
$DIMTAD
 70
     0
  9
$DIMZIN
 70
     0
  9
$DIMBLK
  1

  9
$DIMASO
 70
     1
  9
$DIMSHO
 70
     1
  9
$DIMPOST
  1

  9
$DIMAPOST
  1

  9
$DIMALT
 70
     1
  9
$DIMALTD
 70
     2
  9
$DIMALTF
 40
25.399999999999999
  9
$DIMLFAC
 40
1.0
  9
$DIMTOFL
 70
     0
  9
$DIMTVP
 40
0.0
  9
$DIMTIX
 70
     0
  9
$DIMSOXD
 70
     0
  9
$DIMSAH
 70
     0
  9
$DIMBLK1
  1

  9
$DIMBLK2
  1

  9
$DIMSTYLE
  2
STANDARD
  9
$DIMCLRD
 70
     0
  9
$DIMCLRE
 70
     0
  9
$DIMCLRT
 70
     0
  9
$DIMTFAC
 40
1.0
  9
$DIMGAP
 40
0.09
  9
$LUNITS
 70
     2
  9
$LUPREC
 70
     4
  9
$SKETCHINC
 40
0.1
  9
$FILLETRAD
 40
0.1
  9
$AUNITS
 70
     0
  9
$AUPREC
 70
     0
  9
$MENU
  1
.
  9
$ELEVATION
 40
0.0
  9
$PELEVATION
 40
0.0
  9
$THICKNESS
 40
0.0
  9
$LIMCHECK
 70
     0
  9
$BLIPMODE
 70
     0
  9
$CHAMFERA
 40
0.0
  9
$CHAMFERB
 40
0.0
  9
$SKPOLY
 70
     0
  9
$TDCREATE
 40
2455580.4643647461
  9
$TDUPDATE
 40
2456822.3925729981
  9
$TDINDWG
 40
0.139031169
  9
$TDUSRTIMER
 40
0.139031169
  9
$USRTIMER
 70
     1
  9
$ANGBASE
 50
0.0
  9
$ANGDIR
 70
     0
  9
$PDMODE
 70
     0
  9
$PDSIZE
 40
0.0
  9
$PLINEWID
 40
0.0
  9
$COORDS
 70
     1
  9
$SPLFRAME
 70
     0
  9
$SPLINETYPE
 70
     6
  9
$SPLINESEGS
 70
     8
  9
$ATTDIA
 70
     0
  9
$ATTREQ
 70
     1
  9
$HANDLING
 70
     1
  9
$HANDSEED
  5
1A49
  9
$SURFTAB1
 70
     6
  9
$SURFTAB2
 70
     6
  9
$SURFTYPE
 70
     6
  9
$SURFU
 70
     6
  9
$SURFV
 70
     6
  9
$UCSNAME
  2

  9
$UCSORG
 10
0.0
 20
0.0
 30
0.0
  9
$UCSXDIR
 10
1.0
 20
0.0
 30
0.0
  9
$UCSYDIR
 10
0.0
 20
1.0
 30
0.0
  9
$PUCSNAME
  2

  9
$PUCSORG
 10
0.0
 20
0.0
 30
0.0
  9
$PUCSXDIR
 10
1.0
 20
0.0
 30
0.0
  9
$PUCSYDIR
 10
0.0
 20
1.0
 30
0.0
  9
$USERI1
 70
     0
  9
$USERI2
 70
     0
  9
$USERI3
 70
     0
  9
$USERI4
 70
     0
  9
$USERI5
 70
     0
  9
$USERR1
 40
0.0
  9
$USERR2
 40
0.0
  9
$USERR3
 40
0.0
  9
$USERR4
 40
0.0
  9
$USERR5
 40
0.0
  9
$WORLDVIEW
 70
     1
  9
$SHADEDGE
 70
     3
  9
$SHADEDIF
 70
    70
  9
$TILEMODE
 70
     1
  9
$MAXACTVP
 70
    64
  9
$PLIMCHECK
 70
     0
  9
$PEXTMIN
 10
0.0
 20
0.0
 30
0.0
  9
$PEXTMAX
 10
0.0
 20
0.0
 30
0.0
  9
$PLIMMIN
 10
0.0
 20
0.0
  9
$PLIMMAX
 10
12.0
 20
9.0
  9
$UNITMODE
 70
     0
  9
$VISRETAIN
 70
     1
  9
$PLINEGEN
 70
     0
  9
$PSLTSCALE
 70
     1
  0
ENDSEC
  0
SECTION
  2
TABLES
  0
TABLE
  2
VPORT
 70
     1
  0
VPORT
  2
*ACTIVE
 70
     0
 10
0.0
 20
0.0
 11
1.0
 21
1.0
 12
22.146776840486009
 22
18.781582576142529
 13
0.0
 23
0.0
 14
0.5
 24
0.5
 15
0.5
 25
0.5
 16
0.0
 26
0.0
 36
1.0
 17
0.0
 27
0.0
 37
0.0
 40
12.30666547208943
 41
2.2000000000000002
 42
50.0
 43
0.0
 44
0.0
 50
0.0
 51
0.0
 71
     0
 72
  1000
 73
     1
 74
     2
 75
     0
 76
     0
 77
     0
 78
     0
  0
ENDTAB
  0
TABLE
  2
LTYPE
 70
     2
  0
LTYPE
  2
CONTINUOUS
 70
     0
  3
Solid line
 72
    65
 73
     0
 40
0.0
  0
LTYPE
  2
PHANTOM2
 70
     0
  3
___ _ _ ___ _ _ ___ _ _ ___ _ _
 72
    65
 73
     6
 40
1.25
 49
0.625
 49
-0.125
 49
0.125
 49
-0.125
 49
0.125
 49
-0.125
  0
ENDTAB
  0
TABLE
  2
LAYER
 70
     9
  0
LAYER
  2
0
 70
     0
 62
     7
  6
CONTINUOUS
  0
LAYER
  2
FRAME
 70
     0
 62
     7
  6
CONTINUOUS
  0
LAYER
  2
FRAME_TEXT
 70
     0
 62
     1
  6
CONTINUOUS
  0
LAYER
  2
DEFPOINTS
 70
     0
 62
     7
  6
CONTINUOUS
  0
LAYER
  2
DIMENSIONS
 70
     0
 62
     1
  6
CONTINUOUS
  0
LAYER
  2
CONVERTER
 70
     0
 62
     7
  6
CONTINUOUS
  0
LAYER
  2
GRID
 70
     0
 62
     7
  6
CONTINUOUS
  0
LAYER
  2
PINOUT
 70
     0
 62
     1
  6
CONTINUOUS
  0
LAYER
  2
TOPSILK
 70
     0
 62
     7
  6
CONTINUOUS
  0
ENDTAB
  0
TABLE
  2
STYLE
 70
     2
  0
STYLE
  2
STANDARD
 70
     0
 40
0.0
 41
1.0
 50
0.0
 71
     0
 42
0.125
  3
txt
  4

  0
ENDTAB
  0
TABLE
  2
VIEW
 70
     0
  0
ENDTAB
  0
TABLE
  2
UCS
 70
     0
  0
ENDTAB
  0
TABLE
  2
APPID
 70
     7
  0
APPID
  2
ACAD
 70
     0
  0
APPID
  2
DCO15
 70
     0
  0
APPID
  2
ACAD_NAV_VCDISPLAY
 70
     0
  0
APPID
  2
ACAD_DSTYLE_DIMJAG
 70
     0
  0
APPID
  2
ACAD_DSTYLE_DIMTALN
 70
     0
  0
APPID
  2
ACAD_EXEMPT_FROM_CAD_STANDARDS
 70
     0
  0
APPID
  2
ACAD_MLEADERVER
 70
     0
  0
ENDTAB
  0
TABLE
  2
DIMSTYLE
 70
     2
  0
DIMSTYLE
  2
STANDARD
 70
     0
  3

  4

  5

  6

  7

 40
1.0
 41
0.125
 42
0.0625
 43
0.38
 44
0.18
 45
0.0
 46
0.0
 47
0.0
 48
0.0
140
0.125
141
0.09
142
0.0
143
25.399999999999999
144
1.0
145
0.0
146
1.0
147
0.09
 71
     0
 72
     0
 73
     1
 74
     1
 75
     0
 76
     0
 77
     0
 78
     0
170
     1
171
     2
172
     0
173
     0
174
     0
175
     0
176
     0
177
     0
178
     0
  0
ENDTAB
  0
ENDSEC
  0
SECTION
  2
BLOCKS
  0
BLOCK
  8
0
  2
$MODEL_SPACE
 70
     0
 10
0.0
 20
0.0
 30
0.0
  3
$MODEL_SPACE
  1

  0
ENDBLK
  5
21
  8
0
  0
BLOCK
 67
     1
  8
0
  2
$PAPER_SPACE
 70
     0
 10
0.0
 20
0.0
 30
0.0
  3
$PAPER_SPACE
  1

  0
ENDBLK
  5
5B
 67
     1
  8
0
  0
BLOCK
  8
0
  2
A$C22C92D23
 70
     0
 10
0.0
 20
0.0
 30
0.0
  3
A$C22C92D23
  1

  0
TEXT
  5
117
  8
FRAME_TEXT
 10
-0.0000000000000284
 20
0.0416666867809426
 30
0.0
 40
0.125
  1
Dimensional Drawing
  0
ENDBLK
  5
119
  8
0
  0
BLOCK
  8
0
  2
A$C5BC8728C
 70
     0
 10
0.0
 20
0.0
 30
0.0
  3
A$C5BC8728C
  1

  0
TEXT
  5
5E9
  8
FRAME_TEXT
 10
-0.0000000086647987
 20
-0.0000000014337491
 30
0.0
 40
0.05
  1
CDL    03/05
  0
ENDBLK
  5
5EB
  8
0
  0
BLOCK
  8
0
  2
A$C62316909
 70
     0
 10
0.0
 20
0.0
 30
0.0
  3
A$C62316909
  1

  0
INSERT
  5
60E
  8
DIMENSIONS
  2
*U20
 10
0.0
 20
0.0
 30
0.0
  0
ENDBLK
  5
610
  8
0
  0
BLOCK
  8
0
  2
*D5
 70
     1
 10
0.0
 20
0.0
 30
0.0
  3
*D5
  1

  0
LINE
  5
184B
  8
DIMENSIONS
 62
     0
 10
24.229850590367711
 20
21.435770624148791
 30
0.0
 11
25.622656237587201
 21
21.435770624148791
 31
0.0
  0
LINE
  5
184C
  8
DIMENSIONS
 62
     0
 10
24.229850590367711
 20
18.860770624148788
 30
0.0
 11
25.622656237587201
 21
18.860770624148788
 31
0.0
  0
LINE
  5
184D
  8
DIMENSIONS
 62
     0
 10
25.442656237587201
 20
21.310770624148791
 30
0.0
 11
25.442656237587201
 21
20.627334031221238
 31
0.0
  0
LINE
  5
184E
  8
DIMENSIONS
 62
     0
 10
25.442656237587201
 20
18.985770624148788
 30
0.0
 11
25.442656237587201
 21
20.285654146578121
 31
0.0
  0
SOLID
  5
184F
  8
DIMENSIONS
 62
     0
 10
25.421822904253869
 20
21.310770624148791
 30
0.0
 11
25.46348957092053
 21
21.310770624148791
 31
0.0
 12
25.442656237587201
 22
21.435770624148791
 32
0.0
 13
25.442656237587201
 23
21.435770624148791
 33
0.0
  0
SOLID
  5
1850
  8
DIMENSIONS
 62
     0
 10
25.421822904253869
 20
18.985770624148788
 30
0.0
 11
25.46348957092053
 21
18.985770624148788
 31
0.0
 12
25.442656237587201
 22
18.860770624148788
 32
0.0
 13
25.442656237587201
 23
18.860770624148788
 33
0.0
  0
INSERT
  5
1851
  8
DIMENSIONS
  2
*U72
 10
0.0
 20
0.0
 30
0.0
  0
POINT
  5
1852
  8
DEFPOINTS
 62
     0
 10
24.167350590367711
 20
21.435770624148791
 30
0.0
  0
POINT
  5
1853
  8
DEFPOINTS
 62
     0
 10
24.167350590367711
 20
18.860770624148788
 30
0.0
  0
POINT
  5
1854
  8
DEFPOINTS
 62
     0
 10
25.442656237587201
 20
18.860770624148788
 30
0.0
  0
ENDBLK
  5
1652
  8
0
  0
BLOCK
  8
0
  2
*D6
 70
     1
 10
0.0
 20
0.0
 30
0.0
  3
*D6
  1

  0
LINE
  5
17A3
  8
DIMENSIONS
 62
     0
 10
19.592350590367712
 20
21.498270624148802
 30
0.0
 11
19.592350590367712
 21
22.098910124233651
 31
0.0
  0
LINE
  5
17A4
  8
DIMENSIONS
 62
     0
 10
19.879850590367699
 20
21.2107706241488
 30
0.0
 11
19.879850590367699
 21
22.098910124233651
 31
0.0
  0
LINE
  5
17A5
  8
DIMENSIONS
 62
     0
 10
20.00485059036771
 20
21.918910124233651
 30
0.0
 11
20.12985059036771
 21
21.918910124233651
 31
0.0
  0
LINE
  5
17A6
  8
DIMENSIONS
 62
     0
 10
19.467350590367712
 20
21.918910124233651
 30
0.0
 11
19.189022581851042
 21
21.918910124233651
 31
0.0
  0
SOLID
  5
17A7
  8
DIMENSIONS
 62
     0
 10
20.00485059036771
 20
21.93974345756698
 30
0.0
 11
20.00485059036771
 21
21.898076790900319
 31
0.0
 12
19.879850590367699
 22
21.918910124233651
 32
0.0
 13
19.879850590367699
 23
21.918910124233651
 33
0.0
  0
SOLID
  5
17A8
  8
DIMENSIONS
 62
     0
 10
19.467350590367712
 20
21.93974345756698
 30
0.0
 11
19.467350590367712
 21
21.898076790900319
 31
0.0
 12
19.592350590367712
 22
21.918910124233651
 32
0.0
 13
19.592350590367712
 23
21.918910124233651
 33
0.0
  0
INSERT
  5
17A9
  8
DIMENSIONS
  2
*U56
 10
0.0
 20
0.0
 30
0.0
  0
POINT
  5
17AA
  8
DEFPOINTS
 62
     0
 10
19.592350590367712
 20
21.435770624148791
 30
0.0
  0
POINT
  5
17AB
  8
DEFPOINTS
 62
     0
 10
19.879850590367699
 20
21.14827062414879
 30
0.0
  0
POINT
  5
17AC
  8
DEFPOINTS
 62
     0
 10
19.879850590367699
 20
21.918910124233651
 30
0.0
  0
ENDBLK
  5
165F
  8
0
  0
BLOCK
  8
0
  2
*D7
 70
     1
 10
0.0
 20
0.0
 30
0.0
  3
*D7
  1

  0
LINE
  5
19AC
  8
DIMENSIONS
 62
     0
 10
19.529850590367712
 20
18.860770624148788
 30
0.0
 11
18.87533605486411
 21
18.860770624148788
 31
0.0
  0
LINE
  5
19AD
  8
DIMENSIONS
 62
     0
 10
19.817350590367699
 20
19.1482706241488
 30
0.0
 11
18.87533605486411
 21
19.1482706241488
 31
0.0
  0
LINE
  5
19AE
  8
DIMENSIONS
 62
     0
 10
19.05533605486411
 20
18.735770624148788
 30
0.0
 11
19.05533605486411
 21
18.610770624148788
 31
0.0
  0
LINE
  5
19AF
  8
DIMENSIONS
 62
     0
 10
19.05533605486411
 20
19.2732706241488
 30
0.0
 11
19.05533605486411
 21
19.39827062414879
 31
0.0
  0
LINE
  5
19B0
  8
DIMENSIONS
 62
     0
 10
18.93033605486411
 20
18.183745557078549
 30
0.0
 11
19.05533605486411
 21
18.183745557078549
 31
0.0
  0
LINE
  5
19B1
  8
DIMENSIONS
 62
     0
 10
19.05533605486411
 20
18.183745557078549
 30
0.0
 11
19.05533605486411
 21
18.610770624148788
 31
0.0
  0
TEXT
  8
DIMENSIONS
  40
0.125
  5
1A48
  62
0
  72
0
  71
0
 10
18.1475
 20
17.9625
 30
0.000000
  1
0.288 [7.30]
  0
SOLID
  5
19B3
  8
DIMENSIONS
 62
     0
 10
19.034502721530782
 20
18.735770624148788
 30
0.0
 11
19.076169388197439
 21
18.735770624148788
 31
0.0
 12
19.05533605486411
 22
18.860770624148788
 32
0.0
 13
19.05533605486411
 23
18.860770624148788
 33
0.0
  0
SOLID
  5
19B4
  8
DIMENSIONS
 62
     0
 10
19.034502721530782
 20
19.2732706241488
 30
0.0
 11
19.076169388197439
 21
19.2732706241488
 31
0.0
 12
19.05533605486411
 22
19.1482706241488
 32
0.0
 13
19.05533605486411
 23
19.1482706241488
 33
0.0
  0
POINT
  5
19B5
  8
DEFPOINTS
 62
     0
 10
19.592350590367712
 20
18.860770624148788
 30
0.0
  0
POINT
  5
19B6
  8
DEFPOINTS
 62
     0
 10
19.879850590367699
 20
19.1482706241488
 30
0.0
  0
POINT
  5
19B7
  8
DEFPOINTS
 62
     0
 10
19.05533605486411
 20
19.1482706241488
 30
0.0
  0
ENDBLK
  5
166C
  8
0
  0
BLOCK
  8
0
  2
*D8
 70
     1
 10
0.0
 20
0.0
 30
0.0
  3
*D8
  1

  0
LINE
  5
17B9
  8
DIMENSIONS
 62
     0
 10
24.229850590367711
 20
16.984212678244791
 30
0.0
 11
25.303525684515272
 21
16.984212678244791
 31
0.0
  0
LINE
  5
17BA
  8
DIMENSIONS
 62
     0
 10
24.122350590367709
 20
16.144212678244791
 30
0.0
 11
25.303525684515272
 21
16.144212678244791
 31
0.0
  0
LINE
  5
17BB
  8
DIMENSIONS
 62
     0
 10
25.123525684515268
 20
16.859212678244791
 30
0.0
 11
25.123525684515268
 21
16.744496107067668
 31
0.0
  0
LINE
  5
17BC
  8
DIMENSIONS
 62
     0
 10
25.123525684515268
 20
16.269212678244791
 30
0.0
 11
25.123525684515268
 21
16.402816222424558
 31
0.0
  0
SOLID
  5
17BD
  8
DIMENSIONS
 62
     0
 10
25.10269235118194
 20
16.859212678244791
 30
0.0
 11
25.144359017848601
 21
16.859212678244791
 31
0.0
 12
25.123525684515268
 22
16.984212678244791
 32
0.0
 13
25.123525684515268
 23
16.984212678244791
 33
0.0
  0
SOLID
  5
17BE
  8
DIMENSIONS
 62
     0
 10
25.10269235118194
 20
16.269212678244791
 30
0.0
 11
25.144359017848601
 21
16.269212678244791
 31
0.0
 12
25.123525684515268
 22
16.144212678244791
 32
0.0
 13
25.123525684515268
 23
16.144212678244791
 33
0.0
  0
INSERT
  5
17BF
  8
DIMENSIONS
  2
*U57
 10
0.0
 20
0.0
 30
0.0
  0
POINT
  5
17C0
  8
DEFPOINTS
 62
     0
 10
24.167350590367711
 20
16.984212678244791
 30
0.0
  0
POINT
  5
17C1
  8
DEFPOINTS
 62
     0
 10
24.059850590367709
 20
16.144212678244791
 30
0.0
  0
POINT
  5
17C2
  8
DEFPOINTS
 62
     0
 10
25.123525684515268
 20
16.144212678244791
 30
0.0
  0
ENDBLK
  5
16A1
  8
0
  0
BLOCK
  8
0
  2
*D9
 70
     1
 10
0.0
 20
0.0
 30
0.0
  3
*D9
  1

  0
LINE
  5
17C3
  8
DIMENSIONS
 62
     0
 10
19.529850590367712
 20
16.984212678244798
 30
0.0
 11
18.629367647950701
 21
16.984212678244798
 31
0.0
  0
LINE
  5
17C4
  8
DIMENSIONS
 62
     0
 10
20.997350590367699
 20
17.234212678244798
 30
0.0
 11
18.629367647950701
 21
17.234212678244798
 31
0.0
  0
LINE
  5
17C5
  8
DIMENSIONS
 62
     0
 10
18.809367647950701
 20
16.859212678244798
 30
0.0
 11
18.809367647950701
 21
16.734212678244798
 31
0.0
  0
LINE
  5
17C6
  8
DIMENSIONS
 62
     0
 10
18.809367647950701
 20
17.359212678244798
 30
0.0
 11
18.809367647950701
 21
17.484212678244798
 31
0.0
  0
LINE
  5
17C7
  8
DIMENSIONS
 62
     0
 10
18.809367647950701
 20
17.484212678244798
 30
0.0
 11
18.934367647950701
 21
17.484212678244798
 31
0.0
  0
SOLID
  5
17C8
  8
DIMENSIONS
 62
     0
 10
18.788534314617369
 20
16.859212678244798
 30
0.0
 11
18.83020098128403
 21
16.859212678244798
 31
0.0
 12
18.809367647950701
 22
16.984212678244798
 32
0.0
 13
18.809367647950701
 23
16.984212678244798
 33
0.0
  0
SOLID
  5
17C9
  8
DIMENSIONS
 62
     0
 10
18.788534314617369
 20
17.359212678244798
 30
0.0
 11
18.83020098128403
 21
17.359212678244798
 31
0.0
 12
18.809367647950701
 22
17.234212678244798
 32
0.0
 13
18.809367647950701
 23
17.234212678244798
 33
0.0
  0
INSERT
  5
17CA
  8
DIMENSIONS
  2
*U58
 10
0.0
 20
0.0
 30
0.0
  0
POINT
  5
17CB
  8
DEFPOINTS
 62
     0
 10
19.592350590367712
 20
16.984212678244798
 30
0.0
  0
POINT
  5
17CC
  8
DEFPOINTS
 62
     0
 10
21.059850590367709
 20
17.234212678244798
 30
0.0
  0
POINT
  5
17CD
  8
DEFPOINTS
 62
     0
 10
18.809367647950701
 20
17.234212678244798
 30
0.0
  0
ENDBLK
  5
16AE
  8
0
  0
BLOCK
  8
0
  2
*D10
 70
     1
 10
0.0
 20
0.0
 30
0.0
  3
*D10
  1

  0
LINE
  5
17CE
  8
DIMENSIONS
 62
     0
 10
19.879850590367699
 20
21.2107706241488
 30
0.0
 11
19.879850590367699
 21
22.484525171668391
 31
0.0
  0
LINE
  5
17CF
  8
DIMENSIONS
 62
     0
 10
21.079850590367709
 20
20.46077062414879
 30
0.0
 11
21.079850590367709
 21
22.484525171668391
 31
0.0
  0
LINE
  5
17D0
  8
DIMENSIONS
 62
     0
 10
19.754850590367699
 20
22.304525171668399
 30
0.0
 11
19.629850590367699
 21
22.304525171668399
 31
0.0
  0
LINE
  5
17D1
  8
DIMENSIONS
 62
     0
 10
21.204850590367709
 20
22.304525171668399
 30
0.0
 11
21.329850590367709
 21
22.304525171668399
 31
0.0
  0
SOLID
  5
17D2
  8
DIMENSIONS
 62
     0
 10
19.754850590367699
 20
22.325358505001731
 30
0.0
 11
19.754850590367699
 21
22.283691838335059
 31
0.0
 12
19.879850590367699
 22
22.304525171668399
 32
0.0
 13
19.879850590367699
 23
22.304525171668399
 33
0.0
  0
SOLID
  5
17D3
  8
DIMENSIONS
 62
     0
 10
21.204850590367709
 20
22.325358505001731
 30
0.0
 11
21.204850590367709
 21
22.283691838335059
 31
0.0
 12
21.079850590367709
 22
22.304525171668399
 32
0.0
 13
21.079850590367709
 23
22.304525171668399
 33
0.0
  0
INSERT
  5
17D4
  8
DIMENSIONS
  2
*U59
 10
0.0
 20
0.0
 30
0.0
  0
POINT
  5
17D5
  8
DEFPOINTS
 62
     0
 10
19.879850590367699
 20
21.14827062414879
 30
0.0
  0
POINT
  5
17D6
  8
DEFPOINTS
 62
     0
 10
21.079850590367709
 20
20.39827062414879
 30
0.0
  0
POINT
  5
17D7
  8
DEFPOINTS
 62
     0
 10
21.079850590367709
 20
22.304525171668399
 30
0.0
  0
ENDBLK
  5
16BC
  8
0
  0
BLOCK
  8
0
  2
*D11
 70
     1
 10
0.0
 20
0.0
 30
0.0
  3
*D11
  1

  0
LINE
  5
17D8
  8
DIMENSIONS
 62
     0
 10
19.87985059036771
 20
21.2107706241488
 30
0.0
 11
19.87985059036771
 21
22.887319026674451
 31
0.0
  0
LINE
  5
17D9
  8
DIMENSIONS
 62
     0
 10
23.87985059036771
 20
21.2107706241488
 30
0.0
 11
23.87985059036771
 21
22.887319026674451
 31
0.0
  0
LINE
  5
17DA
  8
DIMENSIONS
 62
     0
 10
20.00485059036771
 20
22.707319026674458
 30
0.0
 11
21.16604156161662
 21
22.707319026674458
 31
0.0
  0
LINE
  5
17DB
  8
DIMENSIONS
 62
     0
 10
23.75485059036771
 20
22.707319026674458
 30
0.0
 11
22.420032188869691
 21
22.707319026674458
 31
0.0
  0
SOLID
  5
17DC
  8
DIMENSIONS
 62
     0
 10
20.00485059036771
 20
22.72815236000779
 30
0.0
 11
20.00485059036771
 21
22.686485693341119
 31
0.0
 12
19.87985059036771
 22
22.707319026674458
 32
0.0
 13
19.87985059036771
 23
22.707319026674458
 33
0.0
  0
SOLID
  5
17DD
  8
DIMENSIONS
 62
     0
 10
23.75485059036771
 20
22.72815236000779
 30
0.0
 11
23.75485059036771
 21
22.686485693341119
 31
0.0
 12
23.87985059036771
 22
22.707319026674458
 32
0.0
 13
23.87985059036771
 23
22.707319026674458
 33
0.0
  0
INSERT
  5
17DE
  8
DIMENSIONS
  2
*U60
 10
0.0
 20
0.0
 30
0.0
  0
POINT
  5
17DF
  8
DEFPOINTS
 62
     0
 10
19.87985059036771
 20
21.14827062414879
 30
0.0
  0
POINT
  5
17E0
  8
DEFPOINTS
 62
     0
 10
23.87985059036771
 20
21.14827062414879
 30
0.0
  0
POINT
  5
17E1
  8
DEFPOINTS
 62
     0
 10
23.87985059036771
 20
22.707319026674458
 30
0.0
  0
ENDBLK
  5
16C9
  8
0
  0
BLOCK
  8
0
  2
*D12
 70
     1
 10
0.0
 20
0.0
 30
0.0
  3
*D12
  1

  0
LINE
  5
17E2
  8
DIMENSIONS
 62
     0
 10
19.817350590367699
 20
19.14827062414879
 30
0.0
 11
17.364916187740221
 21
19.14827062414879
 31
0.0
  0
LINE
  5
17E3
  8
DIMENSIONS
 62
     0
 10
21.017350590367709
 20
19.39827062414879
 30
0.0
 11
17.364916187740221
 21
19.39827062414879
 31
0.0
  0
LINE
  5
17E4
  8
DIMENSIONS
 62
     0
 10
17.54491618774022
 20
19.52327062414879
 30
0.0
 11
17.54491618774022
 21
19.64827062414879
 31
0.0
  0
LINE
  5
17E5
  8
DIMENSIONS
 62
     0
 10
17.54491618774022
 20
19.02327062414879
 30
0.0
 11
17.54491618774022
 21
18.516823575567908
 31
0.0
  0
LINE
  5
17E6
  8
DIMENSIONS
 62
     0
 10
17.54491618774022
 20
18.516823575567908
 30
0.0
 11
17.41991618774022
 21
18.516823575567908
 31
0.0
  0
SOLID
  5
17E7
  8
DIMENSIONS
 62
     0
 10
17.524082854406888
 20
19.52327062414879
 30
0.0
 11
17.565749521073549
 21
19.52327062414879
 31
0.0
 12
17.54491618774022
 22
19.39827062414879
 32
0.0
 13
17.54491618774022
 23
19.39827062414879
 33
0.0
  0
SOLID
  5
17E8
  8
DIMENSIONS
 62
     0
 10
17.524082854406888
 20
19.02327062414879
 30
0.0
 11
17.565749521073549
 21
19.02327062414879
 31
0.0
 12
17.54491618774022
 22
19.14827062414879
 32
0.0
 13
17.54491618774022
 23
19.14827062414879
 33
0.0
  0
INSERT
  5
17E9
  8
DIMENSIONS
  2
*U61
 10
0.0
 20
0.0
 30
0.0
  0
POINT
  5
17EA
  8
DEFPOINTS
 62
     0
 10
19.879850590367699
 20
19.14827062414879
 30
0.0
  0
POINT
  5
17EB
  8
DEFPOINTS
 62
     0
 10
21.079850590367709
 20
19.39827062414879
 30
0.0
  0
POINT
  5
17EC
  8
DEFPOINTS
 62
     0
 10
17.54491618774022
 20
19.39827062414879
 30
0.0
  0
ENDBLK
  5
16D6
  8
0
  0
BLOCK
  8
0
  2
*D13
 70
     1
 10
0.0
 20
0.0
 30
0.0
  3
*D13
  1

  0
LINE
  5
17ED
  8
DIMENSIONS
 62
     0
 10
22.74235059036771
 20
19.39827062414879
 30
0.0
 11
24.982532790578791
 21
19.39827062414879
 31
0.0
  0
LINE
  5
17EE
  8
DIMENSIONS
 62
     0
 10
22.74235059036771
 20
20.8982706241488
 30
0.0
 11
24.982532790578791
 21
20.89827062414879
 31
0.0
  0
LINE
  5
17EF
  8
DIMENSIONS
 62
     0
 10
24.80253279057878
 20
19.52327062414879
 30
0.0
 11
24.80253279057878
 21
19.94257654696111
 31
0.0
  0
LINE
  5
17F0
  8
DIMENSIONS
 62
     0
 10
24.80253279057878
 20
20.77327062414879
 30
0.0
 11
24.80253279057878
 21
20.284256431604231
 31
0.0
  0
SOLID
  5
17F1
  8
DIMENSIONS
 62
     0
 10
24.781699457245448
 20
19.52327062414879
 30
0.0
 11
24.82336612391212
 21
19.52327062414879
 31
0.0
 12
24.80253279057878
 22
19.39827062414879
 32
0.0
 13
24.80253279057878
 23
19.39827062414879
 33
0.0
  0
SOLID
  5
17F2
  8
DIMENSIONS
 62
     0
 10
24.781699457245448
 20
20.77327062414879
 30
0.0
 11
24.82336612391212
 21
20.77327062414879
 31
0.0
 12
24.80253279057878
 22
20.89827062414879
 32
0.0
 13
24.80253279057878
 23
20.89827062414879
 33
0.0
  0
INSERT
  5
17F3
  8
DIMENSIONS
  2
*U62
 10
0.0
 20
0.0
 30
0.0
  0
POINT
  5
17F4
  8
DEFPOINTS
 62
     0
 10
22.67985059036771
 20
19.39827062414879
 30
0.0
  0
POINT
  5
17F5
  8
DEFPOINTS
 62
     0
 10
22.67985059036771
 20
20.8982706241488
 30
0.0
  0
POINT
  5
17F6
  8
DEFPOINTS
 62
     0
 10
24.80253279057878
 20
20.89827062414879
 30
0.0
  0
ENDBLK
  5
16E4
  8
0
  0
BLOCK
  8
0
  2
*D14
 70
     1
 10
0.0
 20
0.0
 30
0.0
  3
*D14
  1

  0
LINE
  5
17F7
  8
DIMENSIONS
 62
     0
 10
21.017350590367709
 20
19.39827062414879
 30
0.0
 11
18.39632764138161
 21
19.39827062414879
 31
0.0
  0
LINE
  5
17F8
  8
DIMENSIONS
 62
     0
 10
21.017350590367709
 20
19.89827062414879
 30
0.0
 11
18.39632764138161
 21
19.89827062414879
 31
0.0
  0
LINE
  5
17F9
  8
DIMENSIONS
 62
     0
 10
18.57632764138161
 20
19.27327062414879
 30
0.0
 11
18.57632764138161
 21
19.14827062414879
 31
0.0
  0
LINE
  5
17FA
  8
DIMENSIONS
 62
     0
 10
18.57632764138161
 20
20.02327062414879
 30
0.0
 11
18.57632764138161
 21
20.14827062414879
 31
0.0
  0
SOLID
  5
17FB
  8
DIMENSIONS
 62
     0
 10
18.555494308048281
 20
19.27327062414879
 30
0.0
 11
18.597160974714939
 21
19.27327062414879
 31
0.0
 12
18.57632764138161
 22
19.39827062414879
 32
0.0
 13
18.57632764138161
 23
19.39827062414879
 33
0.0
  0
SOLID
  5
17FC
  8
DIMENSIONS
 62
     0
 10
18.555494308048281
 20
20.02327062414879
 30
0.0
 11
18.597160974714939
 21
20.02327062414879
 31
0.0
 12
18.57632764138161
 22
19.89827062414879
 32
0.0
 13
18.57632764138161
 23
19.89827062414879
 33
0.0
  0
INSERT
  5
17FD
  8
DIMENSIONS
  2
*U63
 10
0.0
 20
0.0
 30
0.0
  0
POINT
  5
17FE
  8
DEFPOINTS
 62
     0
 10
21.079850590367709
 20
19.39827062414879
 30
0.0
  0
POINT
  5
17FF
  8
DEFPOINTS
 62
     0
 10
21.079850590367709
 20
19.89827062414879
 30
0.0
  0
POINT
  5
1800
  8
DEFPOINTS
 62
     0
 10
18.57632764138161
 20
19.89827062414879
 30
0.0
  0
ENDBLK
  5
16F1
  8
0
  0
BLOCK
  8
0
  2
*D15
 70
     1
 10
0.0
 20
0.0
 30
0.0
  3
*D15
  1

  0
LINE
  5
1801
  8
DIMENSIONS
 62
     0
 10
21.017350590367709
 20
19.39827062414879
 30
0.0
 11
17.783851008096342
 21
19.39827062414879
 31
0.0
  0
LINE
  5
1802
  8
DIMENSIONS
 62
     0
 10
21.017350590367709
 20
20.39827062414879
 30
0.0
 11
17.783851008096342
 21
20.39827062414879
 31
0.0
  0
LINE
  5
1803
  8
DIMENSIONS
 62
     0
 10
17.963851008096341
 20
19.52327062414879
 30
0.0
 11
17.963851008096341
 21
19.856258234340491
 31
0.0
  0
LINE
  5
1804
  8
DIMENSIONS
 62
     0
 10
17.963851008096341
 20
20.2732706241488
 30
0.0
 11
17.963851008096341
 21
20.1979381189836
 31
0.0
  0
SOLID
  5
1805
  8
DIMENSIONS
 62
     0
 10
17.943017674763009
 20
19.52327062414879
 30
0.0
 11
17.98468434142967
 21
19.52327062414879
 31
0.0
 12
17.963851008096341
 22
19.39827062414879
 32
0.0
 13
17.963851008096341
 23
19.39827062414879
 33
0.0
  0
SOLID
  5
1806
  8
DIMENSIONS
 62
     0
 10
17.943017674763009
 20
20.2732706241488
 30
0.0
 11
17.98468434142967
 21
20.2732706241488
 31
0.0
 12
17.963851008096341
 22
20.39827062414879
 32
0.0
 13
17.963851008096341
 23
20.39827062414879
 33
0.0
  0
INSERT
  5
1807
  8
DIMENSIONS
  2
*U64
 10
0.0
 20
0.0
 30
0.0
  0
POINT
  5
1808
  8
DEFPOINTS
 62
     0
 10
21.079850590367709
 20
19.39827062414879
 30
0.0
  0
POINT
  5
1809
  8
DEFPOINTS
 62
     0
 10
21.079850590367709
 20
20.39827062414879
 30
0.0
  0
POINT
  5
180A
  8
DEFPOINTS
 62
     0
 10
17.963851008096341
 20
20.39827062414879
 30
0.0
  0
ENDBLK
  5
16FE
  8
0
  0
BLOCK
  8
0
  2
*D16
 70
     1
 10
0.0
 20
0.0
 30
0.0
  3
*D16
  1

  0
LINE
  5
185F
  8
DIMENSIONS
 62
     0
 10
19.817350590367699
 20
19.14827062414879
 30
0.0
 11
17.102794126697649
 21
19.14827062414879
 31
0.0
  0
LINE
  5
1860
  8
DIMENSIONS
 62
     0
 10
19.81735059036771
 20
21.14827062414879
 30
0.0
 11
17.102794126697649
 21
21.14827062414879
 31
0.0
  0
LINE
  5
1861
  8
DIMENSIONS
 62
     0
 10
17.282794126697649
 20
19.27327062414879
 30
0.0
 11
17.282794126697649
 21
20.100310612068078
 31
0.0
  0
LINE
  5
1862
  8
DIMENSIONS
 62
     0
 10
17.282794126697649
 20
21.02327062414879
 30
0.0
 11
17.282794126697649
 21
20.441990496711188
 31
0.0
  0
SOLID
  5
1863
  8
DIMENSIONS
 62
     0
 10
17.26196079336431
 20
19.27327062414879
 30
0.0
 11
17.303627460030981
 21
19.27327062414879
 31
0.0
 12
17.282794126697649
 22
19.14827062414879
 32
0.0
 13
17.282794126697649
 23
19.14827062414879
 33
0.0
  0
SOLID
  5
1864
  8
DIMENSIONS
 62
     0
 10
17.26196079336431
 20
21.02327062414879
 30
0.0
 11
17.303627460030981
 21
21.02327062414879
 31
0.0
 12
17.282794126697649
 22
21.14827062414879
 32
0.0
 13
17.282794126697649
 23
21.14827062414879
 33
0.0
  0
INSERT
  5
1865
  8
DIMENSIONS
  2
*U73
 10
0.0
 20
0.0
 30
0.0
  0
POINT
  5
1866
  8
DEFPOINTS
 62
     0
 10
19.879850590367699
 20
19.14827062414879
 30
0.0
  0
POINT
  5
1867
  8
DEFPOINTS
 62
     0
 10
19.87985059036771
 20
21.14827062414879
 30
0.0
  0
POINT
  5
1868
  8
DEFPOINTS
 62
     0
 10
17.282794126697649
 20
21.14827062414879
 30
0.0
  0
ENDBLK
  5
170B
  8
0
  0
BLOCK
  8
0
  2
*D17
 70
     1
 10
0.0
 20
0.0
 30
0.0
  3
*D17
  1

  0
LINE
  5
1815
  8
DIMENSIONS
 62
     0
 10
21.079850590367709
 20
20.46077062414879
 30
0.0
 11
21.079850590367709
 21
22.48364356425424
 31
0.0
  0
LINE
  5
1816
  8
DIMENSIONS
 62
     0
 10
22.67985059036771
 20
20.96077062414879
 30
0.0
 11
22.67985059036771
 21
22.48364356425424
 31
0.0
  0
LINE
  5
1817
  8
DIMENSIONS
 62
     0
 10
21.204850590367709
 20
22.303643564254241
 30
0.0
 11
21.312683331018061
 21
22.303643564254241
 31
0.0
  0
LINE
  5
1818
  8
DIMENSIONS
 62
     0
 10
22.55485059036771
 20
22.303643564254241
 30
0.0
 11
22.455642956108179
 21
22.303643564254241
 31
0.0
  0
SOLID
  5
1819
  8
DIMENSIONS
 62
     0
 10
21.204850590367709
 20
22.32447689758758
 30
0.0
 11
21.204850590367709
 21
22.282810230920909
 31
0.0
 12
21.079850590367709
 22
22.303643564254241
 32
0.0
 13
21.079850590367709
 23
22.303643564254241
 33
0.0
  0
SOLID
  5
181A
  8
DIMENSIONS
 62
     0
 10
22.55485059036771
 20
22.32447689758758
 30
0.0
 11
22.55485059036771
 21
22.282810230920909
 31
0.0
 12
22.67985059036771
 22
22.303643564254241
 32
0.0
 13
22.67985059036771
 23
22.303643564254241
 33
0.0
  0
INSERT
  5
181B
  8
DIMENSIONS
  2
*U65
 10
0.0
 20
0.0
 30
0.0
  0
POINT
  5
181C
  8
DEFPOINTS
 62
     0
 10
21.079850590367709
 20
20.39827062414879
 30
0.0
  0
POINT
  5
181D
  8
DEFPOINTS
 62
     0
 10
22.67985059036771
 20
20.8982706241488
 30
0.0
  0
POINT
  5
181E
  8
DEFPOINTS
 62
     0
 10
22.67985059036771
 20
22.303643564254241
 30
0.0
  0
ENDBLK
  5
1718
  8
0
  0
BLOCK
  8
0
  2
*D18
 70
     1
 10
0.0
 20
0.0
 30
0.0
  3
*D18
  1

  0
LINE
  5
181F
  8
DIMENSIONS
 62
     0
 10
19.592350590367712
 20
21.44827062414879
 30
0.0
 11
19.592350590367712
 21
23.228394019010668
 31
0.0
  0
LINE
  5
1820
  8
DIMENSIONS
 62
     0
 10
24.167350590367711
 20
21.44827062414879
 30
0.0
 11
24.167350590367711
 21
23.228394019010668
 31
0.0
  0
LINE
  5
1821
  8
DIMENSIONS
 62
     0
 10
19.717350590367701
 20
23.048394019010669
 30
0.0
 11
21.16594324087761
 21
23.048394019010669
 31
0.0
  0
LINE
  5
1822
  8
DIMENSIONS
 62
     0
 10
24.042350590367711
 20
23.048394019010669
 30
0.0
 11
22.41993386813067
 21
23.048394019010669
 31
0.0
  0
SOLID
  5
1823
  8
DIMENSIONS
 62
     0
 10
19.717350590367701
 20
23.069227352344011
 30
0.0
 11
19.717350590367701
 21
23.02756068567734
 31
0.0
 12
19.592350590367712
 22
23.048394019010669
 32
0.0
 13
19.592350590367712
 23
23.048394019010669
 33
0.0
  0
SOLID
  5
1824
  8
DIMENSIONS
 62
     0
 10
24.042350590367711
 20
23.069227352344011
 30
0.0
 11
24.042350590367711
 21
23.02756068567734
 31
0.0
 12
24.167350590367711
 22
23.048394019010669
 32
0.0
 13
24.167350590367711
 23
23.048394019010669
 33
0.0
  0
INSERT
  5
1825
  8
DIMENSIONS
  2
*U66
 10
0.0
 20
0.0
 30
0.0
  0
POINT
  5
1826
  8
DEFPOINTS
 62
     0
 10
19.592350590367712
 20
21.385770624148801
 30
0.0
  0
POINT
  5
1827
  8
DEFPOINTS
 62
     0
 10
24.167350590367711
 20
21.385770624148801
 30
0.0
  0
POINT
  5
1828
  8
DEFPOINTS
 62
     0
 10
24.167350590367711
 20
23.048394019010669
 30
0.0
  0
ENDBLK
  5
1725
  8
0
  0
BLOCK
  8
0
  2
*U20
 70
     1
 10
0.0
 20
0.0
 30
0.0
  3
*U20
  1

  0
TEXT
  5
1911
  8
PINOUT
 10
-0.0030641437731005
 20
-0.0000000038621124
 30
0.0
 40
0.125
  1
PIN #
  0
ENDBLK
  5
1913
  8
0
  0
BLOCK
  8
0
  2
*U21
 70
     1
 10
0.0
 20
0.0
 30
0.0
  3
*U21
  1

  0
TEXT
  5
1915
  8
PINOUT
 10
19.529770775733279
 20
15.39802363190371
 30
0.0
 40
0.125
  1
DUAL
  0
ENDBLK
  5
1917
  8
0
  0
BLOCK
  8
0
  2
*U22
 70
     1
 10
0.0
 20
0.0
 30
0.0
  3
*U22
  1

  0
TEXT
  5
1919
  8
PINOUT
 10
19.275895505365579
 20
13.996081553927
 30
0.0
 40
0.125
  1
OUTPUT 2 +
  0
ENDBLK
  5
191B
  8
0
  0
BLOCK
  8
0
  2
*U23
 70
     1
 10
0.0
 20
0.0
 30
0.0
  3
*U23
  1

  0
TEXT
  5
191D
  8
PINOUT
 10
19.439467963909198
 20
14.346567073421181
 30
0.0
 40
0.125
  1
+ INPUT
  0
ENDBLK
  5
191F
  8
0
  0
BLOCK
  8
0
  2
*U24
 70
     1
 10
0.0
 20
0.0
 30
0.0
  3
*U24
  1

  0
TEXT
  5
1921
  8
PINOUT
 10
19.457988151364141
 20
14.693898303081181
 30
0.0
 40
0.125
  1
ON/OFF
  0
ENDBLK
  5
1923
  8
0
  0
BLOCK
  8
0
  2
*U25
 70
     1
 10
0.0
 20
0.0
 30
0.0
  3
*U25
  1

  0
TEXT
  5
1925
  8
PINOUT
 10
19.45870913189766
 20
15.04753811240953
 30
0.0
 40
0.125
  1
- INPUT
  0
ENDBLK
  5
1927
  8
0
  0
BLOCK
  8
0
  2
*U26
 70
     1
 10
0.0
 20
0.0
 30
0.0
  3
*U26
  1

  0
TEXT
  5
1929
  8
PINOUT
 10
19.299102066288441
 20
13.64559603443282
 30
0.0
 40
0.125
  1
OUTPUT 2 -
  0
ENDBLK
  5
192B
  8
0
  0
BLOCK
  8
0
  2
*U27
 70
     1
 10
0.0
 20
0.0
 30
0.0
  3
*U27
  1

  0
TEXT
  5
192D
  8
PINOUT
 10
17.995605457831999
 20
13.645596034432829
 30
0.0
 40
0.125
  1
NO PIN
  0
ENDBLK
  5
192F
  8
0
  0
BLOCK
  8
0
  2
*U28
 70
     1
 10
0.0
 20
0.0
 30
0.0
  3
*U28
  1

  0
TEXT
  5
1931
  8
PINOUT
 10
17.127903799133009
 20
13.64559603443282
 30
0.0
 40
0.125
  1
5
  0
ENDBLK
  5
1933
  8
0
  0
BLOCK
  8
0
  2
*U29
 70
     1
 10
0.0
 20
0.0
 30
0.0
  3
*U29
  1

  0
TEXT
  5
1935
  8
PINOUT
 10
17.972398896909151
 20
15.04753811240953
 30
0.0
 40
0.125
  1
- INPUT
  0
ENDBLK
  5
1937
  8
0
  0
BLOCK
  8
0
  2
*U30
 70
     1
 10
0.0
 20
0.0
 30
0.0
  3
*U30
  1

  0
TEXT
  5
1939
  8
PINOUT
 10
17.971677916375619
 20
14.693898303081181
 30
0.0
 40
0.125
  1
ON/OFF
  0
ENDBLK
  5
193B
  8
0
  0
BLOCK
  8
0
  2
*U31
 70
     1
 10
0.0
 20
0.0
 30
0.0
  3
*U31
  1

  0
TEXT
  5
193D
  8
PINOUT
 10
17.95315772892069
 20
14.346567073421181
 30
0.0
 40
0.125
  1
+ INPUT
  0
ENDBLK
  5
193F
  8
0
  0
BLOCK
  8
0
  2
*U32
 70
     1
 10
0.0
 20
0.0
 30
0.0
  3
*U32
  1

  0
TEXT
  5
1941
  8
PINOUT
 10
17.995605457831999
 20
13.99608155392699
 30
0.0
 40
0.125
  1
NO PIN
  0
ENDBLK
  5
1943
  8
0
  0
BLOCK
  8
0
  2
*U33
 70
     1
 10
0.0
 20
0.0
 30
0.0
  3
*U33
  1

  0
TEXT
  5
1945
  8
PINOUT
 10
17.13385188853459
 20
13.996081553927
 30
0.0
 40
0.125
  1
4
  0
ENDBLK
  5
1947
  8
0
  0
BLOCK
  8
0
  2
*U34
 70
     1
 10
0.0
 20
0.0
 30
0.0
  3
*U34
  1

  0
TEXT
  5
1949
  8
PINOUT
 10
17.129255637633371
 20
14.346567073421181
 30
0.0
 40
0.125
  1
3
  0
ENDBLK
  5
194B
  8
0
  0
BLOCK
  8
0
  2
*U35
 70
     1
 10
0.0
 20
0.0
 30
0.0
  3
*U35
  1

  0
TEXT
  5
194D
  8
PINOUT
 10
17.13277041773431
 20
14.697052592915361
 30
0.0
 40
0.125
  1
2
  0
ENDBLK
  5
194F
  8
0
  0
BLOCK
  8
0
  2
*U36
 70
     1
 10
0.0
 20
0.0
 30
0.0
  3
*U36
  1

  0
TEXT
  5
1951
  8
PINOUT
 10
17.115106394662931
 20
15.047538112409541
 30
0.0
 40
0.125
  1
1
  0
ENDBLK
  5
1953
  8
0
  0
BLOCK
  8
0
  2
*U37
 70
     1
 10
0.0
 20
0.0
 30
0.0
  3
*U37
  1

  0
TEXT
  5
1955
  8
PINOUT
 10
17.967622400874539
 20
15.39802363190371
 30
0.0
 40
0.125
  1
SINGLE
  0
ENDBLK
  5
1957
  8
0
  0
BLOCK
  8
0
  2
*U38
 70
     1
 10
0.0
 20
0.0
 30
0.0
  3
*U38
  1

  0
TEXT
  5
1959
  8
PINOUT
 10
16.959827945680249
 20
15.39802363190373
 30
0.0
 40
0.125
  1
PIN #
  0
ENDBLK
  5
195B
  8
0
  0
BLOCK
  8
0
  2
*U39
 70
     1
 10
0.0
 20
0.0
 30
0.0
  3
*U39
  1

  0
TEXT
  5
195D
  8
PINOUT
 10
17.12880502479992
 20
13.295110514938649
 30
0.0
 40
0.125
  1
6
  0
ENDBLK
  5
195F
  8
0
  0
BLOCK
  8
0
  2
*U40
 70
     1
 10
0.0
 20
0.0
 30
0.0
  3
*U40
  1

  0
TEXT
  5
1961
  8
PINOUT
 10
17.1298864956002
 20
12.944624995444469
 30
0.0
 40
0.125
  1
7
  0
ENDBLK
  5
1963
  8
0
  0
BLOCK
  8
0
  2
*U41
 70
     1
 10
0.0
 20
0.0
 30
0.0
  3
*U41
  1

  0
TEXT
  5
1965
  8
PINOUT
 10
19.29910206628843
 20
13.295110514938649
 30
0.0
 40
0.125
  1
OUTPUT 1 -
  0
ENDBLK
  5
1967
  8
0
  0
BLOCK
  8
0
  2
*U42
 70
     1
 10
0.0
 20
0.0
 30
0.0
  3
*U42
  1

  0
TEXT
  5
1969
  8
PINOUT
 10
19.275895505365579
 20
12.94462499544446
 30
0.0
 40
0.125
  1
OUTPUT 1 +
  0
ENDBLK
  5
196B
  8
0
  0
BLOCK
  8
0
  2
*U43
 70
     1
 10
0.0
 20
0.0
 30
0.0
  3
*U43
  1

  0
TEXT
  5
196D
  8
PINOUT
 10
17.812791831299918
 20
13.29511051493864
 30
0.0
 40
0.125
  1
OUTPUT 1 -
  0
ENDBLK
  5
196F
  8
0
  0
BLOCK
  8
0
  2
*U44
 70
     1
 10
0.0
 20
0.0
 30
0.0
  3
*U44
  1

  0
TEXT
  5
1971
  8
PINOUT
 10
17.789585270377071
 20
12.94462499544446
 30
0.0
 40
0.125
  1
OUTPUT 1 +
  0
ENDBLK
  5
1973
  8
0
  0
BLOCK
  8
0
  2
*U45
 70
     1
 10
0.0
 20
0.0
 30
0.0
  3
*U45
  1

  0
TEXT
  5
19B9
  8
DIMENSIONS
 10
18.742371431361029
 20
17.662293815781339
 30
0.0
 40
0.125
  1
MIN PIN LENGTH
  0
ENDBLK
  5
19BB
  8
0
  0
BLOCK
  8
0
  2
*U46
 70
     1
 10
0.0
 20
0.0
 30
0.0
  3
*U46
  1

  0
TEXT
  5
19BD
  8
CONVERTER
 10
22.55233321874038
 20
20.868495353912479
 30
0.0
 40
0.08
  1
7
  0
ENDBLK
  5
19BF
  8
0
  0
BLOCK
  8
0
  2
*U47
 70
     1
 10
0.0
 20
0.0
 30
0.0
  3
*U47
  1

  0
TEXT
  5
19C1
  8
CONVERTER
 10
22.55164107742819
 20
20.368495353912468
 30
0.0
 40
0.08
  1
6
  0
ENDBLK
  5
19C3
  8
0
  0
BLOCK
  8
0
  2
*U48
 70
     1
 10
0.0
 20
0.0
 30
0.0
  3
*U48
  1

  0
TEXT
  5
19C5
  8
CONVERTER
 10
22.55487107021839
 20
19.868495353912468
 30
0.0
 40
0.08
  1
5
  0
ENDBLK
  5
19C7
  8
0
  0
BLOCK
  8
0
  2
*U49
 70
     1
 10
0.0
 20
0.0
 30
0.0
  3
*U49
  1

  0
TEXT
  5
19C9
  8
CONVERTER
 10
22.564921538855739
 20
19.388495353912472
 30
0.0
 40
0.06
  1
4
  0
ENDBLK
  5
19CB
  8
0
  0
BLOCK
  8
0
  2
*U50
 70
     1
 10
0.0
 20
0.0
 30
0.0
  3
*U50
  1

  0
TEXT
  5
19CD
  8
CONVERTER
 10
21.143171855289921
 20
19.388495353912472
 30
0.0
 40
0.06
  1
1
  0
ENDBLK
  5
19CF
  8
0
  0
BLOCK
  8
0
  2
*U51
 70
     1
 10
0.0
 20
0.0
 30
0.0
  3
*U51
  1

  0
TEXT
  5
19D1
  8
CONVERTER
 10
21.151650586364191
 20
19.888495353912472
 30
0.0
 40
0.06
  1
2
  0
ENDBLK
  5
19D3
  8
0
  0
BLOCK
  8
0
  2
*U52
 70
     1
 10
0.0
 20
0.0
 30
0.0
  3
*U52
  1

  0
TEXT
  5
19D5
  8
CONVERTER
 10
21.149963491915731
 20
20.388495353912479
 30
0.0
 40
0.06
  1
3
  0
ENDBLK
  5
19D7
  8
0
  0
BLOCK
  8
0
  2
*U53
 70
     1
 10
0.0
 20
0.0
 30
0.0
  3
*U53
  1

  0
SOLID
  5
19D9
  8
DIMENSIONS
 10
21.144981404219749
 20
16.026572369202061
 30
0.0
 11
21.097866804931339
 21
16.144212678244799
 31
0.0
 12
21.180588282866669
 22
16.048211715406019
 32
0.0
 13
21.180588282866669
 23
16.048211715406019
 33
0.0
  0
POLYLINE
  5
19DA
  8
DIMENSIONS
 66
     1
 10
0.0
 20
0.0
 30
0.0
  0
VERTEX
  5
19DB
  8
DIMENSIONS
 10
21.162784843543211
 20
16.037392042304042
 30
0.0
  0
VERTEX
  5
19DC
  8
DIMENSIONS
 10
21.407253344513641
 20
15.63512664273958
 30
0.0
  0
VERTEX
  5
19DD
  8
DIMENSIONS
 10
22.101976942110451
 20
15.63512664273958
 30
0.0
  0
SEQEND
  5
19DE
  8
DIMENSIONS
  0
ENDBLK
  5
19E0
  8
0
  0
BLOCK
  8
0
  2
*U54
 70
     1
 10
0.0
 20
0.0
 30
0.0
  3
*U54
  1

  0
TEXT
  5
19E2
  8
DIMENSIONS
 10
22.188912774842969
 20
15.57551056487368
 30
0.0
 40
0.125
  1
BLACK ANODIZED ALUMINUM CASE
  0
ENDBLK
  5
19E4
  8
0
  0
BLOCK
  8
0
  2
*U55
 70
     1
 10
0.0
 20
0.0
 30
0.0
  3
*U55
  1

  0
TEXT
  5
19E6
  8
DIMENSIONS
 62
     0
 10
20.525578146596729
 20
18.450047894809561
 30
0.0
 40
0.125
  1
4-40 Thread 0.125" [3.18] deep (4 plc)
  0
ENDBLK
  5
19E8
  8
0
  0
BLOCK
  8
0
  2
*U56
 70
     1
 10
0.0
 20
0.0
 30
0.0
  3
*U56
  1

  0
TEXT
  5
19EA
  8
DIMENSIONS
 62
     0
 10
18.20671904904642
 20
21.874750066555212
 30
0.0
 40
0.125
  1
0.288 [7.30]
  0
ENDBLK
  5
19EC
  8
0
  0
BLOCK
  8
0
  2
*U57
 70
     1
 10
0.0
 20
0.0
 30
0.0
  3
*U57
  1

  0
TEXT
  5
19EE
  8
DIMENSIONS
 62
     0
 10
24.627896628999771
 20
16.529496107067679
 30
0.0
 40
0.125
  1
0.840 [21.34]
  0
ENDBLK
  5
19F0
  8
0
  0
BLOCK
  8
0
  2
*U58
 70
     1
 10
0.0
 20
0.0
 30
0.0
  3
*U58
  1

  0
TEXT
  5
19F2
  8
DIMENSIONS
 62
     0
 10
19.01769857801559
 20
17.440052620566359
 30
0.0
 40
0.125
  1
0.250 [6.35]
  0
ENDBLK
  5
19F4
  8
0
  0
BLOCK
  8
0
  2
*U59
 70
     1
 10
0.0
 20
0.0
 30
0.0
  3
*U59
  1

  0
TEXT
  5
19F6
  8
DIMENSIONS
 62
     0
 10
19.976741361816881
 20
22.260365113989948
 30
0.0
 40
0.125
  1
1.200 [30.48]
  0
ENDBLK
  5
19F8
  8
0
  0
BLOCK
  8
0
  2
*U60
 70
     1
 10
0.0
 20
0.0
 30
0.0
  3
*U60
  1

  0
TEXT
  5
19FA
  8
DIMENSIONS
 62
     0
 10
21.25315763948252
 20
22.663158968996012
 30
0.0
 40
0.125
  1
4.000 [101.60]
  0
ENDBLK
  5
19FC
  8
0
  0
BLOCK
  8
0
  2
*U61
 70
     1
 10
0.0
 20
0.0
 30
0.0
  3
*U61
  1

  0
TEXT
  5
19FE
  8
DIMENSIONS
 62
     0
 10
16.437612654935599
 20
18.472663517889469
 30
0.0
 40
0.125
  1
0.250 [6.35]
  0
ENDBLK
  5
1A00
  8
0
  0
BLOCK
  8
0
  2
*U62
 70
     1
 10
0.0
 20
0.0
 30
0.0
  3
*U62
  1

  0
TEXT
  5
1A02
  8
DIMENSIONS
 62
     0
 10
24.29942356202795
 20
20.069256431604231
 30
0.0
 40
0.125
  1
1.500 [38.10]
  0
ENDBLK
  5
1A04
  8
0
  0
BLOCK
  8
0
  2
*U63
 70
     1
 10
0.0
 20
0.0
 30
0.0
  3
*U63
  1

  0
TEXT
  5
1A06
  8
DIMENSIONS
 62
     0
 10
18.080698585866099
 20
19.60411056647035
 30
0.0
 40
0.125
  1
0.500 [12.70]
  0
ENDBLK
  5
1A08
  8
0
  0
BLOCK
  8
0
  2
*U64
 70
     1
 10
0.0
 20
0.0
 30
0.0
  3
*U64
  1

  0
TEXT
  5
1A0A
  8
DIMENSIONS
 62
     0
 10
17.460741779545511
 20
19.982938118983611
 30
0.0
 40
0.125
  1
1.000 [25.40]
  0
ENDBLK
  5
1A0C
  8
0
  0
BLOCK
  8
0
  2
*U65
 70
     1
 10
0.0
 20
0.0
 30
0.0
  3
*U65
  1

  0
TEXT
  5
1A0E
  8
DIMENSIONS
 62
     0
 10
21.381053915012291
 20
22.259483506575801
 30
0.0
 40
0.125
  1
1.600 [40.64]
  0
ENDBLK
  5
1A10
  8
0
  0
BLOCK
  8
0
  2
*U66
 70
     1
 10
0.0
 20
0.0
 30
0.0
  3
*U66
  1

  0
TEXT
  5
1A12
  8
DIMENSIONS
 62
     0
 10
21.25305931874351
 20
23.004233961332229
 30
0.0
 40
0.125
  1
4.575 [116.21]
  0
ENDBLK
  5
1A14
  8
0
  0
BLOCK
  8
0
  2
*U67
 70
     1
 10
0.0
 20
0.0
 30
0.0
  3
*U67
  1

  0
SOLID
  5
1A16
  8
DIMENSIONS
 10
22.782772133746711
 20
17.335152077306159
 30
0.0
 11
22.706154475893531
 21
17.234212678244798
 31
0.0
 12
22.745893536329341
 22
17.354544863687661
 32
0.0
 13
22.745893536329341
 23
17.354544863687661
 33
0.0
  0
POLYLINE
  5
1A17
  8
DIMENSIONS
 66
     1
 10
0.0
 20
0.0
 30
0.0
  0
VERTEX
  5
1A18
  8
DIMENSIONS
 10
22.764332835038029
 20
17.34484847049692
 30
0.0
  0
VERTEX
  5
1A19
  8
DIMENSIONS
 10
22.92511283217166
 20
17.650598282329739
 30
0.0
  0
VERTEX
  5
1A1A
  8
DIMENSIONS
 10
23.126697274422739
 20
17.650719512171872
 30
0.0
  0
SEQEND
  5
1A1B
  8
DIMENSIONS
  0
ENDBLK
  5
1A1D
  8
0
  0
BLOCK
  8
0
  2
*U68
 70
     1
 10
0.0
 20
0.0
 30
0.0
  3
*U68
  1

  0
TEXT
  5
1A1F
  8
DIMENSIONS
 10
22.84030540653777
 20
17.941106328682199
 30
0.0
 40
0.125
  1
NONCONDUCTIVE BASE PLATE
  0
ENDBLK
  5
1A21
  8
0
  0
BLOCK
  8
0
  2
*U69
 70
     1
 10
0.0
 20
0.0
 30
0.0
  3
*U69
  1

  0
SOLID
  5
1A23
  8
DIMENSIONS
 10
22.05294828375386
 20
17.083589502382761
 30
0.0
 11
21.974314483120601
 21
16.984212678244798
 31
0.0
 12
22.016467486701909
 22
17.103720636418519
 32
0.0
 13
22.016467486701909
 23
17.103720636418519
 33
0.0
  0
POLYLINE
  5
1A24
  8
DIMENSIONS
 66
     1
 10
0.0
 20
0.0
 30
0.0
  0
VERTEX
  5
1A25
  8
DIMENSIONS
 10
22.034707885227888
 20
17.09365506940064
 30
0.0
  0
VERTEX
  5
1A26
  8
DIMENSIONS
 10
22.530984359932539
 20
17.992986489239922
 30
0.0
  0
VERTEX
  5
1A27
  8
DIMENSIONS
 10
22.756323199079631
 20
17.993112695459519
 30
0.0
  0
SEQEND
  5
1A28
  8
DIMENSIONS
  0
ENDBLK
  5
1A2A
  8
0
  0
BLOCK
  8
0
  2
*U70
 70
     1
 10
0.0
 20
0.0
 30
0.0
  3
*U70
  1

  0
TEXT
  5
1A2C
  8
DIMENSIONS
 10
23.203521412809451
 20
17.61913276016698
 30
0.0
 40
0.125
  1
PIN -  0.040 [1.02] Dia.
  0
ENDBLK
  5
1A2E
  8
0
  0
BLOCK
  8
0
  2
*U71
 70
     1
 10
0.0
 20
0.0
 30
0.0
  3
*U71
  1

  0
TEXT
  5
1A30
  8
DIMENSIONS
 10
23.186076354291998
 20
17.425187847450129
 30
0.0
 40
0.125
  1
TIN PLATED BRASS, MATTE FINISH
  0
ENDBLK
  5
1A32
  8
0
  0
BLOCK
  8
0
  2
*U72
 70
     1
 10
0.0
 20
0.0
 30
0.0
  3
*U72
  1

  0
TEXT
  5
1A34
  8
DIMENSIONS
 62
     0
 10
24.948379020572059
 20
20.412334031221249
 30
0.0
 40
0.125
  1
2.575 [65.41]
  0
ENDBLK
  5
1A36
  8
0
  0
BLOCK
  8
0
  2
*U73
 70
     1
 10
0.0
 20
0.0
 30
0.0
  3
*U73
  1

  0
TEXT
  5
1A38
  8
DIMENSIONS
 62
     0
 10
16.7885169096825
 20
20.226990496711188
 30
0.0
 40
0.125
  1
2.000 [50.80]
  0
ENDBLK
  5
1A3A
  8
0
  0
BLOCK
  8
0
  2
*U74
 70
     1
 10
0.0
 20
0.0
 30
0.0
  3
*U74
  1

  0
TEXT
  5
1A3C
  8
DIMENSIONS
 10
20.57953477782068
 20
18.3977463704108
 30
0.0
 40
0.125
  1
4-40 Thread x MIN .125" [3.18] DP (4 plc)
  0
ENDBLK
  5
1A3E
  8
0
  0
BLOCK
  8
0
  2
*U75
 70
     1
 10
0.0
 20
0.0
 30
0.0
  3
*U75
  1

  0
SOLID
  5
1A40
  8
DIMENSIONS
 10
19.958239635213388
 20
18.963097231281569
 30
0.0
 11
19.916086631632069
 21
19.08260518945529
 31
0.0
 12
19.994720432265328
 22
18.983228365317331
 32
0.0
 13
19.994720432265328
 23
18.983228365317331
 33
0.0
  0
POLYLINE
  5
1A41
  8
DIMENSIONS
 66
     1
 10
0.0
 20
0.0
 30
0.0
  0
VERTEX
  5
1A42
  8
DIMENSIONS
 10
19.97648003373936
 20
18.973162798299452
 30
0.0
  0
VERTEX
  5
1A43
  8
DIMENSIONS
 10
20.273097653349549
 20
18.435644784470291
 30
0.0
  0
VERTEX
  5
1A44
  8
DIMENSIONS
 10
20.498436492496641
 20
18.43551857825069
 30
0.0
  0
SEQEND
  5
1A45
  8
DIMENSIONS
  0
ENDBLK
  5
1A47
  8
0
  0
ENDSEC
  0
SECTION
  2
ENTITIES
  0
LINE
  5
C3
  8
FRAME
 10
13.64670945225887
 20
12.6835221097257
 30
0.0
 11
30.646709452258879
 21
12.6835221097257
 31
0.0
  0
TEXT
  5
C4
  8
FRAME_TEXT
 10
28.697352482513882
 20
13.94952683626645
 30
0.0
 40
0.125
  1
American Power Design
 72
     1
 11
29.6045713001058
 21
14.01202683626645
 31
0.0
 73
     2
  0
LINE
  5
C5
  8
FRAME
 10
26.454538981841409
 20
14.218683127061681
 30
0.0
 11
26.454538981841409
 21
12.6835221097257
 31
0.0
  0
LINE
  5
C6
  8
FRAME
 10
27.61771867574598
 20
14.218683127061681
 30
0.0
 11
27.617718675745969
 21
13.39205796388077
 31
0.0
  0
LINE
  5
C7
  8
FRAME
 10
28.562433147952731
 20
14.218683127061681
 30
0.0
 11
28.562433147952731
 21
12.6835221097257
 31
0.0
  0
TEXT
  5
C8
  8
FRAME
 10
26.887472363127781
 20
14.088972929133609
 30
0.0
 40
0.0354267927077533
  1
SPECIFIED
 72
     1
 11
27.016817192451551
 21
14.088972929133609
 31
0.0
  0
TEXT
  5
C9
  8
FRAME_TEXT
 10
28.630759191880859
 20
12.888763681425139
 30
0.0
 40
0.09
  1
1:1
  0
LINE
  5
CA
  8
FRAME
 10
28.562433147952731
 20
13.80537054547122
 30
0.0
 11
30.646709452258879
 21
13.80537054547122
 31
0.0
  0
LINE
  5
CB
  8
FRAME
 10
28.562433147952731
 20
13.114548087670039
 30
0.0
 11
30.646709452258879
 21
13.114548087670039
 31
0.0
  0
LINE
  5
CC
  8
FRAME
 10
28.562433147952731
 20
12.82231545483428
 30
0.0
 11
30.646709452258879
 21
12.82231545483428
 31
0.0
  0
TEXT
  5
CD
  8
FRAME
 10
28.6032962195887
 20
13.739427536150689
 30
0.0
 40
0.0354267927077533
  1
TITLE
  0
TEXT
  5
CE
  8
FRAME
 10
28.594450260706221
 20
13.0499966485282
 30
0.0
 40
0.0354267927077533
  1
SCALE
  0
TEXT
  5
CF
  8
FRAME
 10
28.629053570452399
 20
12.733227845812889
 30
0.0
 40
0.0354267927077533
  1
SHEET       OF       
  0
LINE
  5
D0
  8
FRAME
 10
26.454538981841409
 20
13.39205796388077
 30
0.0
 11
28.562433147952731
 21
13.39205796388077
 31
0.0
  0
LINE
  5
D1
  8
FRAME
 10
26.454538981841409
 20
13.037790036803241
 30
0.0
 11
28.562433147952731
 21
13.037790036803241
 31
0.0
  0
TEXT
  5
D4
  8
FRAME
 10
26.568275042057319
 20
13.98802240839653
 30
0.0
 40
0.0354267927077533
  1
DIMENSIONS IN INCHES [MM]
  0
TEXT
  5
D5
  8
FRAME
 10
26.568275042057319
 20
13.806041506803011
 30
0.0
 40
0.0354267927077533
  1
TOLERANCES
  0
TEXT
  5
D6
  8
FRAME
 10
26.537574361229868
 20
13.67086645534965
 30
0.0
 40
0.0354267927077533
  1
FRAC =                            .XX =
  0
TEXT
  5
D7
  8
FRAME
 10
26.539395588058621
 20
13.514870802896819
 30
0.0
 40
0.0354267927077533
  1
.XXX =                       ANGLE =
  0
TEXT
  5
D8
  8
FRAME
 10
26.48890724986861
 20
13.325860394772301
 30
0.0
 40
0.0354267927077533
  1
MATERIAL
  0
TEXT
  5
D9
  8
FRAME
 10
26.48890724986861
 20
12.97660820187318
 30
0.0
 40
0.0354267927077533
  1
FINISH
  0
LINE
  5
DA
  8
FRAME
 10
27.617718675745969
 20
13.52490843653484
 30
0.0
 11
28.562433147952731
 21
13.52490843653484
 31
0.0
  0
LINE
  5
DB
  8
FRAME
 10
27.617718675745969
 20
13.657758909188921
 30
0.0
 11
28.562433147952731
 21
13.657758909188921
 31
0.0
  0
LINE
  5
DC
  8
FRAME
 10
27.617718675745969
 20
13.790609381842989
 30
0.0
 11
28.562433147952731
 21
13.790609381842989
 31
0.0
  0
LINE
  5
DD
  8
FRAME
 10
27.61771867574598
 20
13.92345985449707
 30
0.0
 11
28.562433147952731
 21
13.92345985449707
 31
0.0
  0
LINE
  5
DE
  8
FRAME
 10
27.61771867574598
 20
14.05631032715114
 30
0.0
 11
28.562433147952731
 21
14.05631032715114
 31
0.0
  0
TEXT
  5
DF
  8
FRAME
 10
27.638586979149011
 20
13.835291201321199
 30
0.0
 40
0.0354267927077533
  1
DWN
  0
TEXT
  5
E0
  8
FRAME
 10
27.642702163862321
 20
13.70275125041884
 30
0.0
 40
0.0354267927077533
  1
CHK
  0
TEXT
  5
E1
  8
FRAME
 10
27.642702163862321
 20
13.57460835949901
 30
0.0
 40
0.0354267927077533
  1
CH DR
  0
TEXT
  5
E2
  8
FRAME
 10
27.64733174666479
 20
13.469707071344059
 30
0.0
 40
0.0354267927077533
  1
COG
  0
TEXT
  5
E3
  8
FRAME
 10
27.64733174666479
 20
13.410662416831141
 30
0.0
 40
0.0354267927077533
  1
ENG
  0
TEXT
  5
E4
  8
FRAME
 10
27.856691768954331
 20
13.96280594081494
 30
0.0
 40
0.0531401890616299
  1
APPROVAL
  0
TEXT
  5
E5
  8
FRAME
 10
28.410184112894239
 20
13.44239314619367
 30
0.0
 40
0.0354267927077533
  1
DATE
  0
TEXT
  5
E6
  8
FRAME
 10
28.410184112894239
 20
13.70809409150182
 30
0.0
 40
0.0354267927077533
  1
DATE
  0
TEXT
  5
E7
  8
FRAME
 10
28.410184112894239
 20
13.57524361884775
 30
0.0
 40
0.0354267927077533
  1
DATE
  0
TEXT
  5
E8
  8
FRAME
 10
28.410184112894239
 20
13.840944564155899
 30
0.0
 40
0.0354267927077533
  1
DATE
  0
TEXT
  5
EA
  8
FRAME_TEXT
 10
28.812872605647971
 20
12.71577592790155
 30
0.0
 40
0.1
  1
1  1
  0
LINE
  5
EB
  8
FRAME
 10
28.857656420517351
 20
13.114548087670039
 30
0.0
 11
28.857656420517351
 21
12.82231545483428
 31
0.0
  0
TEXT
  5
EC
  8
FRAME_TEXT
 10
28.93293827559188
 20
12.84907746336148
 30
0.0
 40
0.1476116362823053
  1
B
  0
TEXT
  5
ED
  8
FRAME
 10
29.158510227095238
 20
13.05031435861466
 30
0.0
 40
0.0354267927077533
  1
FILE
  0
LINE
  5
EE
  8
FRAME
 10
29.123357365825498
 20
13.114548087670039
 30
0.0
 11
29.123357365825491
 21
12.82231545483428
 31
0.0
  0
LINE
  5
EF
  8
FRAME
 10
29.701994980052131
 20
12.82231545483428
 30
0.0
 11
29.701994980052131
 21
12.6835221097257
 31
0.0
  0
TEXT
  5
F0
  8
FRAME
 10
29.86202413351403
 20
12.733227845812889
 30
0.0
 40
0.0354267927077533
  1
DO NOT SCALE PRINT
  0
TEXT
  5
F1
  8
FRAME
 10
30.39096043963437
 20
13.0499966485282
 30
0.0
 40
0.0354267927077533
  1
REV.
  0
LINE
  5
F2
  8
FRAME
 10
30.35148617969428
 20
13.114548087670039
 30
0.0
 11
30.35148617969428
 21
12.82231545483428
 31
0.0
  0
LINE
  5
F3
  8
FRAME
 10
26.45453898184142
 20
14.218683127061681
 30
0.0
 11
30.646709452258879
 21
14.218683127061681
 31
0.0
  0
TEXT
  5
F4
  8
FRAME
 10
27.642702163862321
 20
14.13491943156019
 30
0.0
 40
0.0531401890616299
  1
STANDARD
  0
TEXT
  5
F5
  8
FRAME
 10
26.782217183190891
 20
14.15092639599369
 30
0.0
 40
0.0354267927077533
  1
UNLESS OTHERWISE
 72
     1
 11
27.03867191439651
 21
14.15092639599369
 31
0.0
  0
TEXT
  5
F6
  8
FRAME_TEXT
 10
26.757202096569451
 20
13.50446367242704
 30
0.0
 40
0.05
  1
%%p.005
  0
TEXT
  5
F7
  8
FRAME_TEXT
 10
30.459840987620218
 20
12.887976862917579
 30
0.0
 40
0.12
  1
-
  0
LINE
  5
F8
  8
0
 10
30.646709452258879
 20
12.6835221097257
 30
0.0
 11
30.646709452258879
 21
23.683522109725711
 31
0.0
  0
LINE
  5
F9
  8
0
 10
30.646709452258879
 20
23.683522109725711
 30
0.0
 11
13.64670945225887
 21
23.683522109725711
 31
0.0
  0
LINE
  5
FA
  8
0
 10
13.64670945225887
 20
23.683522109725711
 30
0.0
 11
13.64670945225887
 21
12.6835221097257
 31
0.0
  0
TEXT
  5
126
  8
FRAME_TEXT
 10
28.981644119139691
 20
13.397459316570631
 30
0.0
 40
0.125
  1
H50 Dimensions
 72
     1
 11
29.6045713001058
 21
13.459959316570631
 31
0.0
 73
     2
  0
TEXT
  5
4C9
  8
FRAME_TEXT
 10
27.290374541847552
 20
13.665881946633879
 30
0.0
 40
0.05
  1
%%p.05
  0
TEXT
  5
4D0
  8
FRAME_TEXT
 10
26.771739143223179
 20
13.66141386644885
 30
0.0
 40
0.05
  1
%%p1/64
  0
TEXT
  5
4D9
  8
FRAME_TEXT
 10
27.359125217827842
 20
13.505978030148629
 30
0.0
 40
0.05
  1
%%p1°0
  0
TEXT
  5
4DB
  8
FRAME
 10
28.887688288179579
 20
13.0499966485282
 30
0.0
 40
0.0354267927077533
  1
SIZE
  0
TEXT
  5
5DF
  8
FRAME_TEXT
 10
29.389426745133559
 20
12.90798911704344
 30
0.0
 40
0.1
  1
h50_cadd
  0
TEXT
  5
5E6
  8
FRAME_TEXT
 10
27.810685378734579
 20
13.833699792690499
 30
0.0
 40
0.05
  1
CDL    11/95
  0
TEXT
  5
5EC
  8
FRAME_TEXT
 10
27.810685378734579
 20
13.69941576351696
 30
0.0
 40
0.05
  1
NJN    11/95
  0
INSERT
  5
938
  8
DIMENSIONS
  2
*U21
 10
0.0
 20
0.0
 30
0.0
  0
INSERT
  5
939
  8
DIMENSIONS
  2
*U22
 10
0.0
 20
0.0
 30
0.0
  0
INSERT
  5
93A
  8
DIMENSIONS
  2
*U23
 10
0.0
 20
0.0
 30
0.0
  0
INSERT
  5
93B
  8
DIMENSIONS
  2
*U24
 10
0.0
 20
0.0
 30
0.0
  0
INSERT
  5
93C
  8
DIMENSIONS
  2
*U25
 10
0.0
 20
0.0
 30
0.0
  0
INSERT
  5
93D
  8
DIMENSIONS
  2
*U26
 10
0.0
 20
0.0
 30
0.0
  0
LINE
  5
93E
  8
GRID
 10
20.528828921345781
 20
15.62988816324355
 30
0.0
 11
20.528828921345781
 21
12.826004007290139
 31
0.0
  0
INSERT
  5
93F
  8
DIMENSIONS
  2
*U27
 10
0.0
 20
0.0
 30
0.0
  0
INSERT
  5
940
  8
DIMENSIONS
  2
*U28
 10
0.0
 20
0.0
 30
0.0
  0
LINE
  5
941
  8
GRID
 10
20.528828921345781
 20
13.526975046278491
 30
0.0
 11
16.799009804807909
 21
13.526975046278491
 31
0.0
  0
INSERT
  5
942
  8
DIMENSIONS
  2
*U29
 10
0.0
 20
0.0
 30
0.0
  0
INSERT
  5
943
  8
DIMENSIONS
  2
*U30
 10
0.0
 20
0.0
 30
0.0
  0
INSERT
  5
944
  8
DIMENSIONS
  2
*U31
 10
0.0
 20
0.0
 30
0.0
  0
INSERT
  5
945
  8
DIMENSIONS
  2
*U32
 10
0.0
 20
0.0
 30
0.0
  0
INSERT
  5
946
  8
DIMENSIONS
  2
*U33
 10
0.0
 20
0.0
 30
0.0
  0
INSERT
  5
947
  8
DIMENSIONS
  2
*U34
 10
0.0
 20
0.0
 30
0.0
  0
INSERT
  5
948
  8
DIMENSIONS
  2
*U35
 10
0.0
 20
0.0
 30
0.0
  0
INSERT
  5
949
  8
DIMENSIONS
  2
*U36
 10
0.0
 20
0.0
 30
0.0
  0
LINE
  5
94A
  8
GRID
 10
20.528828921345781
 20
13.877460565772671
 30
0.0
 11
16.799009804807909
 21
13.877460565772671
 31
0.0
  0
LINE
  5
94B
  8
GRID
 10
20.528828921345781
 20
14.22794608526684
 30
0.0
 11
16.799009804807909
 21
14.22794608526684
 31
0.0
  0
LINE
  5
94C
  8
GRID
 10
20.528828921345781
 20
14.57843160476102
 30
0.0
 11
16.799009804807909
 21
14.57843160476102
 31
0.0
  0
LINE
  5
94D
  8
GRID
 10
20.528828921345781
 20
14.9289171242552
 30
0.0
 11
16.799009804807909
 21
14.9289171242552
 31
0.0
  0
INSERT
  5
94E
  8
DIMENSIONS
  2
*U37
 10
0.0
 20
0.0
 30
0.0
  0
LINE
  5
94F
  8
GRID
 10
17.55620845136874
 20
15.62988816324355
 30
0.0
 11
17.55620845136875
 21
12.82600400729013
 31
0.0
  0
LINE
  5
950
  8
GRID
 10
20.528828921345781
 20
15.27940264374938
 30
0.0
 11
16.799009804807909
 21
15.27940264374938
 31
0.0
  0
INSERT
  5
951
  8
DIMENSIONS
  2
*U38
 10
0.0
 20
0.0
 30
0.0
  0
LINE
  5
952
  8
GRID
 10
16.799009804807909
 20
15.62988816324355
 30
0.0
 11
16.79900980480792
 21
12.82600400729013
 31
0.0
  0
LINE
  5
953
  8
GRID
 10
19.042518686357258
 20
15.62988816324355
 30
0.0
 11
19.042518686357269
 21
12.826004007290139
 31
0.0
  0
LINE
  5
954
  8
GRID
 10
16.799009804807909
 20
15.62988816324355
 30
0.0
 11
20.528828921345781
 21
15.62988816324355
 31
0.0
  0
LINE
  5
9EA
  8
GRID
 10
20.528828921345781
 20
12.82600400729013
 30
0.0
 11
16.799009804807909
 21
12.82600400729013
 31
0.0
  0
LINE
  5
9EB
  8
GRID
 10
20.528828921345781
 20
13.176489526784311
 30
0.0
 11
16.799009804807909
 21
13.176489526784311
 31
0.0
  0
INSERT
  5
9EC
  8
DIMENSIONS
  2
*U39
 10
0.0
 20
0.0
 30
0.0
  0
INSERT
  5
9ED
  8
DIMENSIONS
  2
*U40
 10
0.0
 20
0.0
 30
0.0
  0
INSERT
  5
A00
  8
DIMENSIONS
  2
*U41
 10
0.0
 20
0.0
 30
0.0
  0
INSERT
  5
A01
  8
DIMENSIONS
  2
*U42
 10
0.0
 20
0.0
 30
0.0
  0
INSERT
  5
A02
  8
DIMENSIONS
  2
*U43
 10
0.0
 20
0.0
 30
0.0
  0
INSERT
  5
A03
  8
DIMENSIONS
  2
*U44
 10
0.0
 20
0.0
 30
0.0
  0
ARC
  5
15B6
  8
CONVERTER
 10
19.699850590367699
 20
16.2442126782448
 30
0.0
 40
0.1
 50
180.0
 51
270.0
  0
ARC
  5
15B7
  8
CONVERTER
 10
24.059850590367709
 20
16.244212678244789
 30
0.0
 40
0.1
 50
270.0
 51
0.0
  0
LINE
  5
15B8
  8
CONVERTER
 10
19.599850590367708
 20
16.254212678244802
 30
0.0
 11
19.599850590367708
 21
16.95321267824481
 31
0.0
  0
LINE
  5
15B9
  8
CONVERTER
 10
24.167350590367711
 20
16.984212678244791
 30
0.0
 11
19.592350590367712
 21
16.984212678244798
 31
0.0
  0
LINE
  5
15BA
  8
CONVERTER
 10
24.159850590367711
 20
16.254212678244802
 30
0.0
 11
24.159850590367711
 21
16.9532126782448
 31
0.0
  0
LINE
  5
15BB
  8
CONVERTER
 10
24.059850590367709
 20
16.144212678244791
 30
0.0
 11
19.699850590367699
 21
16.144212678244799
 31
0.0
  0
DIMENSION
  5
15BC
  8
DIMENSIONS
  2
*D5
 10
25.442656237587201
 20
18.860770624148788
 30
0.0
 11
25.442656237587201
 21
20.456494088899689
 31
0.0
 70
   128
 13
24.167350590367711
 23
21.435770624148791
 33
0.0
 14
24.167350590367711
 24
18.860770624148788
 34
0.0
 50
90.0
  0
DIMENSION
  5
15BD
  8
DIMENSIONS
  2
*D6
 10
19.879850590367699
 20
21.918910124233651
 30
0.0
 11
18.656205350416279
 21
21.918910124233651
 31
0.0
 70
   128
 13
19.592350590367712
 23
21.435770624148791
 33
0.0
 14
19.879850590367699
 24
21.14827062414879
 34
0.0
  0
DIMENSION
  5
15BE
  8
DIMENSIONS
  2
*D7
 10
19.05533605486411
 20
19.1482706241488
 30
0.0
 11
18.914202160348001
 21
18.183745557078559
 31
0.0
 70
   128
 13
19.592350590367712
 23
18.860770624148788
 33
0.0
 14
19.879850590367699
 24
19.1482706241488
 34
0.0
 50
270.0
1001
ACAD
1000
DSTYLE
1002
{
1070
   287
1070
     4
1070
   279
1070
     1
1002
}
  0
LINE
  5
15BF
  8
CONVERTER
 10
23.80485059036771
 20
19.14827062414879
 30
0.0
 11
23.954850590367698
 21
19.14827062414879
 31
0.0
  0
LINE
  5
15C0
  8
CONVERTER
 10
23.87985059036771
 20
19.223270624148789
 30
0.0
 11
23.87985059036771
 21
19.07327062414879
 31
0.0
  0
LINE
  5
15C1
  8
CONVERTER
 10
23.87985059036771
 20
21.2232706241488
 30
0.0
 11
23.87985059036771
 21
21.073270624148801
 31
0.0
  0
LINE
  5
15C2
  8
CONVERTER
 10
23.80485059036771
 20
21.14827062414879
 30
0.0
 11
23.954850590367698
 21
21.14827062414879
 31
0.0
  0
LINE
  5
15C3
  8
CONVERTER
 10
19.80485059036771
 20
19.14827062414879
 30
0.0
 11
19.954850590367698
 21
19.14827062414879
 31
0.0
  0
LINE
  5
15C4
  8
CONVERTER
 10
19.879850590367699
 20
19.223270624148789
 30
0.0
 11
19.879850590367699
 21
19.07327062414879
 31
0.0
  0
LINE
  5
15C5
  8
CONVERTER
 10
19.879850590367699
 20
21.2232706241488
 30
0.0
 11
19.879850590367699
 21
21.073270624148801
 31
0.0
  0
LINE
  5
15C6
  8
CONVERTER
 10
19.80485059036771
 20
21.14827062414879
 30
0.0
 11
19.954850590367709
 21
21.14827062414879
 31
0.0
  0
CIRCLE
  5
15C7
  8
CONVERTER
 10
23.87985059036771
 20
21.14827062414879
 30
0.0
 40
0.075
  0
CIRCLE
  5
15C8
  8
CONVERTER
 10
23.87985059036771
 20
19.14827062414879
 30
0.0
 40
0.075
  0
CIRCLE
  5
15C9
  8
CONVERTER
 10
19.879850590367699
 20
19.14827062414879
 30
0.0
 40
0.075
  0
CIRCLE
  5
15CA
  8
CONVERTER
 10
19.879850590367699
 20
21.14827062414879
 30
0.0
 40
0.075
  0
CIRCLE
  5
15CB
  8
CONVERTER
 10
22.67985059036771
 20
20.8982706241488
 30
0.0
 40
0.02
  0
CIRCLE
  5
15CC
  8
CONVERTER
 10
22.67985059036771
 20
20.39827062414879
 30
0.0
 40
0.02
  0
CIRCLE
  5
15CD
  8
CONVERTER
 10
22.67985059036771
 20
19.89827062414879
 30
0.0
 40
0.02
  0
CIRCLE
  5
15CE
  8
CONVERTER
 10
22.67985059036771
 20
19.39827062414879
 30
0.0
 40
0.02
  0
CIRCLE
  5
15CF
  8
CONVERTER
 10
21.079850590367709
 20
19.39827062414879
 30
0.0
 40
0.02
  0
CIRCLE
  5
15D0
  8
CONVERTER
 10
21.079850590367709
 20
19.89827062414879
 30
0.0
 40
0.02
  0
CIRCLE
  5
15D1
  8
CONVERTER
 10
21.079850590367709
 20
20.39827062414879
 30
0.0
 40
0.02
  0
LINE
  5
15D2
  8
CONVERTER
 10
19.592350590367712
 20
18.910770624148789
 30
0.0
 11
19.592350590367712
 21
21.385770624148801
 31
0.0
  0
ARC
  5
15D3
  8
CONVERTER
 10
19.642350590367709
 20
18.910770624148789
 30
0.0
 40
0.05
 50
180.0
 51
270.0
  0
LINE
  5
15D4
  8
CONVERTER
 10
24.11735059036771
 20
18.860770624148788
 30
0.0
 11
19.642350590367709
 21
18.860770624148788
 31
0.0
  0
ARC
  5
15D5
  8
CONVERTER
 10
24.11735059036771
 20
18.910770624148789
 30
0.0
 40
0.05
 50
270.0
 51
0.0
  0
LINE
  5
15D6
  8
CONVERTER
 10
24.167350590367711
 20
21.385770624148801
 30
0.0
 11
24.167350590367711
 21
18.910770624148789
 31
0.0
  0
ARC
  5
15D7
  8
CONVERTER
 10
24.11735059036771
 20
21.385770624148801
 30
0.0
 40
0.05
 50
0.0
 51
90.0
  0
LINE
  5
15D8
  8
CONVERTER
 10
19.642350590367709
 20
21.435770624148791
 30
0.0
 11
24.11735059036771
 21
21.435770624148791
 31
0.0
  0
ARC
  5
15D9
  8
CONVERTER
 10
19.642350590367709
 20
21.385770624148801
 30
0.0
 40
0.05
 50
90.0
 51
180.0
  0
LINE
  5
15DA
  8
CONVERTER
 10
21.059850590367709
 20
17.234212678244798
 30
0.0
 11
21.059850590367709
 21
16.984212678244798
 31
0.0
  0
LINE
  5
15DB
  8
CONVERTER
 10
21.099850590367708
 20
17.234212678244798
 30
0.0
 11
21.099850590367708
 21
16.984212678244798
 31
0.0
  0
LINE
  5
15DC
  8
CONVERTER
 10
22.659850590367711
 20
17.234212678244798
 30
0.0
 11
22.659850590367711
 21
16.984212678244798
 31
0.0
  0
LINE
  5
15DD
  8
CONVERTER
 10
22.69985059036771
 20
17.234212678244798
 30
0.0
 11
22.69985059036771
 21
16.984212678244798
 31
0.0
  0
LINE
  5
15DE
  8
CONVERTER
 10
22.69985059036771
 20
17.234212678244798
 30
0.0
 11
22.659850590367711
 21
17.234212678244798
 31
0.0
  0
LINE
  5
15DF
  8
CONVERTER
 10
21.099850590367708
 20
17.234212678244798
 30
0.0
 11
21.059850590367709
 21
17.234212678244798
 31
0.0
  0
LINE
  5
15E0
  8
CONVERTER
 10
14.95588964430506
 20
16.95321267824481
 30
0.0
 11
14.95588964430506
 21
16.254212678244802
 31
0.0
  0
LINE
  5
15E1
  8
CONVERTER
 10
15.05588964430506
 20
16.144212678244799
 30
0.0
 11
17.415889644305061
 21
16.144212678244799
 31
0.0
  0
LINE
  5
15E2
  8
CONVERTER
 10
17.515889644305059
 20
16.254212678244802
 30
0.0
 11
17.515889644305059
 21
16.9532126782448
 31
0.0
  0
LINE
  5
15E3
  8
CONVERTER
 10
14.94838964430506
 20
16.984212678244798
 30
0.0
 11
17.523389644305059
 21
16.984212678244798
 31
0.0
  0
ARC
  5
15E4
  8
CONVERTER
 10
15.05588964430506
 20
16.2442126782448
 30
0.0
 40
0.1
 50
180.0
 51
270.0
  0
ARC
  5
15E5
  8
CONVERTER
 10
17.415889644305061
 20
16.2442126782448
 30
0.0
 40
0.1
 50
270.0
 51
0.0
  0
LINE
  5
15E6
  8
CONVERTER
 10
15.505889644305061
 20
17.234212678244798
 30
0.0
 11
15.46588964430506
 21
17.234212678244798
 31
0.0
  0
LINE
  5
15E7
  8
CONVERTER
 10
15.505889644305061
 20
17.234212678244798
 30
0.0
 11
15.505889644305061
 21
16.984212678244798
 31
0.0
  0
LINE
  5
15E8
  8
CONVERTER
 10
15.46588964430506
 20
17.234212678244798
 30
0.0
 11
15.46588964430506
 21
16.984212678244798
 31
0.0
  0
LINE
  5
15E9
  8
CONVERTER
 10
15.96588964430506
 20
17.234212678244798
 30
0.0
 11
15.96588964430506
 21
16.984212678244798
 31
0.0
  0
LINE
  5
15EA
  8
CONVERTER
 10
16.005889644305061
 20
17.234212678244798
 30
0.0
 11
16.005889644305061
 21
16.984212678244798
 31
0.0
  0
LINE
  5
15EB
  8
CONVERTER
 10
16.005889644305061
 20
17.234212678244798
 30
0.0
 11
15.96588964430506
 21
17.234212678244798
 31
0.0
  0
LINE
  5
15EC
  8
CONVERTER
 10
16.505889644305061
 20
17.234212678244798
 30
0.0
 11
16.465889644305062
 21
17.234212678244798
 31
0.0
  0
LINE
  5
15ED
  8
CONVERTER
 10
16.505889644305061
 20
17.234212678244798
 30
0.0
 11
16.505889644305061
 21
16.984212678244798
 31
0.0
  0
LINE
  5
15EE
  8
CONVERTER
 10
16.465889644305062
 20
17.234212678244798
 30
0.0
 11
16.465889644305062
 21
16.984212678244798
 31
0.0
  0
LINE
  5
15EF
  8
CONVERTER
 10
17.005889644305061
 20
17.234212678244798
 30
0.0
 11
16.965889644305062
 21
17.234212678244798
 31
0.0
  0
LINE
  5
15F0
  8
CONVERTER
 10
17.005889644305061
 20
17.234212678244798
 30
0.0
 11
17.005889644305061
 21
16.984212678244798
 31
0.0
  0
LINE
  5
15F1
  8
CONVERTER
 10
16.965889644305062
 20
17.234212678244798
 30
0.0
 11
16.965889644305062
 21
16.984212678244798
 31
0.0
  0
DIMENSION
  5
15F6
  8
DIMENSIONS
  2
*D8
 10
25.123525684515268
 20
16.144212678244791
 30
0.0
 11
25.123525684515268
 21
16.573656164746119
 31
0.0
 70
   128
 13
24.167350590367711
 23
16.984212678244791
 33
0.0
 14
24.059850590367709
 24
16.144212678244791
 34
0.0
 50
90.0
  0
DIMENSION
  5
15F9
  8
DIMENSIONS
  2
*D9
 10
18.809367647950701
 20
17.234212678244798
 30
0.0
 11
19.467184879385449
 21
17.484212678244798
 31
0.0
 70
   128
 13
19.592350590367712
 23
16.984212678244798
 33
0.0
 14
21.059850590367709
 24
17.234212678244798
 34
0.0
 50
90.0
  0
INSERT
  5
15FC
  8
DIMENSIONS
  2
*U45
 10
0.0
 20
0.0
 30
0.0
  0
LINE
  5
15FD
  8
CONVERTER
 10
26.793811536430361
 20
17.234212678244798
 30
0.0
 11
26.793811536430351
 21
16.984212678244798
 31
0.0
  0
LINE
  5
15FE
  8
CONVERTER
 10
26.753811536430359
 20
17.234212678244798
 30
0.0
 11
26.753811536430359
 21
16.984212678244798
 31
0.0
  0
LINE
  5
15FF
  8
CONVERTER
 10
26.753811536430359
 20
17.234212678244798
 30
0.0
 11
26.793811536430351
 21
17.234212678244798
 31
0.0
  0
LINE
  5
1600
  8
CONVERTER
 10
27.293811536430361
 20
17.234212678244798
 30
0.0
 11
27.293811536430361
 21
16.984212678244798
 31
0.0
  0
LINE
  5
1601
  8
CONVERTER
 10
27.253811536430359
 20
17.234212678244798
 30
0.0
 11
27.253811536430359
 21
16.984212678244798
 31
0.0
  0
LINE
  5
1602
  8
CONVERTER
 10
27.253811536430359
 20
17.234212678244798
 30
0.0
 11
27.293811536430361
 21
17.234212678244798
 31
0.0
  0
LINE
  5
1603
  8
CONVERTER
 10
27.753811536430351
 20
17.234212678244798
 30
0.0
 11
27.793811536430351
 21
17.234212678244798
 31
0.0
  0
LINE
  5
1604
  8
CONVERTER
 10
27.753811536430351
 20
17.234212678244798
 30
0.0
 11
27.753811536430351
 21
16.984212678244798
 31
0.0
  0
LINE
  5
1605
  8
CONVERTER
 10
27.793811536430361
 20
17.234212678244798
 30
0.0
 11
27.793811536430351
 21
16.984212678244798
 31
0.0
  0
LINE
  5
1606
  8
CONVERTER
 10
28.293811536430361
 20
17.234212678244798
 30
0.0
 11
28.293811536430361
 21
16.984212678244798
 31
0.0
  0
LINE
  5
1607
  8
CONVERTER
 10
28.253811536430359
 20
17.234212678244798
 30
0.0
 11
28.253811536430359
 21
16.984212678244798
 31
0.0
  0
LINE
  5
1608
  8
CONVERTER
 10
28.253811536430359
 20
17.234212678244798
 30
0.0
 11
28.293811536430361
 21
17.234212678244798
 31
0.0
  0
ARC
  5
1609
  8
CONVERTER
 10
26.343811536430351
 20
16.2442126782448
 30
0.0
 40
0.1
 50
180.0
 51
270.0
  0
ARC
  5
160A
  8
CONVERTER
 10
28.703811536430361
 20
16.2442126782448
 30
0.0
 40
0.1
 50
270.0
 51
0.0
  0
LINE
  5
160B
  8
CONVERTER
 10
28.811311536430349
 20
16.984212678244798
 30
0.0
 11
26.23631153643036
 21
16.984212678244798
 31
0.0
  0
LINE
  5
160C
  8
CONVERTER
 10
26.243811536430361
 20
16.254212678244802
 30
0.0
 11
26.243811536430361
 21
16.953212678244789
 31
0.0
  0
LINE
  5
160D
  8
CONVERTER
 10
28.703811536430361
 20
16.144212678244799
 30
0.0
 11
26.343811536430351
 21
16.144212678244799
 31
0.0
  0
LINE
  5
160E
  8
CONVERTER
 10
28.803811536430349
 20
16.953212678244789
 30
0.0
 11
28.803811536430349
 21
16.254212678244802
 31
0.0
  0
INSERT
  5
160F
  8
DIMENSIONS
  2
*U46
 10
0.0
 20
0.0
 30
0.0
  0
INSERT
  5
1610
  8
DIMENSIONS
  2
*U47
 10
0.0
 20
0.0
 30
0.0
  0
INSERT
  5
1611
  8
DIMENSIONS
  2
*U48
 10
0.0
 20
0.0
 30
0.0
  0
INSERT
  5
1612
  8
DIMENSIONS
  2
*U49
 10
0.0
 20
0.0
 30
0.0
  0
INSERT
  5
1613
  8
DIMENSIONS
  2
*U50
 10
0.0
 20
0.0
 30
0.0
  0
INSERT
  5
1614
  8
DIMENSIONS
  2
*U51
 10
0.0
 20
0.0
 30
0.0
  0
INSERT
  5
1615
  8
DIMENSIONS
  2
*U52
 10
0.0
 20
0.0
 30
0.0
  0
LINE
  5
1616
  8
CONVERTER
 10
14.94838964430506
 20
16.984212678244798
 30
0.0
 11
14.94838964430506
 21
16.95321267824481
 31
0.0
  0
LINE
  5
1617
  8
CONVERTER
 10
14.94838964430506
 20
16.95321267824481
 30
0.0
 11
17.523389644305059
 21
16.9532126782448
 31
0.0
  0
LINE
  5
1618
  8
CONVERTER
 10
17.523389644305059
 20
16.984212678244798
 30
0.0
 11
17.523389644305059
 21
16.9532126782448
 31
0.0
  0
LINE
  5
1619
  8
CONVERTER
 10
28.811311536430349
 20
16.953212678244789
 30
0.0
 11
26.23631153643036
 21
16.953212678244789
 31
0.0
  0
LINE
  5
161A
  8
CONVERTER
 10
26.23631153643036
 20
16.984212678244798
 30
0.0
 11
26.23631153643036
 21
16.953212678244789
 31
0.0
  0
LINE
  5
161B
  8
CONVERTER
 10
28.811311536430349
 20
16.984212678244798
 30
0.0
 11
28.811311536430349
 21
16.953212678244789
 31
0.0
  0
LINE
  5
161C
  8
CONVERTER
 10
19.592350590367712
 20
16.95321267824481
 30
0.0
 11
24.167350590367711
 21
16.9532126782448
 31
0.0
  0
LINE
  5
161D
  8
CONVERTER
 10
19.592350590367712
 20
16.984212678244798
 30
0.0
 11
19.592350590367712
 21
16.95321267824481
 31
0.0
  0
LINE
  5
161E
  8
CONVERTER
 10
24.167350590367711
 20
16.984212678244791
 30
0.0
 11
24.167350590367711
 21
16.9532126782448
 31
0.0
  0
DIMENSION
  5
161F
  8
DIMENSIONS
  2
*D10
 10
21.079850590367709
 20
22.304525171668399
 30
0.0
 11
20.479850590367711
 21
22.304525171668399
 31
0.0
 70
   128
 13
19.879850590367699
 23
21.14827062414879
 33
0.0
 14
21.079850590367709
 24
20.39827062414879
 34
0.0
  0
DIMENSION
  5
1622
  8
DIMENSIONS
  2
*D11
 10
23.87985059036771
 20
22.707319026674458
 30
0.0
 11
21.79303687524315
 21
22.707319026674458
 31
0.0
 70
   128
 13
19.87985059036771
 23
21.14827062414879
 33
0.0
 14
23.87985059036771
 24
21.14827062414879
 34
0.0
  0
LINE
  5
1625
  8
DIMENSIONS
 10
21.22546007399373
 20
19.39827062414879
 30
0.0
 11
22.503098116635559
 21
19.39827062414879
 31
0.0
  0
LINE
  5
1626
  8
DIMENSIONS
 10
21.22546007399373
 20
19.89827062414879
 30
0.0
 11
22.503098116635559
 21
19.89827062414879
 31
0.0
  0
LINE
  5
1627
  8
DIMENSIONS
 10
21.22546007399373
 20
20.39827062414879
 30
0.0
 11
22.503098116635559
 21
20.39827062414879
 31
0.0
  0
DIMENSION
  5
1628
  8
DIMENSIONS
  2
*D12
 10
17.54491618774022
 20
19.39827062414879
 30
0.0
 11
16.887098956305469
 21
18.516823575567919
 31
0.0
 70
   128
 13
19.879850590367699
 23
19.14827062414879
 33
0.0
 14
21.079850590367709
 24
19.39827062414879
 34
0.0
 50
90.0
  0
DIMENSION
  5
162B
  8
DIMENSIONS
  2
*D13
 10
24.80253279057878
 20
20.89827062414879
 30
0.0
 11
24.80253279057878
 21
20.113416489282681
 31
0.0
 70
   128
 13
22.67985059036771
 23
19.39827062414879
 33
0.0
 14
22.67985059036771
 24
20.8982706241488
 34
0.0
 50
90.0
  0
DIMENSION
  5
162E
  8
DIMENSIONS
  2
*D14
 10
18.57632764138161
 20
19.89827062414879
 30
0.0
 11
18.57632764138161
 21
19.64827062414879
 31
0.0
 70
   128
 13
21.079850590367709
 23
19.39827062414879
 33
0.0
 14
21.079850590367709
 24
19.89827062414879
 34
0.0
 50
90.0
  0
DIMENSION
  5
1631
  8
DIMENSIONS
  2
*D15
 10
17.963851008096341
 20
20.39827062414879
 30
0.0
 11
17.963851008096341
 21
20.027098176662051
 31
0.0
 70
   128
 13
21.079850590367709
 23
19.39827062414879
 33
0.0
 14
21.079850590367709
 24
20.39827062414879
 34
0.0
 50
90.0
  0
DIMENSION
  5
1634
  8
DIMENSIONS
  2
*D16
 10
17.282794126697649
 20
21.14827062414879
 30
0.0
 11
17.282794126697642
 21
20.271150554389632
 31
0.0
 70
   128
 13
19.879850590367699
 23
19.14827062414879
 33
0.0
 14
19.87985059036771
 24
21.14827062414879
 34
0.0
 50
90.0
  0
DIMENSION
  5
1637
  8
DIMENSIONS
  2
*D17
 10
22.67985059036771
 20
22.303643564254241
 30
0.0
 11
21.884163143563121
 21
22.303643564254241
 31
0.0
 70
   128
 13
21.079850590367709
 23
20.39827062414879
 33
0.0
 14
22.67985059036771
 24
20.8982706241488
 34
0.0
  0
DIMENSION
  5
163A
  8
DIMENSIONS
  2
*D18
 10
24.167350590367711
 20
23.048394019010669
 30
0.0
 11
21.79293855450414
 21
23.048394019010669
 31
0.0
 70
   128
 13
19.592350590367712
 23
21.385770624148801
 33
0.0
 14
24.167350590367711
 24
21.385770624148801
 34
0.0
  0
LINE
  5
163D
  8
CONVERTER
 10
20.658563334661189
 20
20.148270624148779
 30
0.0
 11
21.80945256821451
 21
20.148270624148779
 31
0.0
  0
LINE
  5
163E
  8
CONVERTER
 10
21.837611721053008
 20
20.148270624148779
 30
0.0
 11
21.922089459682411
 21
20.148270624148779
 31
0.0
  0
LINE
  5
163F
  8
CONVERTER
 10
21.950248612520909
 20
20.148270624148779
 30
0.0
 11
22.92272448365933
 21
20.148270624148779
 31
0.0
  0
LINE
  5
1640
  8
CONVERTER
 10
21.87985059036771
 20
19.245317640227519
 30
0.0
 11
21.87985059036771
 21
20.07787260199559
 31
0.0
  0
LINE
  5
1641
  8
CONVERTER
 10
21.87985059036771
 20
20.106031754834081
 30
0.0
 11
21.87985059036771
 21
20.190509493463491
 31
0.0
  0
LINE
  5
1642
  8
CONVERTER
 10
21.87985059036771
 20
20.218668646301989
 30
0.0
 11
21.87985059036771
 21
21.22153991279917
 31
0.0
  0
TEXT
  5
1643
  8
TOPSILK
 10
21.33551929981255
 20
19.10638904346072
 30
0.0
 40
0.075
  1
American Power Design
 72
     1
 11
21.87985059036771
 21
19.10638904346072
 31
0.0
  0
TEXT
  5
1644
  8
TOPSILK
 10
21.32935491625091
 20
18.939722376794059
 30
0.0
 40
0.075
  1
www.apowerdesign.com
 72
     1
 11
21.87985059036771
 21
18.939722376794059
 31
0.0
  0
INSERT
  5
1645
  8
DIMENSIONS
  2
*U53
 10
0.0
 20
0.0
 30
0.0
1001
ACAD
1000
DSTYLE
1002
{
1070
   147
1040
0.09
1070
    77
1070
     0
1002
}
  0
INSERT
  5
1646
  8
DIMENSIONS
  2
*U54
 10
0.0
 20
0.0
 30
0.0
  0
INSERT
  5
1832
  8
DIMENSIONS
  2
*U67
 10
0.0
 20
0.0
 30
0.0
1001
ACAD
1000
DSTYLE
1002
{
1070
   147
1040
0.09
1070
    77
1070
     0
1002
}
  0
INSERT
  5
1833
  8
DIMENSIONS
  2
*U68
 10
0.0
 20
0.0
 30
0.0
  0
INSERT
  5
1834
  8
DIMENSIONS
  2
*U69
 10
0.0
 20
0.0
 30
0.0
1001
ACAD
1000
DSTYLE
1002
{
1070
   147
1040
0.09
1070
    77
1070
     0
1002
}
  0
INSERT
  5
1835
  8
DIMENSIONS
  2
*U70
 10
0.0
 20
0.0
 30
0.0
  0
INSERT
  5
1836
  8
DIMENSIONS
  2
*U71
 10
0.0
 20
0.0
 30
0.0
  0
INSERT
  5
18AB
  8
DIMENSIONS
  2
*U74
 10
0.0
 20
0.0
 30
0.0
  0
INSERT
  5
18AC
  8
DIMENSIONS
  2
*U75
 10
0.0
 20
0.0
 30
0.0
1001
ACAD
1000
DSTYLE
1002
{
1070
   147
1040
0.09
1070
    77
1070
     0
1002
}
  0
ENDSEC
  0
EOF
