  0
SECTION
  2
HEADER
  9
$ACADVER
  1
AC1009
  9
$INSBASE
 10
0.0
 20
0.0
 30
0.0
  9
$EXTMIN
 10
25.006421913280281
 20
2.7369295432329741
 30
-0.0015258207003583
  9
$EXTMAX
 10
59.009501035403687
 20
24.747914574638731
 30
0.0000000349246037
  9
$LIMMIN
 10
0.0
 20
0.0
  9
$LIMMAX
 10
12.0
 20
9.0
  9
$ORTHOMODE
 70
     1
  9
$REGENMODE
 70
     1
  9
$FILLMODE
 70
     1
  9
$QTEXTMODE
 70
     0
  9
$MIRRTEXT
 70
     0
  9
$DRAGMODE
 70
     2
  9
$LTSCALE
 40
1.0
  9
$OSMODE
 70
    39
  9
$ATTMODE
 70
     1
  9
$TEXTSIZE
 40
0.2
  9
$TRACEWID
 40
0.05
  9
$TEXTSTYLE
  7
STANDARD
  9
$CLAYER
  8
DIMENSIONS
  9
$CELTYPE
  6
BYLAYER
  9
$CECOLOR
 62
   256
  9
$DIMSCALE
 40
1.0
  9
$DIMASZ
 40
0.18
  9
$DIMEXO
 40
0.0625
  9
$DIMDLI
 40
0.38
  9
$DIMRND
 40
0.0
  9
$DIMDLE
 40
0.0
  9
$DIMEXE
 40
0.18
  9
$DIMTP
 40
0.0
  9
$DIMTM
 40
0.0
  9
$DIMTXT
 40
0.125
  9
$DIMCEN
 40
0.09
  9
$DIMTSZ
 40
0.0
  9
$DIMTOL
 70
     0
  9
$DIMLIM
 70
     0
  9
$DIMTIH
 70
     1
  9
$DIMTOH
 70
     1
  9
$DIMSE1
 70
     0
  9
$DIMSE2
 70
     0
  9
$DIMTAD
 70
     0
  9
$DIMZIN
 70
     0
  9
$DIMBLK
  1

  9
$DIMASO
 70
     1
  9
$DIMSHO
 70
     1
  9
$DIMPOST
  1

  9
$DIMAPOST
  1

  9
$DIMALT
 70
     1
  9
$DIMALTD
 70
     2
  9
$DIMALTF
 40
25.399999999999999
  9
$DIMLFAC
 40
1.0
  9
$DIMTOFL
 70
     0
  9
$DIMTVP
 40
0.0
  9
$DIMTIX
 70
     0
  9
$DIMSOXD
 70
     0
  9
$DIMSAH
 70
     0
  9
$DIMBLK1
  1

  9
$DIMBLK2
  1

  9
$DIMSTYLE
  2
STANDARD
  9
$DIMCLRD
 70
     0
  9
$DIMCLRE
 70
     0
  9
$DIMCLRT
 70
     0
  9
$DIMTFAC
 40
1.0
  9
$DIMGAP
 40
0.09
  9
$LUNITS
 70
     2
  9
$LUPREC
 70
     4
  9
$SKETCHINC
 40
0.1
  9
$FILLETRAD
 40
0.0
  9
$AUNITS
 70
     0
  9
$AUPREC
 70
     0
  9
$MENU
  1
.
  9
$ELEVATION
 40
0.0
  9
$PELEVATION
 40
0.0
  9
$THICKNESS
 40
0.0
  9
$LIMCHECK
 70
     0
  9
$BLIPMODE
 70
     0
  9
$CHAMFERA
 40
0.0
  9
$CHAMFERB
 40
0.0
  9
$SKPOLY
 70
     0
  9
$TDCREATE
 40
2456785.5752580562
  9
$TDUPDATE
 40
2457696.4017184838
  9
$TDINDWG
 40
0.0584599537
  9
$TDUSRTIMER
 40
0.0584599074
  9
$USRTIMER
 70
     1
  9
$ANGBASE
 50
0.0
  9
$ANGDIR
 70
     0
  9
$PDMODE
 70
     0
  9
$PDSIZE
 40
0.0
  9
$PLINEWID
 40
0.0
  9
$COORDS
 70
     1
  9
$SPLFRAME
 70
     0
  9
$SPLINETYPE
 70
     6
  9
$SPLINESEGS
 70
     8
  9
$ATTDIA
 70
     0
  9
$ATTREQ
 70
     1
  9
$HANDLING
 70
     1
  9
$HANDSEED
  5
168C
  9
$SURFTAB1
 70
     6
  9
$SURFTAB2
 70
     6
  9
$SURFTYPE
 70
     6
  9
$SURFU
 70
     6
  9
$SURFV
 70
     6
  9
$UCSNAME
  2

  9
$UCSORG
 10
0.0
 20
0.0
 30
0.0
  9
$UCSXDIR
 10
1.0
 20
0.0
 30
0.0
  9
$UCSYDIR
 10
0.0
 20
1.0
 30
0.0
  9
$PUCSNAME
  2

  9
$PUCSORG
 10
0.0
 20
0.0
 30
0.0
  9
$PUCSXDIR
 10
1.0
 20
0.0
 30
0.0
  9
$PUCSYDIR
 10
0.0
 20
1.0
 30
0.0
  9
$USERI1
 70
     0
  9
$USERI2
 70
     0
  9
$USERI3
 70
     0
  9
$USERI4
 70
     0
  9
$USERI5
 70
     0
  9
$USERR1
 40
0.0
  9
$USERR2
 40
0.0
  9
$USERR3
 40
0.0
  9
$USERR4
 40
0.0
  9
$USERR5
 40
0.0
  9
$WORLDVIEW
 70
     1
  9
$SHADEDGE
 70
     3
  9
$SHADEDIF
 70
    70
  9
$TILEMODE
 70
     1
  9
$MAXACTVP
 70
    64
  9
$PLIMCHECK
 70
     0
  9
$PEXTMIN
 10
0.0
 20
0.0
 30
0.0
  9
$PEXTMAX
 10
0.0
 20
0.0
 30
0.0
  9
$PLIMMIN
 10
0.0
 20
0.0
  9
$PLIMMAX
 10
12.0
 20
9.0
  9
$UNITMODE
 70
     0
  9
$VISRETAIN
 70
     1
  9
$PLINEGEN
 70
     0
  9
$PSLTSCALE
 70
     1
  0
ENDSEC
  0
SECTION
  2
TABLES
  0
TABLE
  2
VPORT
 70
     1
  0
VPORT
  2
*ACTIVE
 70
     0
 10
0.0
 20
0.0
 11
1.0
 21
1.0
 12
49.475745206590922
 22
13.01961913664263
 13
0.0
 23
0.0
 14
0.5
 24
0.5
 15
0.5
 25
0.5
 16
0.0
 26
0.0
 36
1.0
 17
0.0
 27
0.0
 37
0.0
 40
31.017689578595292
 41
2.2000000000000002
 42
50.0
 43
0.0
 44
0.0
 50
0.0
 51
0.0
 71
     0
 72
  1000
 73
     1
 74
     3
 75
     0
 76
     1
 77
     0
 78
     0
  0
ENDTAB
  0
TABLE
  2
LTYPE
 70
     2
  0
LTYPE
  2
CONTINUOUS
 70
     0
  3
Solid line
 72
    65
 73
     0
 40
0.0
  0
LTYPE
  2
PHANTOM2
 70
     0
  3
Phantom (.5x) ___ _ _ ___ _ _ ___ _ _ ___ _ _
 72
    65
 73
     6
 40
1.25
 49
0.625
 49
-0.125
 49
0.125
 49
-0.125
 49
0.125
 49
-0.125
  0
ENDTAB
  0
TABLE
  2
LAYER
 70
     8
  0
LAYER
  2
0
 70
     0
 62
     7
  6
CONTINUOUS
  0
LAYER
  2
DEFPOINTS
 70
     0
 62
     7
  6
CONTINUOUS
  0
LAYER
  2
DIMENSIONS
 70
     0
 62
     1
  6
CONTINUOUS
  0
LAYER
  2
CONVERTER
 70
     0
 62
     7
  6
CONTINUOUS
  0
LAYER
  2
GRID
 70
     0
 62
     7
  6
CONTINUOUS
  0
LAYER
  2
PINOUT
 70
     0
 62
     1
  6
CONTINUOUS
  0
LAYER
  2
FRAME
 70
     0
 62
     7
  6
CONTINUOUS
  0
LAYER
  2
FRAME_TEXT
 70
     0
 62
     1
  6
CONTINUOUS
  0
ENDTAB
  0
TABLE
  2
STYLE
 70
     3
  0
STYLE
  2
STANDARD
 70
     0
 40
0.0
 41
1.0
 50
0.0
 71
     0
 42
0.2
  3
txt
  4

  0
STYLE
  2
ANNOTATIVE
 70
     0
 40
0.0
 41
1.0
 50
0.0
 71
     0
 42
0.2
  3
txt
  4

  0
ENDTAB
  0
TABLE
  2
VIEW
 70
     0
  0
ENDTAB
  0
TABLE
  2
UCS
 70
     0
  0
ENDTAB
  0
TABLE
  2
APPID
 70
     8
  0
APPID
  2
ACAD
 70
     0
  0
APPID
  2
ACADANNOPO
 70
     0
  0
APPID
  2
ACADANNOTATIVE
 70
     0
  0
APPID
  2
ACAD_DSTYLE_DIMJAG
 70
     0
  0
APPID
  2
ACAD_DSTYLE_DIMTALN
 70
     0
  0
APPID
  2
ACAD_MLEADERVER
 70
     0
  0
APPID
  2
ACAD_NAV_VCDISPLAY
 70
     0
  0
APPID
  2
ACAD_EXEMPT_FROM_CAD_STANDARDS
 70
     0
  0
ENDTAB
  0
TABLE
  2
DIMSTYLE
 70
     3
  0
DIMSTYLE
  2
STANDARD
 70
     0
  3

  4

  5

  6

  7

 40
1.0
 41
0.18
 42
0.0625
 43
0.38
 44
0.18
 45
0.0
 46
0.0
 47
0.0
 48
0.0
140
0.125
141
0.09
142
0.0
143
25.399999999999999
144
1.0
145
0.0
146
1.0
147
0.09
 71
     0
 72
     0
 73
     1
 74
     1
 75
     0
 76
     0
 77
     0
 78
     0
170
     1
171
     2
172
     0
173
     0
174
     0
175
     0
176
     0
177
     0
178
     0
  0
DIMSTYLE
  2
ANNOTATIVE
 70
     0
  3

  4

  5

  6

  7

 40
0.0
 41
0.18
 42
0.0625
 43
0.38
 44
0.18
 45
0.0
 46
0.0
 47
0.0
 48
0.0
140
0.18
141
0.09
142
0.0
143
25.399999999999999
144
1.0
145
0.0
146
1.0
147
0.09
 71
     0
 72
     0
 73
     1
 74
     1
 75
     0
 76
     0
 77
     0
 78
     0
170
     0
171
     2
172
     0
173
     0
174
     0
175
     0
176
     0
177
     0
178
     0
  0
ENDTAB
  0
ENDSEC
  0
SECTION
  2
BLOCKS
  0
BLOCK
  8
0
  2
$MODEL_SPACE
 70
     0
 10
0.0
 20
0.0
 30
0.0
  3
$MODEL_SPACE
  1

  0
ENDBLK
  5
21
  8
0
  0
BLOCK
 67
     1
  8
0
  2
$PAPER_SPACE
 70
     0
 10
0.0
 20
0.0
 30
0.0
  3
$PAPER_SPACE
  1

  0
ENDBLK
  5
5B
 67
     1
  8
0
  0
BLOCK
  8
0
  2
*D1
 70
     1
 10
0.0
 20
0.0
 30
0.0
  3
*D1
  1

  0
LINE
  5
ED0
  8
DIMENSIONS
 62
     0
 10
42.701068968734148
 20
13.21141291697519
 30
0.0
 11
43.648619210005471
 21
13.21141291697519
 31
0.0
  0
LINE
  5
ED1
  8
DIMENSIONS
 62
     0
 10
42.84350511852228
 20
12.581412916975189
 30
0.0
 11
43.648619210005471
 21
12.581412916975189
 31
0.0
  0
LINE
  5
ED2
  8
DIMENSIONS
 62
     0
 10
43.468619210005471
 20
13.39141291697519
 30
0.0
 11
43.468619210005471
 21
13.57141291697519
 31
0.0
  0
LINE
  5
ED3
  8
DIMENSIONS
 62
     0
 10
43.468619210005471
 20
12.40141291697519
 30
0.0
 11
43.468619210005471
 21
12.22141291697519
 31
0.0
  0
SOLID
  5
ED4
  8
DIMENSIONS
 62
     0
 10
43.43861921000547
 20
13.39141291697519
 30
0.0
 11
43.498619210005472
 21
13.39141291697519
 31
0.0
 12
43.468619210005471
 22
13.21141291697519
 32
0.0
 13
43.468619210005471
 23
13.21141291697519
 33
0.0
  0
SOLID
  5
ED5
  8
DIMENSIONS
 62
     0
 10
43.43861921000547
 20
12.40141291697519
 30
0.0
 11
43.498619210005472
 21
12.40141291697519
 31
0.0
 12
43.468619210005471
 22
12.581412916975189
 32
0.0
 13
43.468619210005471
 23
12.581412916975189
 33
0.0
  0
INSERT
  5
ED6
  8
DIMENSIONS
  2
*U111
 10
0.0
 20
0.0
 30
0.0
  0
POINT
  5
ED7
  8
DEFPOINTS
 62
     0
 10
42.638568968734162
 20
13.21141291697519
 30
0.0
  0
POINT
  5
ED8
  8
DEFPOINTS
 62
     0
 10
42.781005118522287
 20
12.581412916975189
 30
0.0
  0
POINT
  5
ED9
  8
DEFPOINTS
 62
     0
 10
43.468619210005471
 20
12.581412916975189
 30
0.0
  0
ENDBLK
  5
383
  8
0
  0
BLOCK
  8
0
  2
*D2
 70
     1
 10
0.0
 20
0.0
 30
0.0
  3
*D2
  1

  0
LINE
  5
EDA
  8
DIMENSIONS
 62
     0
 10
41.076068968734162
 20
13.21141291697519
 30
0.0
 11
40.217776921215609
 21
13.21141291697519
 31
0.0
  0
LINE
  5
EDB
  8
DIMENSIONS
 62
     0
 10
41.206068968734158
 20
13.46141291697519
 30
0.0
 11
40.217776921215609
 21
13.46141291697519
 31
0.0
  0
LINE
  5
EDC
  8
DIMENSIONS
 62
     0
 10
40.397776921215602
 20
13.03141291697519
 30
0.0
 11
40.397776921215602
 21
12.851412916975191
 31
0.0
  0
LINE
  5
EDD
  8
DIMENSIONS
 62
     0
 10
40.397776921215602
 20
13.64141291697519
 30
0.0
 11
40.397776921215602
 21
13.82141291697519
 31
0.0
  0
LINE
  5
EDE
  8
DIMENSIONS
 62
     0
 10
40.397776921215602
 20
13.82141291697519
 30
0.0
 11
40.577776921215602
 21
13.82141291697519
 31
0.0
  0
SOLID
  5
EDF
  8
DIMENSIONS
 62
     0
 10
40.367776921215601
 20
13.03141291697519
 30
0.0
 11
40.42777692121561
 21
13.03141291697519
 31
0.0
 12
40.397776921215602
 22
13.21141291697519
 32
0.0
 13
40.397776921215602
 23
13.21141291697519
 33
0.0
  0
SOLID
  5
EE0
  8
DIMENSIONS
 62
     0
 10
40.367776921215601
 20
13.64141291697519
 30
0.0
 11
40.42777692121561
 21
13.64141291697519
 31
0.0
 12
40.397776921215602
 22
13.46141291697519
 32
0.0
 13
40.397776921215602
 23
13.46141291697519
 33
0.0
  0
INSERT
  5
EE1
  8
DIMENSIONS
  2
*U112
 10
0.0
 20
0.0
 30
0.0
  0
POINT
  5
EE2
  8
DEFPOINTS
 62
     0
 10
41.138568968734148
 20
13.21141291697519
 30
0.0
  0
POINT
  5
EE3
  8
DEFPOINTS
 62
     0
 10
41.268568968734158
 20
13.46141291697519
 30
0.0
  0
POINT
  5
EE4
  8
DEFPOINTS
 62
     0
 10
40.397776921215602
 20
13.46141291697519
 30
0.0
  0
ENDBLK
  5
390
  8
0
  0
BLOCK
  8
0
  2
*D3
 70
     1
 10
0.0
 20
0.0
 30
0.0
  3
*D3
  1

  0
LINE
  5
12FF
  8
DIMENSIONS
 62
     0
 10
41.288568968734168
 20
16.179298984188229
 30
0.0
 11
41.288568968734168
 21
17.3557708697533
 31
0.0
  0
LINE
  5
1300
  8
DIMENSIONS
 62
     0
 10
42.488568968734171
 20
16.27929898418823
 30
0.0
 11
42.488568968734171
 21
17.3557708697533
 31
0.0
  0
LINE
  5
1301
  8
DIMENSIONS
 62
     0
 10
41.108568968734168
 20
17.1757708697533
 30
0.0
 11
40.928568968734162
 21
17.1757708697533
 31
0.0
  0
LINE
  5
1302
  8
DIMENSIONS
 62
     0
 10
42.668568968734171
 20
17.1757708697533
 30
0.0
 11
42.848568968734163
 21
17.1757708697533
 31
0.0
  0
SOLID
  5
1303
  8
DIMENSIONS
 62
     0
 10
41.108568968734168
 20
17.205770869753302
 30
0.0
 11
41.108568968734168
 21
17.145770869753299
 31
0.0
 12
41.288568968734168
 22
17.1757708697533
 32
0.0
 13
41.288568968734168
 23
17.1757708697533
 33
0.0
  0
SOLID
  5
1304
  8
DIMENSIONS
 62
     0
 10
42.668568968734171
 20
17.205770869753302
 30
0.0
 11
42.668568968734171
 21
17.145770869753299
 31
0.0
 12
42.488568968734171
 22
17.1757708697533
 32
0.0
 13
42.488568968734171
 23
17.1757708697533
 33
0.0
  0
INSERT
  5
1305
  8
DIMENSIONS
  2
*U145
 10
0.0
 20
0.0
 30
0.0
  0
POINT
  5
1306
  8
DEFPOINTS
 62
     0
 10
41.288568968734168
 20
16.116798984188229
 30
0.0
  0
POINT
  5
1307
  8
DEFPOINTS
 62
     0
 10
42.488568968734171
 20
16.216798984188241
 30
0.0
  0
POINT
  5
1308
  8
DEFPOINTS
 62
     0
 10
42.488568968734171
 20
17.1757708697533
 30
0.0
  0
ENDBLK
  5
39E
  8
0
  0
BLOCK
  8
0
  2
*D4
 70
     1
 10
0.0
 20
0.0
 30
0.0
  3
*D4
  1

  0
LINE
  5
1309
  8
DIMENSIONS
 62
     0
 10
41.288568968734168
 20
16.179298984188229
 30
0.0
 11
41.288568968734168
 21
16.984560824920091
 31
0.0
  0
LINE
  5
130A
  8
DIMENSIONS
 62
     0
 10
41.138568968734162
 20
16.52929898418823
 30
0.0
 11
41.138568968734162
 21
16.984560824920091
 31
0.0
  0
LINE
  5
130B
  8
DIMENSIONS
 62
     0
 10
41.468568968734161
 20
16.804560824920092
 30
0.0
 11
41.64856896873416
 21
16.804560824920092
 31
0.0
  0
LINE
  5
130C
  8
DIMENSIONS
 62
     0
 10
40.958568968734163
 20
16.804560824920092
 30
0.0
 11
40.778568968734163
 21
16.804560824920092
 31
0.0
  0
SOLID
  5
130D
  8
DIMENSIONS
 62
     0
 10
41.468568968734161
 20
16.834560824920089
 30
0.0
 11
41.468568968734161
 21
16.774560824920091
 31
0.0
 12
41.288568968734168
 22
16.804560824920092
 32
0.0
 13
41.288568968734168
 23
16.804560824920092
 33
0.0
  0
SOLID
  5
130E
  8
DIMENSIONS
 62
     0
 10
40.958568968734163
 20
16.834560824920089
 30
0.0
 11
40.958568968734163
 21
16.774560824920091
 31
0.0
 12
41.138568968734162
 22
16.804560824920092
 32
0.0
 13
41.138568968734162
 23
16.804560824920092
 33
0.0
  0
INSERT
  5
130F
  8
DIMENSIONS
  2
*U146
 10
0.0
 20
0.0
 30
0.0
  0
POINT
  5
1310
  8
DEFPOINTS
 62
     0
 10
41.288568968734168
 20
16.116798984188229
 30
0.0
  0
POINT
  5
1311
  8
DEFPOINTS
 62
     0
 10
41.138568968734162
 20
16.46679898418823
 30
0.0
  0
POINT
  5
1312
  8
DEFPOINTS
 62
     0
 10
41.138568968734162
 20
16.804560824920092
 30
0.0
  0
ENDBLK
  5
3AB
  8
0
  0
BLOCK
  8
0
  2
*D5
 70
     1
 10
0.0
 20
0.0
 30
0.0
  3
*D5
  1

  0
LINE
  5
1313
  8
DIMENSIONS
 62
     0
 10
42.488568968734171
 20
16.27929898418823
 30
0.0
 11
42.488568968734171
 21
16.99772420197101
 31
0.0
  0
LINE
  5
1314
  8
DIMENSIONS
 62
     0
 10
42.638568968734162
 20
16.52929898418823
 30
0.0
 11
42.638568968734162
 21
16.99772420197101
 31
0.0
  0
LINE
  5
1315
  8
DIMENSIONS
 62
     0
 10
42.308568968734171
 20
16.817724201971011
 30
0.0
 11
42.128568968734172
 21
16.817724201971011
 31
0.0
  0
LINE
  5
1316
  8
DIMENSIONS
 62
     0
 10
42.818568968734162
 20
16.817724201971011
 30
0.0
 11
42.998568968734162
 21
16.817724201971011
 31
0.0
  0
SOLID
  5
1317
  8
DIMENSIONS
 62
     0
 10
42.308568968734171
 20
16.847724201971008
 30
0.0
 11
42.308568968734171
 21
16.78772420197101
 31
0.0
 12
42.488568968734171
 22
16.817724201971011
 32
0.0
 13
42.488568968734171
 23
16.817724201971011
 33
0.0
  0
SOLID
  5
1318
  8
DIMENSIONS
 62
     0
 10
42.818568968734162
 20
16.847724201971008
 30
0.0
 11
42.818568968734162
 21
16.78772420197101
 31
0.0
 12
42.638568968734162
 22
16.817724201971011
 32
0.0
 13
42.638568968734162
 23
16.817724201971011
 33
0.0
  0
INSERT
  5
1319
  8
DIMENSIONS
  2
*U147
 10
0.0
 20
0.0
 30
0.0
  0
POINT
  5
131A
  8
DEFPOINTS
 62
     0
 10
42.488568968734171
 20
16.216798984188241
 30
0.0
  0
POINT
  5
131B
  8
DEFPOINTS
 62
     0
 10
42.638568968734162
 20
16.46679898418823
 30
0.0
  0
POINT
  5
131C
  8
DEFPOINTS
 62
     0
 10
42.638568968734162
 20
16.817724201971011
 30
0.0
  0
ENDBLK
  5
3B8
  8
0
  0
BLOCK
  8
0
  2
*D6
 70
     1
 10
0.0
 20
0.0
 30
0.0
  3
*D6
  1

  0
LINE
  5
131D
  8
DIMENSIONS
 62
     0
 10
41.076068968734162
 20
16.46679898418823
 30
0.0
 11
40.287497048223699
 21
16.46679898418823
 31
0.0
  0
LINE
  5
131E
  8
DIMENSIONS
 62
     0
 10
41.226068968734161
 20
16.116798984188229
 30
0.0
 11
40.287497048223699
 21
16.116798984188229
 31
0.0
  0
LINE
  5
131F
  8
DIMENSIONS
 62
     0
 10
40.467497048223699
 20
16.64679898418823
 30
0.0
 11
40.467497048223699
 21
16.82679898418823
 31
0.0
  0
LINE
  5
1320
  8
DIMENSIONS
 62
     0
 10
40.467497048223699
 20
15.93679898418824
 30
0.0
 11
40.467497048223699
 21
15.75679898418824
 31
0.0
  0
SOLID
  5
1321
  8
DIMENSIONS
 62
     0
 10
40.437497048223698
 20
16.64679898418823
 30
0.0
 11
40.4974970482237
 21
16.64679898418823
 31
0.0
 12
40.467497048223699
 22
16.46679898418823
 32
0.0
 13
40.467497048223699
 23
16.46679898418823
 33
0.0
  0
SOLID
  5
1322
  8
DIMENSIONS
 62
     0
 10
40.437497048223698
 20
15.93679898418824
 30
0.0
 11
40.4974970482237
 21
15.93679898418824
 31
0.0
 12
40.467497048223699
 22
16.116798984188229
 32
0.0
 13
40.467497048223699
 23
16.116798984188229
 33
0.0
  0
INSERT
  5
1323
  8
DIMENSIONS
  2
*U148
 10
0.0
 20
0.0
 30
0.0
  0
POINT
  5
1324
  8
DEFPOINTS
 62
     0
 10
41.138568968734162
 20
16.46679898418823
 30
0.0
  0
POINT
  5
1325
  8
DEFPOINTS
 62
     0
 10
41.288568968734168
 20
16.116798984188229
 30
0.0
  0
POINT
  5
1326
  8
DEFPOINTS
 62
     0
 10
40.467497048223699
 20
16.116798984188229
 30
0.0
  0
ENDBLK
  5
3C5
  8
0
  0
BLOCK
  8
0
  2
*D7
 70
     1
 10
0.0
 20
0.0
 30
0.0
  3
*D7
  1

  0
LINE
  5
1327
  8
DIMENSIONS
 62
     0
 10
41.226068968734161
 20
16.116798984188229
 30
0.0
 11
40.287497048223699
 21
16.116798984188229
 31
0.0
  0
LINE
  5
1328
  8
DIMENSIONS
 62
     0
 10
41.226068968734161
 20
15.316798984188241
 30
0.0
 11
40.287497048223692
 21
15.316798984188241
 31
0.0
  0
LINE
  5
1329
  8
DIMENSIONS
 62
     0
 10
40.467497048223699
 20
15.93679898418824
 30
0.0
 11
40.467497048223699
 21
15.88197496502228
 31
0.0
  0
LINE
  5
132A
  8
DIMENSIONS
 62
     0
 10
40.467497048223699
 20
15.49679898418824
 30
0.0
 11
40.467497048223699
 21
15.541760094626641
 31
0.0
  0
SOLID
  5
132B
  8
DIMENSIONS
 62
     0
 10
40.437497048223698
 20
15.93679898418824
 30
0.0
 11
40.4974970482237
 21
15.93679898418824
 31
0.0
 12
40.467497048223699
 22
16.116798984188229
 32
0.0
 13
40.467497048223699
 23
16.116798984188229
 33
0.0
  0
SOLID
  5
132C
  8
DIMENSIONS
 62
     0
 10
40.437497048223698
 20
15.49679898418824
 30
0.0
 11
40.4974970482237
 21
15.49679898418824
 31
0.0
 12
40.467497048223699
 22
15.316798984188241
 32
0.0
 13
40.467497048223699
 23
15.316798984188241
 33
0.0
  0
INSERT
  5
132D
  8
DIMENSIONS
  2
*U149
 10
0.0
 20
0.0
 30
0.0
  0
POINT
  5
132E
  8
DEFPOINTS
 62
     0
 10
41.288568968734168
 20
16.116798984188229
 30
0.0
  0
POINT
  5
132F
  8
DEFPOINTS
 62
     0
 10
41.288568968734168
 20
15.316798984188241
 30
0.0
  0
POINT
  5
1330
  8
DEFPOINTS
 62
     0
 10
40.467497048223699
 20
15.316798984188241
 30
0.0
  0
ENDBLK
  5
3D2
  8
0
  0
BLOCK
  8
0
  2
*D8
 70
     1
 10
0.0
 20
0.0
 30
0.0
  3
*D8
  1

  0
LINE
  5
1331
  8
DIMENSIONS
 62
     0
 10
41.076068968734162
 20
14.96679898418823
 30
0.0
 11
40.287497048223692
 21
14.96679898418823
 31
0.0
  0
LINE
  5
1332
  8
DIMENSIONS
 62
     0
 10
41.226068968734161
 20
15.316798984188241
 30
0.0
 11
40.287497048223692
 21
15.316798984188241
 31
0.0
  0
LINE
  5
1333
  8
DIMENSIONS
 62
     0
 10
40.467497048223699
 20
14.786798984188231
 30
0.0
 11
40.467497048223699
 21
14.606798984188231
 31
0.0
  0
LINE
  5
1334
  8
DIMENSIONS
 62
     0
 10
40.467497048223699
 20
15.49679898418824
 30
0.0
 11
40.467497048223699
 21
15.67679898418824
 31
0.0
  0
SOLID
  5
1335
  8
DIMENSIONS
 62
     0
 10
40.437497048223698
 20
14.786798984188231
 30
0.0
 11
40.4974970482237
 21
14.786798984188231
 31
0.0
 12
40.467497048223699
 22
14.96679898418823
 32
0.0
 13
40.467497048223699
 23
14.96679898418823
 33
0.0
  0
SOLID
  5
1336
  8
DIMENSIONS
 62
     0
 10
40.437497048223698
 20
15.49679898418824
 30
0.0
 11
40.4974970482237
 21
15.49679898418824
 31
0.0
 12
40.467497048223699
 22
15.316798984188241
 32
0.0
 13
40.467497048223699
 23
15.316798984188241
 33
0.0
  0
INSERT
  5
1337
  8
DIMENSIONS
  2
*U150
 10
0.0
 20
0.0
 30
0.0
  0
POINT
  5
1338
  8
DEFPOINTS
 62
     0
 10
41.138568968734162
 20
14.96679898418823
 30
0.0
  0
POINT
  5
1339
  8
DEFPOINTS
 62
     0
 10
41.288568968734168
 20
15.316798984188241
 30
0.0
  0
POINT
  5
133A
  8
DEFPOINTS
 62
     0
 10
40.467497048223699
 20
15.316798984188241
 30
0.0
  0
ENDBLK
  5
3DF
  8
0
  0
BLOCK
  8
0
  2
*D9
 70
     1
 10
0.0
 20
0.0
 30
0.0
  3
*D9
  1

  0
LINE
  5
133B
  8
DIMENSIONS
 62
     0
 10
42.551068968734157
 20
16.216798984188241
 30
0.0
 11
44.745819652132731
 21
16.216798984188241
 31
0.0
  0
LINE
  5
133C
  8
DIMENSIONS
 62
     0
 10
42.551068968734157
 20
15.21679898418823
 30
0.0
 11
44.745819652132717
 21
15.21679898418823
 31
0.0
  0
LINE
  5
133D
  8
DIMENSIONS
 62
     0
 10
44.565819652132731
 20
16.036798984188241
 30
0.0
 11
44.565819652132717
 21
15.88484953552784
 31
0.0
  0
LINE
  5
133E
  8
DIMENSIONS
 62
     0
 10
44.565819652132717
 20
15.39679898418823
 30
0.0
 11
44.565819652132717
 21
15.544634665132209
 31
0.0
  0
SOLID
  5
133F
  8
DIMENSIONS
 62
     0
 10
44.53581965213273
 20
16.036798984188241
 30
0.0
 11
44.595819652132732
 21
16.036798984188241
 31
0.0
 12
44.565819652132731
 22
16.216798984188241
 32
0.0
 13
44.565819652132731
 23
16.216798984188241
 33
0.0
  0
SOLID
  5
1340
  8
DIMENSIONS
 62
     0
 10
44.535819652132723
 20
15.39679898418823
 30
0.0
 11
44.595819652132718
 21
15.39679898418823
 31
0.0
 12
44.565819652132717
 22
15.21679898418823
 32
0.0
 13
44.565819652132717
 23
15.21679898418823
 33
0.0
  0
INSERT
  5
1341
  8
DIMENSIONS
  2
*U151
 10
0.0
 20
0.0
 30
0.0
  0
POINT
  5
1342
  8
DEFPOINTS
 62
     0
 10
42.488568968734171
 20
16.216798984188241
 30
0.0
  0
POINT
  5
1343
  8
DEFPOINTS
 62
     0
 10
42.488568968734171
 20
15.21679898418823
 30
0.0
  0
POINT
  5
1344
  8
DEFPOINTS
 62
     0
 10
44.565819652132717
 20
15.21679898418823
 30
0.0
  0
ENDBLK
  5
3EC
  8
0
  0
BLOCK
  8
0
  2
*D10
 70
     1
 10
0.0
 20
0.0
 30
0.0
  3
*D10
  1

  0
LINE
  5
1345
  8
DIMENSIONS
 62
     0
 10
42.551068968734157
 20
16.216798984188241
 30
0.0
 11
43.43762401118488
 21
16.216798984188241
 31
0.0
  0
LINE
  5
1346
  8
DIMENSIONS
 62
     0
 10
42.701068968734162
 20
16.46679898418823
 30
0.0
 11
43.43762401118488
 21
16.46679898418823
 31
0.0
  0
LINE
  5
1347
  8
DIMENSIONS
 62
     0
 10
43.25762401118488
 20
16.036798984188241
 30
0.0
 11
43.257624011184873
 21
15.85679898418824
 31
0.0
  0
LINE
  5
1348
  8
DIMENSIONS
 62
     0
 10
43.25762401118488
 20
16.64679898418823
 30
0.0
 11
43.25762401118488
 21
16.82679898418823
 31
0.0
  0
SOLID
  5
1349
  8
DIMENSIONS
 62
     0
 10
43.227624011184879
 20
16.036798984188241
 30
0.0
 11
43.287624011184882
 21
16.036798984188241
 31
0.0
 12
43.25762401118488
 22
16.216798984188241
 32
0.0
 13
43.25762401118488
 23
16.216798984188241
 33
0.0
  0
SOLID
  5
134A
  8
DIMENSIONS
 62
     0
 10
43.227624011184879
 20
16.64679898418823
 30
0.0
 11
43.287624011184882
 21
16.64679898418823
 31
0.0
 12
43.25762401118488
 22
16.46679898418823
 32
0.0
 13
43.25762401118488
 23
16.46679898418823
 33
0.0
  0
INSERT
  5
134B
  8
DIMENSIONS
  2
*U152
 10
0.0
 20
0.0
 30
0.0
  0
POINT
  5
134C
  8
DEFPOINTS
 62
     0
 10
42.488568968734171
 20
16.216798984188241
 30
0.0
  0
POINT
  5
134D
  8
DEFPOINTS
 62
     0
 10
42.638568968734162
 20
16.46679898418823
 30
0.0
  0
POINT
  5
134E
  8
DEFPOINTS
 62
     0
 10
43.25762401118488
 20
16.46679898418823
 30
0.0
  0
ENDBLK
  5
3F9
  8
0
  0
BLOCK
  8
0
  2
*D11
 70
     1
 10
0.0
 20
0.0
 30
0.0
  3
*D11
  1

  0
LINE
  5
134F
  8
DIMENSIONS
 62
     0
 10
42.701068968734162
 20
14.96679898418823
 30
0.0
 11
43.43762401118488
 21
14.96679898418823
 31
0.0
  0
LINE
  5
1350
  8
DIMENSIONS
 62
     0
 10
42.551068968734157
 20
15.21679898418823
 30
0.0
 11
43.43762401118488
 21
15.21679898418823
 31
0.0
  0
LINE
  5
1351
  8
DIMENSIONS
 62
     0
 10
43.257624011184873
 20
14.786798984188231
 30
0.0
 11
43.257624011184873
 21
14.606798984188231
 31
0.0
  0
LINE
  5
1352
  8
DIMENSIONS
 62
     0
 10
43.257624011184873
 20
15.39679898418823
 30
0.0
 11
43.257624011184873
 21
15.57679898418823
 31
0.0
  0
SOLID
  5
1353
  8
DIMENSIONS
 62
     0
 10
43.227624011184872
 20
14.786798984188231
 30
0.0
 11
43.287624011184867
 21
14.786798984188231
 31
0.0
 12
43.257624011184873
 22
14.96679898418823
 32
0.0
 13
43.257624011184873
 23
14.96679898418823
 33
0.0
  0
SOLID
  5
1354
  8
DIMENSIONS
 62
     0
 10
43.227624011184872
 20
15.39679898418823
 30
0.0
 11
43.287624011184867
 21
15.39679898418823
 31
0.0
 12
43.257624011184873
 22
15.21679898418823
 32
0.0
 13
43.257624011184873
 23
15.21679898418823
 33
0.0
  0
INSERT
  5
1355
  8
DIMENSIONS
  2
*U153
 10
0.0
 20
0.0
 30
0.0
  0
POINT
  5
1356
  8
DEFPOINTS
 62
     0
 10
42.638568968734162
 20
14.96679898418823
 30
0.0
  0
POINT
  5
1357
  8
DEFPOINTS
 62
     0
 10
42.488568968734171
 20
15.21679898418823
 30
0.0
  0
POINT
  5
1358
  8
DEFPOINTS
 62
     0
 10
43.257624011184873
 20
15.21679898418823
 30
0.0
  0
ENDBLK
  5
406
  8
0
  0
BLOCK
  8
0
  2
*D12
 70
     1
 10
0.0
 20
0.0
 30
0.0
  3
*D12
  1

  0
LINE
  5
1359
  8
DIMENSIONS
 62
     0
 10
41.076068968734162
 20
14.96679898418823
 30
0.0
 11
39.450544960449001
 21
14.96679898418823
 31
0.0
  0
LINE
  5
135A
  8
DIMENSIONS
 62
     0
 10
41.076068968734162
 20
16.46679898418823
 30
0.0
 11
39.450544960449001
 21
16.466798984188241
 31
0.0
  0
LINE
  5
135B
  8
DIMENSIONS
 62
     0
 10
39.630544960448987
 20
15.14679898418823
 30
0.0
 11
39.630544960448987
 21
15.84125889000366
 31
0.0
  0
LINE
  5
135C
  8
DIMENSIONS
 62
     0
 10
39.630544960449001
 20
16.286798984188231
 30
0.0
 11
39.630544960449001
 21
16.1814737603993
 31
0.0
  0
SOLID
  5
135D
  8
DIMENSIONS
 62
     0
 10
39.600544960448993
 20
15.14679898418823
 30
0.0
 11
39.660544960449002
 21
15.14679898418823
 31
0.0
 12
39.630544960448987
 22
14.96679898418823
 32
0.0
 13
39.630544960448987
 23
14.96679898418823
 33
0.0
  0
SOLID
  5
135E
  8
DIMENSIONS
 62
     0
 10
39.600544960449
 20
16.286798984188231
 30
0.0
 11
39.660544960449002
 21
16.286798984188231
 31
0.0
 12
39.630544960449001
 22
16.466798984188241
 32
0.0
 13
39.630544960449001
 23
16.466798984188241
 33
0.0
  0
INSERT
  5
135F
  8
DIMENSIONS
  2
*U154
 10
0.0
 20
0.0
 30
0.0
  0
POINT
  5
1360
  8
DEFPOINTS
 62
     0
 10
41.138568968734162
 20
14.96679898418823
 30
0.0
  0
POINT
  5
1361
  8
DEFPOINTS
 62
     0
 10
41.138568968734162
 20
16.46679898418823
 30
0.0
  0
POINT
  5
1362
  8
DEFPOINTS
 62
     0
 10
39.630544960449001
 20
16.466798984188241
 30
0.0
  0
ENDBLK
  5
413
  8
0
  0
BLOCK
  8
0
  2
*D13
 70
     1
 10
0.0
 20
0.0
 30
0.0
  3
*D13
  1

  0
LINE
  5
1363
  8
DIMENSIONS
 62
     0
 10
41.138568968734162
 20
16.52929898418823
 30
0.0
 11
41.138568968734162
 21
17.732056949593112
 31
0.0
  0
LINE
  5
1364
  8
DIMENSIONS
 62
     0
 10
42.638568968734162
 20
16.52929898418823
 30
0.0
 11
42.638568968734162
 21
17.732056949593112
 31
0.0
  0
LINE
  5
1365
  8
DIMENSIONS
 62
     0
 10
40.958568968734163
 20
17.552056949593108
 30
0.0
 11
40.778568968734163
 21
17.552056949593108
 31
0.0
  0
LINE
  5
1366
  8
DIMENSIONS
 62
     0
 10
42.818568968734162
 20
17.552056949593108
 30
0.0
 11
42.998568968734162
 21
17.552056949593108
 31
0.0
  0
SOLID
  5
1367
  8
DIMENSIONS
 62
     0
 10
40.958568968734163
 20
17.58205694959311
 30
0.0
 11
40.958568968734163
 21
17.522056949593111
 31
0.0
 12
41.138568968734162
 22
17.552056949593108
 32
0.0
 13
41.138568968734162
 23
17.552056949593108
 33
0.0
  0
SOLID
  5
1368
  8
DIMENSIONS
 62
     0
 10
42.818568968734162
 20
17.58205694959311
 30
0.0
 11
42.818568968734162
 21
17.522056949593111
 31
0.0
 12
42.638568968734162
 22
17.552056949593108
 32
0.0
 13
42.638568968734162
 23
17.552056949593108
 33
0.0
  0
INSERT
  5
1369
  8
DIMENSIONS
  2
*U155
 10
0.0
 20
0.0
 30
0.0
  0
POINT
  5
136A
  8
DEFPOINTS
 62
     0
 10
41.138568968734162
 20
16.46679898418823
 30
0.0
  0
POINT
  5
136B
  8
DEFPOINTS
 62
     0
 10
42.638568968734162
 20
16.46679898418823
 30
0.0
  0
POINT
  5
136C
  8
DEFPOINTS
 62
     0
 10
42.638568968734162
 20
17.552056949593108
 30
0.0
  0
ENDBLK
  5
420
  8
0
  0
BLOCK
  8
0
  2
*D14
 70
     1
 10
0.0
 20
0.0
 30
0.0
  3
*D14
  1

  0
LINE
  5
126A
  8
DIMENSIONS
 62
     0
 10
30.49509607505453
 20
16.039885418636679
 30
0.0
 11
29.407481792010081
 21
16.039885418636679
 31
0.0
  0
LINE
  5
126B
  8
DIMENSIONS
 62
     0
 10
30.49509607505453
 20
15.439885418636679
 30
0.0
 11
29.407481792010081
 21
15.439885418636679
 31
0.0
  0
LINE
  5
126C
  8
DIMENSIONS
 62
     0
 10
29.587481792010081
 20
16.219885418636679
 30
0.0
 11
29.587481792010081
 21
16.399885418636678
 31
0.0
  0
LINE
  5
126D
  8
DIMENSIONS
 62
     0
 10
29.587481792010081
 20
15.25988541863668
 30
0.0
 11
29.587481792010081
 21
15.07988541863668
 31
0.0
  0
SOLID
  5
126E
  8
DIMENSIONS
 62
     0
 10
29.557481792010069
 20
16.219885418636679
 30
0.0
 11
29.617481792010079
 21
16.219885418636679
 31
0.0
 12
29.587481792010081
 22
16.039885418636679
 32
0.0
 13
29.587481792010081
 23
16.039885418636679
 33
0.0
  0
SOLID
  5
126F
  8
DIMENSIONS
 62
     0
 10
29.557481792010069
 20
15.25988541863668
 30
0.0
 11
29.617481792010079
 21
15.25988541863668
 31
0.0
 12
29.587481792010081
 22
15.439885418636679
 32
0.0
 13
29.587481792010081
 23
15.439885418636679
 33
0.0
  0
INSERT
  5
1270
  8
DIMENSIONS
  2
*U132
 10
0.0
 20
0.0
 30
0.0
  0
POINT
  5
1271
  8
DEFPOINTS
 62
     0
 10
30.557596075054541
 20
16.039885418636679
 30
0.0
  0
POINT
  5
1272
  8
DEFPOINTS
 62
     0
 10
30.557596075054541
 20
15.439885418636679
 30
0.0
  0
POINT
  5
1273
  8
DEFPOINTS
 62
     0
 10
29.587481792010081
 20
15.439885418636679
 30
0.0
  0
ENDBLK
  5
636
  8
0
  0
BLOCK
  8
0
  2
*D15
 70
     1
 10
0.0
 20
0.0
 30
0.0
  3
*D15
  1

  0
LINE
  5
1274
  8
DIMENSIONS
 62
     0
 10
31.420096075054541
 20
16.239885418636678
 30
0.0
 11
32.426184476571677
 21
16.239885418636678
 31
0.0
  0
LINE
  5
1275
  8
DIMENSIONS
 62
     0
 10
31.420096075054541
 20
15.23988541863668
 30
0.0
 11
32.426184476571677
 21
15.23988541863668
 31
0.0
  0
LINE
  5
1276
  8
DIMENSIONS
 62
     0
 10
32.246184476571692
 20
16.059885418636679
 30
0.0
 11
32.246184476571678
 21
15.8854618911157
 31
0.0
  0
LINE
  5
1277
  8
DIMENSIONS
 62
     0
 10
32.246184476571678
 20
15.41988541863668
 30
0.0
 11
32.246184476571678
 21
15.54524702072006
 31
0.0
  0
SOLID
  5
1278
  8
DIMENSIONS
 62
     0
 10
32.216184476571676
 20
16.059885418636679
 30
0.0
 11
32.276184476571693
 21
16.059885418636679
 31
0.0
 12
32.246184476571692
 22
16.239885418636678
 32
0.0
 13
32.246184476571692
 23
16.239885418636678
 33
0.0
  0
SOLID
  5
1279
  8
DIMENSIONS
 62
     0
 10
32.216184476571676
 20
15.41988541863668
 30
0.0
 11
32.276184476571679
 21
15.41988541863668
 31
0.0
 12
32.246184476571678
 22
15.23988541863668
 32
0.0
 13
32.246184476571678
 23
15.23988541863668
 33
0.0
  0
INSERT
  5
127A
  8
DIMENSIONS
  2
*U133
 10
0.0
 20
0.0
 30
0.0
  0
POINT
  5
127B
  8
DEFPOINTS
 62
     0
 10
31.357596075054541
 20
16.239885418636678
 30
0.0
  0
POINT
  5
127C
  8
DEFPOINTS
 62
     0
 10
31.357596075054541
 20
15.23988541863668
 30
0.0
  0
POINT
  5
127D
  8
DEFPOINTS
 62
     0
 10
32.246184476571678
 20
15.23988541863668
 30
0.0
  0
ENDBLK
  5
643
  8
0
  0
BLOCK
  8
0
  2
*D16
 70
     1
 10
0.0
 20
0.0
 30
0.0
  3
*D16
  1

  0
LINE
  5
127E
  8
DIMENSIONS
 62
     0
 10
31.420096075054541
 20
16.239885418636678
 30
0.0
 11
32.426184476571677
 21
16.239885418636678
 31
0.0
  0
LINE
  5
127F
  8
DIMENSIONS
 62
     0
 10
31.720096075054538
 20
16.489885418636678
 30
0.0
 11
32.426184476571677
 21
16.489885418636678
 31
0.0
  0
LINE
  5
1280
  8
DIMENSIONS
 62
     0
 10
32.246184476571692
 20
16.059885418636679
 30
0.0
 11
32.246184476571678
 21
15.879885418636681
 31
0.0
  0
LINE
  5
1281
  8
DIMENSIONS
 62
     0
 10
32.246184476571692
 20
16.669885418636682
 30
0.0
 11
32.246184476571692
 21
16.849885418636681
 31
0.0
  0
SOLID
  5
1282
  8
DIMENSIONS
 62
     0
 10
32.216184476571676
 20
16.059885418636679
 30
0.0
 11
32.276184476571693
 21
16.059885418636679
 31
0.0
 12
32.246184476571692
 22
16.239885418636678
 32
0.0
 13
32.246184476571692
 23
16.239885418636678
 33
0.0
  0
SOLID
  5
1283
  8
DIMENSIONS
 62
     0
 10
32.216184476571676
 20
16.669885418636682
 30
0.0
 11
32.276184476571693
 21
16.669885418636682
 31
0.0
 12
32.246184476571692
 22
16.489885418636678
 32
0.0
 13
32.246184476571692
 23
16.489885418636678
 33
0.0
  0
INSERT
  5
1284
  8
DIMENSIONS
  2
*U134
 10
0.0
 20
0.0
 30
0.0
  0
POINT
  5
1285
  8
DEFPOINTS
 62
     0
 10
31.357596075054541
 20
16.239885418636678
 30
0.0
  0
POINT
  5
1286
  8
DEFPOINTS
 62
     0
 10
31.657596075054531
 20
16.489885418636678
 30
0.0
  0
POINT
  5
1287
  8
DEFPOINTS
 62
     0
 10
32.246184476571692
 20
16.489885418636678
 30
0.0
  0
ENDBLK
  5
650
  8
0
  0
BLOCK
  8
0
  2
*D17
 70
     1
 10
0.0
 20
0.0
 30
0.0
  3
*D17
  1

  0
LINE
  5
1288
  8
DIMENSIONS
 62
     0
 10
31.420096075054541
 20
15.23988541863668
 30
0.0
 11
32.426184476571677
 21
15.23988541863668
 31
0.0
  0
LINE
  5
1289
  8
DIMENSIONS
 62
     0
 10
31.720096075054538
 20
14.98988541863668
 30
0.0
 11
32.426184476571677
 21
14.98988541863668
 31
0.0
  0
LINE
  5
128A
  8
DIMENSIONS
 62
     0
 10
32.246184476571678
 20
15.41988541863668
 30
0.0
 11
32.246184476571678
 21
15.59988541863668
 31
0.0
  0
LINE
  5
128B
  8
DIMENSIONS
 62
     0
 10
32.246184476571678
 20
14.80988541863668
 30
0.0
 11
32.246184476571678
 21
14.629885418636681
 31
0.0
  0
SOLID
  5
128C
  8
DIMENSIONS
 62
     0
 10
32.216184476571676
 20
15.41988541863668
 30
0.0
 11
32.276184476571679
 21
15.41988541863668
 31
0.0
 12
32.246184476571678
 22
15.23988541863668
 32
0.0
 13
32.246184476571678
 23
15.23988541863668
 33
0.0
  0
SOLID
  5
128D
  8
DIMENSIONS
 62
     0
 10
32.216184476571676
 20
14.80988541863668
 30
0.0
 11
32.276184476571679
 21
14.80988541863668
 31
0.0
 12
32.246184476571678
 22
14.98988541863668
 32
0.0
 13
32.246184476571678
 23
14.98988541863668
 33
0.0
  0
INSERT
  5
128E
  8
DIMENSIONS
  2
*U135
 10
0.0
 20
0.0
 30
0.0
  0
POINT
  5
128F
  8
DEFPOINTS
 62
     0
 10
31.357596075054541
 20
15.23988541863668
 30
0.0
  0
POINT
  5
1290
  8
DEFPOINTS
 62
     0
 10
31.657596075054531
 20
14.98988541863668
 30
0.0
  0
POINT
  5
1291
  8
DEFPOINTS
 62
     0
 10
32.246184476571678
 20
14.98988541863668
 30
0.0
  0
ENDBLK
  5
65D
  8
0
  0
BLOCK
  8
0
  2
*D18
 70
     1
 10
0.0
 20
0.0
 30
0.0
  3
*D18
  1

  0
LINE
  5
1292
  8
DIMENSIONS
 62
     0
 10
30.095096075054531
 20
16.489885418636678
 30
0.0
 11
28.82672315075509
 21
16.489885418636678
 31
0.0
  0
LINE
  5
1293
  8
DIMENSIONS
 62
     0
 10
30.49509607505453
 20
16.039885418636679
 30
0.0
 11
28.82672315075509
 21
16.039885418636679
 31
0.0
  0
LINE
  5
1294
  8
DIMENSIONS
 62
     0
 10
29.006723150755089
 20
16.669885418636682
 30
0.0
 11
29.006723150755089
 21
16.849885418636681
 31
0.0
  0
LINE
  5
1295
  8
DIMENSIONS
 62
     0
 10
29.006723150755089
 20
15.859885418636679
 30
0.0
 11
29.006723150755089
 21
15.67988541863669
 31
0.0
  0
SOLID
  5
1296
  8
DIMENSIONS
 62
     0
 10
28.976723150755092
 20
16.669885418636682
 30
0.0
 11
29.03672315075509
 21
16.669885418636682
 31
0.0
 12
29.006723150755089
 22
16.489885418636678
 32
0.0
 13
29.006723150755089
 23
16.489885418636678
 33
0.0
  0
SOLID
  5
1297
  8
DIMENSIONS
 62
     0
 10
28.976723150755092
 20
15.859885418636679
 30
0.0
 11
29.03672315075509
 21
15.859885418636679
 31
0.0
 12
29.006723150755089
 22
16.039885418636679
 32
0.0
 13
29.006723150755089
 23
16.039885418636679
 33
0.0
  0
INSERT
  5
1298
  8
DIMENSIONS
  2
*U136
 10
0.0
 20
0.0
 30
0.0
  0
POINT
  5
1299
  8
DEFPOINTS
 62
     0
 10
30.157596075054538
 20
16.489885418636678
 30
0.0
  0
POINT
  5
129A
  8
DEFPOINTS
 62
     0
 10
30.557596075054541
 20
16.039885418636679
 30
0.0
  0
POINT
  5
129B
  8
DEFPOINTS
 62
     0
 10
29.006723150755089
 20
16.039885418636679
 30
0.0
  0
ENDBLK
  5
66A
  8
0
  0
BLOCK
  8
0
  2
*D19
 70
     1
 10
0.0
 20
0.0
 30
0.0
  3
*D19
  1

  0
LINE
  5
129C
  8
DIMENSIONS
 62
     0
 10
30.095096075054531
 20
14.98988541863668
 30
0.0
 11
28.82672315075509
 21
14.98988541863668
 31
0.0
  0
LINE
  5
129D
  8
DIMENSIONS
 62
     0
 10
30.49509607505453
 20
15.439885418636679
 30
0.0
 11
28.82672315075509
 21
15.439885418636679
 31
0.0
  0
LINE
  5
129E
  8
DIMENSIONS
 62
     0
 10
29.006723150755089
 20
14.80988541863668
 30
0.0
 11
29.006723150755089
 21
14.629885418636681
 31
0.0
  0
LINE
  5
129F
  8
DIMENSIONS
 62
     0
 10
29.006723150755089
 20
15.619885418636679
 30
0.0
 11
29.006723150755089
 21
15.799885418636681
 31
0.0
  0
SOLID
  5
12A0
  8
DIMENSIONS
 62
     0
 10
28.976723150755092
 20
14.80988541863668
 30
0.0
 11
29.03672315075509
 21
14.80988541863668
 31
0.0
 12
29.006723150755089
 22
14.98988541863668
 32
0.0
 13
29.006723150755089
 23
14.98988541863668
 33
0.0
  0
SOLID
  5
12A1
  8
DIMENSIONS
 62
     0
 10
28.976723150755092
 20
15.619885418636679
 30
0.0
 11
29.03672315075509
 21
15.619885418636679
 31
0.0
 12
29.006723150755089
 22
15.439885418636679
 32
0.0
 13
29.006723150755089
 23
15.439885418636679
 33
0.0
  0
INSERT
  5
12A2
  8
DIMENSIONS
  2
*U137
 10
0.0
 20
0.0
 30
0.0
  0
POINT
  5
12A3
  8
DEFPOINTS
 62
     0
 10
30.157596075054538
 20
14.98988541863668
 30
0.0
  0
POINT
  5
12A4
  8
DEFPOINTS
 62
     0
 10
30.557596075054541
 20
15.439885418636679
 30
0.0
  0
POINT
  5
12A5
  8
DEFPOINTS
 62
     0
 10
29.006723150755089
 20
15.439885418636679
 30
0.0
  0
ENDBLK
  5
677
  8
0
  0
BLOCK
  8
0
  2
*D20
 70
     1
 10
0.0
 20
0.0
 30
0.0
  3
*D20
  1

  0
LINE
  5
12A6
  8
DIMENSIONS
 62
     0
 10
31.720096075054538
 20
16.489885418636678
 30
0.0
 11
33.216409518201608
 21
16.489885418636678
 31
0.0
  0
LINE
  5
12A7
  8
DIMENSIONS
 62
     0
 10
31.720096075054538
 20
14.98988541863668
 30
0.0
 11
33.216409518201601
 21
14.98988541863668
 31
0.0
  0
LINE
  5
12A8
  8
DIMENSIONS
 62
     0
 10
33.036409518201609
 20
16.309885418636679
 30
0.0
 11
33.036409518201609
 21
16.187282887631639
 31
0.0
  0
LINE
  5
12A9
  8
DIMENSIONS
 62
     0
 10
33.036409518201602
 20
15.16988541863668
 30
0.0
 11
33.036409518201602
 21
15.84706801723601
 31
0.0
  0
SOLID
  5
12AA
  8
DIMENSIONS
 62
     0
 10
33.006409518201608
 20
16.309885418636679
 30
0.0
 11
33.06640951820161
 21
16.309885418636679
 31
0.0
 12
33.036409518201609
 22
16.489885418636678
 32
0.0
 13
33.036409518201609
 23
16.489885418636678
 33
0.0
  0
SOLID
  5
12AB
  8
DIMENSIONS
 62
     0
 10
33.0064095182016
 20
15.16988541863668
 30
0.0
 11
33.066409518201603
 21
15.16988541863668
 31
0.0
 12
33.036409518201602
 22
14.98988541863668
 32
0.0
 13
33.036409518201602
 23
14.98988541863668
 33
0.0
  0
INSERT
  5
12AC
  8
DIMENSIONS
  2
*U138
 10
0.0
 20
0.0
 30
0.0
  0
POINT
  5
12AD
  8
DEFPOINTS
 62
     0
 10
31.657596075054531
 20
16.489885418636678
 30
0.0
  0
POINT
  5
12AE
  8
DEFPOINTS
 62
     0
 10
31.657596075054531
 20
14.98988541863668
 30
0.0
  0
POINT
  5
12AF
  8
DEFPOINTS
 62
     0
 10
33.036409518201602
 20
14.98988541863668
 30
0.0
  0
ENDBLK
  5
684
  8
0
  0
BLOCK
  8
0
  2
*D21
 70
     1
 10
0.0
 20
0.0
 30
0.0
  3
*D21
  1

  0
LINE
  5
12B0
  8
DIMENSIONS
 62
     0
 10
30.557596075054541
 20
16.102385418636679
 30
0.0
 11
30.557596075054541
 21
17.477793877599961
 31
0.0
  0
LINE
  5
12B1
  8
DIMENSIONS
 62
     0
 10
31.357596075054541
 20
16.302385418636678
 30
0.0
 11
31.357596075054541
 21
17.477793877599961
 31
0.0
  0
LINE
  5
12B2
  8
DIMENSIONS
 62
     0
 10
31.177596075054542
 20
17.297793877599961
 30
0.0
 11
30.73759607505453
 21
17.297793877599961
 31
0.0
  0
LINE
  5
12B3
  8
DIMENSIONS
 62
     0
 10
30.557596075054541
 20
17.297793877599961
 30
0.0
 11
29.914120255768871
 21
17.297793877599961
 31
0.0
  0
SOLID
  5
12B4
  8
DIMENSIONS
 62
     0
 10
31.177596075054542
 20
17.327793877599959
 30
0.0
 11
31.177596075054542
 21
17.267793877599949
 31
0.0
 12
31.357596075054541
 22
17.297793877599961
 32
0.0
 13
31.357596075054541
 23
17.297793877599961
 33
0.0
  0
SOLID
  5
12B5
  8
DIMENSIONS
 62
     0
 10
30.73759607505453
 20
17.327793877599959
 30
0.0
 11
30.73759607505453
 21
17.267793877599949
 31
0.0
 12
30.557596075054541
 22
17.297793877599961
 32
0.0
 13
30.557596075054541
 23
17.297793877599961
 33
0.0
  0
INSERT
  5
12B6
  8
DIMENSIONS
  2
*U139
 10
0.0
 20
0.0
 30
0.0
  0
POINT
  5
12B7
  8
DEFPOINTS
 62
     0
 10
30.557596075054541
 20
16.039885418636679
 30
0.0
  0
POINT
  5
12B8
  8
DEFPOINTS
 62
     0
 10
31.357596075054541
 20
16.239885418636678
 30
0.0
  0
POINT
  5
12B9
  8
DEFPOINTS
 62
     0
 10
31.357596075054541
 20
17.297793877599961
 30
0.0
  0
ENDBLK
  5
691
  8
0
  0
BLOCK
  8
0
  2
*D22
 70
     1
 10
0.0
 20
0.0
 30
0.0
  3
*D22
  1

  0
LINE
  5
12BA
  8
DIMENSIONS
 62
     0
 10
30.157596075054538
 20
16.552385418636678
 30
0.0
 11
30.157596075054538
 21
17.121294192851721
 31
0.0
  0
LINE
  5
12BB
  8
DIMENSIONS
 62
     0
 10
30.557596075054541
 20
16.102385418636679
 30
0.0
 11
30.557596075054541
 21
17.121294192851721
 31
0.0
  0
LINE
  5
12BC
  8
DIMENSIONS
 62
     0
 10
30.73759607505453
 20
16.941294192851728
 30
0.0
 11
30.91759607505454
 21
16.941294192851728
 31
0.0
  0
LINE
  5
12BD
  8
DIMENSIONS
 62
     0
 10
29.977596075054539
 20
16.941294192851728
 30
0.0
 11
29.78585393682522
 21
16.941294192851728
 31
0.0
  0
SOLID
  5
12BE
  8
DIMENSIONS
 62
     0
 10
30.73759607505453
 20
16.97129419285173
 30
0.0
 11
30.73759607505453
 21
16.911294192851731
 31
0.0
 12
30.557596075054541
 22
16.941294192851728
 32
0.0
 13
30.557596075054541
 23
16.941294192851728
 33
0.0
  0
SOLID
  5
12BF
  8
DIMENSIONS
 62
     0
 10
29.977596075054539
 20
16.97129419285173
 30
0.0
 11
29.977596075054539
 21
16.911294192851731
 31
0.0
 12
30.157596075054538
 22
16.941294192851728
 32
0.0
 13
30.157596075054538
 23
16.941294192851728
 33
0.0
  0
INSERT
  5
12C0
  8
DIMENSIONS
  2
*U140
 10
0.0
 20
0.0
 30
0.0
  0
POINT
  5
12C1
  8
DEFPOINTS
 62
     0
 10
30.157596075054538
 20
16.489885418636678
 30
0.0
  0
POINT
  5
12C2
  8
DEFPOINTS
 62
     0
 10
30.557596075054541
 20
16.039885418636679
 30
0.0
  0
POINT
  5
12C3
  8
DEFPOINTS
 62
     0
 10
30.557596075054541
 20
16.941294192851728
 30
0.0
  0
ENDBLK
  5
69E
  8
0
  0
BLOCK
  8
0
  2
*D23
 70
     1
 10
0.0
 20
0.0
 30
0.0
  3
*D23
  1

  0
LINE
  5
12C4
  8
DIMENSIONS
 62
     0
 10
31.357596075054541
 20
16.302385418636678
 30
0.0
 11
31.357596075054541
 21
17.12304964428612
 31
0.0
  0
LINE
  5
12C5
  8
DIMENSIONS
 62
     0
 10
31.657596075054531
 20
16.552385418636678
 30
0.0
 11
31.657596075054531
 21
17.12304964428612
 31
0.0
  0
LINE
  5
12C6
  8
DIMENSIONS
 62
     0
 10
31.177596075054542
 20
16.94304964428612
 30
0.0
 11
30.997596075054538
 21
16.94304964428612
 31
0.0
  0
LINE
  5
12C7
  8
DIMENSIONS
 62
     0
 10
31.837596075054542
 20
16.94304964428612
 30
0.0
 11
32.073217812837541
 21
16.94304964428612
 31
0.0
  0
SOLID
  5
12C8
  8
DIMENSIONS
 62
     0
 10
31.177596075054542
 20
16.973049644286121
 30
0.0
 11
31.177596075054542
 21
16.913049644286119
 31
0.0
 12
31.357596075054541
 22
16.94304964428612
 32
0.0
 13
31.357596075054541
 23
16.94304964428612
 33
0.0
  0
SOLID
  5
12C9
  8
DIMENSIONS
 62
     0
 10
31.837596075054542
 20
16.973049644286121
 30
0.0
 11
31.837596075054542
 21
16.913049644286119
 31
0.0
 12
31.657596075054531
 22
16.94304964428612
 32
0.0
 13
31.657596075054531
 23
16.94304964428612
 33
0.0
  0
INSERT
  5
12CA
  8
DIMENSIONS
  2
*U141
 10
0.0
 20
0.0
 30
0.0
  0
POINT
  5
12CB
  8
DEFPOINTS
 62
     0
 10
31.357596075054541
 20
16.239885418636678
 30
0.0
  0
POINT
  5
12CC
  8
DEFPOINTS
 62
     0
 10
31.657596075054531
 20
16.489885418636678
 30
0.0
  0
POINT
  5
12CD
  8
DEFPOINTS
 62
     0
 10
31.657596075054531
 20
16.94304964428612
 30
0.0
  0
ENDBLK
  5
6AB
  8
0
  0
BLOCK
  8
0
  2
*D24
 70
     1
 10
0.0
 20
0.0
 30
0.0
  3
*D24
  1

  0
LINE
  5
12CE
  8
DIMENSIONS
 62
     0
 10
30.157596075054538
 20
16.552385418636678
 30
0.0
 11
30.157596075054538
 21
17.825029210099011
 31
0.0
  0
LINE
  5
12CF
  8
DIMENSIONS
 62
     0
 10
31.657596075054531
 20
16.552385418636678
 30
0.0
 11
31.657596075054531
 21
17.825029210099011
 31
0.0
  0
LINE
  5
12D0
  8
DIMENSIONS
 62
     0
 10
29.977596075054539
 20
17.645029210099011
 30
0.0
 11
29.797596075054528
 21
17.645029210099011
 31
0.0
  0
LINE
  5
12D1
  8
DIMENSIONS
 62
     0
 10
31.837596075054542
 20
17.645029210099011
 30
0.0
 11
32.017596075054527
 21
17.645029210099011
 31
0.0
  0
SOLID
  5
12D2
  8
DIMENSIONS
 62
     0
 10
29.977596075054539
 20
17.675029210099009
 30
0.0
 11
29.977596075054539
 21
17.61502921009901
 31
0.0
 12
30.157596075054538
 22
17.645029210099011
 32
0.0
 13
30.157596075054538
 23
17.645029210099011
 33
0.0
  0
SOLID
  5
12D3
  8
DIMENSIONS
 62
     0
 10
31.837596075054542
 20
17.675029210099009
 30
0.0
 11
31.837596075054542
 21
17.61502921009901
 31
0.0
 12
31.657596075054531
 22
17.645029210099011
 32
0.0
 13
31.657596075054531
 23
17.645029210099011
 33
0.0
  0
INSERT
  5
12D4
  8
DIMENSIONS
  2
*U142
 10
0.0
 20
0.0
 30
0.0
  0
POINT
  5
12D5
  8
DEFPOINTS
 62
     0
 10
30.157596075054538
 20
16.489885418636678
 30
0.0
  0
POINT
  5
12D6
  8
DEFPOINTS
 62
     0
 10
31.657596075054531
 20
16.489885418636678
 30
0.0
  0
POINT
  5
12D7
  8
DEFPOINTS
 62
     0
 10
31.657596075054531
 20
17.645029210099011
 30
0.0
  0
ENDBLK
  5
6B8
  8
0
  0
BLOCK
  8
0
  2
*D25
 70
     1
 10
0.0
 20
0.0
 30
0.0
  3
*D25
  1

  0
LINE
  5
12D8
  8
DIMENSIONS
 62
     0
 10
31.720096075054538
 20
13.21141291697519
 30
0.0
 11
32.66764631632585
 21
13.21141291697519
 31
0.0
  0
LINE
  5
12D9
  8
DIMENSIONS
 62
     0
 10
31.86253222484266
 20
12.581412916975189
 30
0.0
 11
32.66764631632585
 21
12.581412916975189
 31
0.0
  0
LINE
  5
12DA
  8
DIMENSIONS
 62
     0
 10
32.487646316325851
 20
13.39141291697519
 30
0.0
 11
32.487646316325851
 21
13.57141291697519
 31
0.0
  0
LINE
  5
12DB
  8
DIMENSIONS
 62
     0
 10
32.487646316325851
 20
12.40141291697519
 30
0.0
 11
32.487646316325851
 21
12.22141291697519
 31
0.0
  0
SOLID
  5
12DC
  8
DIMENSIONS
 62
     0
 10
32.45764631632585
 20
13.39141291697519
 30
0.0
 11
32.517646316325852
 21
13.39141291697519
 31
0.0
 12
32.487646316325851
 22
13.21141291697519
 32
0.0
 13
32.487646316325851
 23
13.21141291697519
 33
0.0
  0
SOLID
  5
12DD
  8
DIMENSIONS
 62
     0
 10
32.45764631632585
 20
12.40141291697519
 30
0.0
 11
32.517646316325852
 21
12.40141291697519
 31
0.0
 12
32.487646316325851
 22
12.581412916975189
 32
0.0
 13
32.487646316325851
 23
12.581412916975189
 33
0.0
  0
INSERT
  5
12DE
  8
DIMENSIONS
  2
*U143
 10
0.0
 20
0.0
 30
0.0
  0
POINT
  5
12DF
  8
DEFPOINTS
 62
     0
 10
31.657596075054531
 20
13.21141291697519
 30
0.0
  0
POINT
  5
12E0
  8
DEFPOINTS
 62
     0
 10
31.80003222484266
 20
12.581412916975189
 30
0.0
  0
POINT
  5
12E1
  8
DEFPOINTS
 62
     0
 10
32.487646316325851
 20
12.581412916975189
 30
0.0
  0
ENDBLK
  5
798
  8
0
  0
BLOCK
  8
0
  2
*D26
 70
     1
 10
0.0
 20
0.0
 30
0.0
  3
*D26
  1

  0
LINE
  5
12E2
  8
DIMENSIONS
 62
     0
 10
30.095096075054531
 20
13.21141291697519
 30
0.0
 11
29.236804027535989
 21
13.21141291697519
 31
0.0
  0
LINE
  5
12E3
  8
DIMENSIONS
 62
     0
 10
30.47509607505453
 20
13.46141291697519
 30
0.0
 11
29.236804027535989
 21
13.46141291697519
 31
0.0
  0
LINE
  5
12E4
  8
DIMENSIONS
 62
     0
 10
29.416804027535989
 20
13.03141291697519
 30
0.0
 11
29.416804027535989
 21
12.851412916975191
 31
0.0
  0
LINE
  5
12E5
  8
DIMENSIONS
 62
     0
 10
29.416804027535989
 20
13.64141291697519
 30
0.0
 11
29.416804027535989
 21
13.82141291697519
 31
0.0
  0
LINE
  5
12E6
  8
DIMENSIONS
 62
     0
 10
29.416804027535989
 20
13.82141291697519
 30
0.0
 11
29.596804027535988
 21
13.82141291697519
 31
0.0
  0
SOLID
  5
12E7
  8
DIMENSIONS
 62
     0
 10
29.386804027535991
 20
13.03141291697519
 30
0.0
 11
29.44680402753599
 21
13.03141291697519
 31
0.0
 12
29.416804027535989
 22
13.21141291697519
 32
0.0
 13
29.416804027535989
 23
13.21141291697519
 33
0.0
  0
SOLID
  5
12E8
  8
DIMENSIONS
 62
     0
 10
29.386804027535991
 20
13.64141291697519
 30
0.0
 11
29.44680402753599
 21
13.64141291697519
 31
0.0
 12
29.416804027535989
 22
13.46141291697519
 32
0.0
 13
29.416804027535989
 23
13.46141291697519
 33
0.0
  0
INSERT
  5
12E9
  8
DIMENSIONS
  2
*U144
 10
0.0
 20
0.0
 30
0.0
  0
POINT
  5
12EA
  8
DEFPOINTS
 62
     0
 10
30.157596075054538
 20
13.21141291697519
 30
0.0
  0
POINT
  5
12EB
  8
DEFPOINTS
 62
     0
 10
30.53759607505453
 20
13.46141291697519
 30
0.0
  0
POINT
  5
12EC
  8
DEFPOINTS
 62
     0
 10
29.416804027535989
 20
13.46141291697519
 30
0.0
  0
ENDBLK
  5
7A5
  8
0
  0
BLOCK
  8
0
  2
*D27
 70
     1
 10
0.0
 20
0.0
 30
0.0
  3
*D27
  1

  0
LINE
  5
FD6
  8
DIMENSIONS
 62
     0
 10
54.156030389188288
 20
13.21141291697519
 30
0.0
 11
55.103580630459611
 21
13.21141291697519
 31
0.0
  0
LINE
  5
FD7
  8
DIMENSIONS
 62
     0
 10
54.298466538976427
 20
12.581412916975189
 30
0.0
 11
55.103580630459611
 21
12.581412916975189
 31
0.0
  0
LINE
  5
FD8
  8
DIMENSIONS
 62
     0
 10
54.923580630459611
 20
13.39141291697519
 30
0.0
 11
54.923580630459611
 21
13.57141291697519
 31
0.0
  0
LINE
  5
FD9
  8
DIMENSIONS
 62
     0
 10
54.923580630459611
 20
12.40141291697519
 30
0.0
 11
54.923580630459611
 21
12.22141291697519
 31
0.0
  0
SOLID
  5
FDA
  8
DIMENSIONS
 62
     0
 10
54.89358063045961
 20
13.39141291697519
 30
0.0
 11
54.953580630459612
 21
13.39141291697519
 31
0.0
 12
54.923580630459611
 22
13.21141291697519
 32
0.0
 13
54.923580630459611
 23
13.21141291697519
 33
0.0
  0
SOLID
  5
FDB
  8
DIMENSIONS
 62
     0
 10
54.89358063045961
 20
12.40141291697519
 30
0.0
 11
54.953580630459612
 21
12.40141291697519
 31
0.0
 12
54.923580630459611
 22
12.581412916975189
 32
0.0
 13
54.923580630459611
 23
12.581412916975189
 33
0.0
  0
INSERT
  5
FDC
  8
DIMENSIONS
  2
*U113
 10
0.0
 20
0.0
 30
0.0
  0
POINT
  5
FDD
  8
DEFPOINTS
 62
     0
 10
54.093530389188302
 20
13.21141291697519
 30
0.0
  0
POINT
  5
FDE
  8
DEFPOINTS
 62
     0
 10
54.235966538976427
 20
12.581412916975189
 30
0.0
  0
POINT
  5
FDF
  8
DEFPOINTS
 62
     0
 10
54.923580630459611
 20
12.581412916975189
 30
0.0
  0
ENDBLK
  5
E28
  8
0
  0
BLOCK
  8
0
  2
*D28
 70
     1
 10
0.0
 20
0.0
 30
0.0
  3
*D28
  1

  0
LINE
  5
FE0
  8
DIMENSIONS
 62
     0
 10
52.531030389188302
 20
13.21141291697519
 30
0.0
 11
51.672738341669749
 21
13.21141291697519
 31
0.0
  0
LINE
  5
FE1
  8
DIMENSIONS
 62
     0
 10
52.661030389188312
 20
13.46141291697519
 30
0.0
 11
51.672738341669749
 21
13.46141291697519
 31
0.0
  0
LINE
  5
FE2
  8
DIMENSIONS
 62
     0
 10
51.852738341669749
 20
13.03141291697519
 30
0.0
 11
51.852738341669749
 21
12.851412916975191
 31
0.0
  0
LINE
  5
FE3
  8
DIMENSIONS
 62
     0
 10
51.852738341669749
 20
13.64141291697519
 30
0.0
 11
51.852738341669749
 21
13.82141291697519
 31
0.0
  0
LINE
  5
FE4
  8
DIMENSIONS
 62
     0
 10
51.852738341669749
 20
13.82141291697519
 30
0.0
 11
52.032738341669742
 21
13.82141291697519
 31
0.0
  0
SOLID
  5
FE5
  8
DIMENSIONS
 62
     0
 10
51.822738341669741
 20
13.03141291697519
 30
0.0
 11
51.88273834166975
 21
13.03141291697519
 31
0.0
 12
51.852738341669749
 22
13.21141291697519
 32
0.0
 13
51.852738341669749
 23
13.21141291697519
 33
0.0
  0
SOLID
  5
FE6
  8
DIMENSIONS
 62
     0
 10
51.822738341669741
 20
13.64141291697519
 30
0.0
 11
51.88273834166975
 21
13.64141291697519
 31
0.0
 12
51.852738341669749
 22
13.46141291697519
 32
0.0
 13
51.852738341669749
 23
13.46141291697519
 33
0.0
  0
INSERT
  5
FE7
  8
DIMENSIONS
  2
*U114
 10
0.0
 20
0.0
 30
0.0
  0
POINT
  5
FE8
  8
DEFPOINTS
 62
     0
 10
52.593530389188288
 20
13.21141291697519
 30
0.0
  0
POINT
  5
FE9
  8
DEFPOINTS
 62
     0
 10
52.723530389188298
 20
13.46141291697519
 30
0.0
  0
POINT
  5
FEA
  8
DEFPOINTS
 62
     0
 10
51.852738341669749
 20
13.46141291697519
 30
0.0
  0
ENDBLK
  5
E35
  8
0
  0
BLOCK
  8
0
  2
*D29
 70
     1
 10
0.0
 20
0.0
 30
0.0
  3
*D29
  1

  0
LINE
  5
1378
  8
DIMENSIONS
 62
     0
 10
52.743530389188308
 20
16.202385418636691
 30
0.0
 11
52.743530389188308
 21
17.478857304201771
 31
0.0
  0
LINE
  5
1379
  8
DIMENSIONS
 62
     0
 10
53.943530389188311
 20
16.40238541863669
 30
0.0
 11
53.943530389188311
 21
17.478857304201771
 31
0.0
  0
LINE
  5
137A
  8
DIMENSIONS
 62
     0
 10
52.563530389188308
 20
17.298857304201771
 30
0.0
 11
52.383530389188302
 21
17.298857304201771
 31
0.0
  0
LINE
  5
137B
  8
DIMENSIONS
 62
     0
 10
54.123530389188311
 20
17.298857304201771
 30
0.0
 11
54.30353038918831
 21
17.298857304201771
 31
0.0
  0
SOLID
  5
137C
  8
DIMENSIONS
 62
     0
 10
52.563530389188308
 20
17.328857304201769
 30
0.0
 11
52.563530389188308
 21
17.26885730420177
 31
0.0
 12
52.743530389188308
 22
17.298857304201771
 32
0.0
 13
52.743530389188308
 23
17.298857304201771
 33
0.0
  0
SOLID
  5
137D
  8
DIMENSIONS
 62
     0
 10
54.123530389188311
 20
17.328857304201769
 30
0.0
 11
54.123530389188311
 21
17.26885730420177
 31
0.0
 12
53.943530389188311
 22
17.298857304201771
 32
0.0
 13
53.943530389188311
 23
17.298857304201771
 33
0.0
  0
INSERT
  5
137E
  8
DIMENSIONS
  2
*U157
 10
0.0
 20
0.0
 30
0.0
  0
POINT
  5
137F
  8
DEFPOINTS
 62
     0
 10
52.743530389188308
 20
16.139885418636691
 30
0.0
  0
POINT
  5
1380
  8
DEFPOINTS
 62
     0
 10
53.943530389188311
 20
16.33988541863669
 30
0.0
  0
POINT
  5
1381
  8
DEFPOINTS
 62
     0
 10
53.943530389188311
 20
17.298857304201771
 30
0.0
  0
ENDBLK
  5
E43
  8
0
  0
BLOCK
  8
0
  2
*D30
 70
     1
 10
0.0
 20
0.0
 30
0.0
  3
*D30
  1

  0
LINE
  5
1382
  8
DIMENSIONS
 62
     0
 10
52.743530389188308
 20
16.202385418636691
 30
0.0
 11
52.743530389188308
 21
17.187647259368539
 31
0.0
  0
LINE
  5
1383
  8
DIMENSIONS
 62
     0
 10
52.593530389188302
 20
16.552385418636678
 30
0.0
 11
52.593530389188302
 21
17.187647259368539
 31
0.0
  0
LINE
  5
1384
  8
DIMENSIONS
 62
     0
 10
52.923530389188308
 20
17.00764725936855
 30
0.0
 11
53.1035303891883
 21
17.00764725936855
 31
0.0
  0
LINE
  5
1385
  8
DIMENSIONS
 62
     0
 10
52.413530389188303
 20
17.00764725936855
 30
0.0
 11
52.233530389188303
 21
17.00764725936855
 31
0.0
  0
SOLID
  5
1386
  8
DIMENSIONS
 62
     0
 10
52.923530389188308
 20
17.037647259368551
 30
0.0
 11
52.923530389188308
 21
16.977647259368538
 31
0.0
 12
52.743530389188308
 22
17.00764725936855
 32
0.0
 13
52.743530389188308
 23
17.00764725936855
 33
0.0
  0
SOLID
  5
1387
  8
DIMENSIONS
 62
     0
 10
52.413530389188303
 20
17.037647259368551
 30
0.0
 11
52.413530389188303
 21
16.977647259368538
 31
0.0
 12
52.593530389188302
 22
17.00764725936855
 32
0.0
 13
52.593530389188302
 23
17.00764725936855
 33
0.0
  0
INSERT
  5
1388
  8
DIMENSIONS
  2
*U158
 10
0.0
 20
0.0
 30
0.0
  0
POINT
  5
1389
  8
DEFPOINTS
 62
     0
 10
52.743530389188308
 20
16.139885418636691
 30
0.0
  0
POINT
  5
138A
  8
DEFPOINTS
 62
     0
 10
52.593530389188302
 20
16.489885418636678
 30
0.0
  0
POINT
  5
138B
  8
DEFPOINTS
 62
     0
 10
52.593530389188302
 20
17.00764725936855
 30
0.0
  0
ENDBLK
  5
E50
  8
0
  0
BLOCK
  8
0
  2
*D31
 70
     1
 10
0.0
 20
0.0
 30
0.0
  3
*D31
  1

  0
LINE
  5
138C
  8
DIMENSIONS
 62
     0
 10
53.943530389188311
 20
16.40238541863669
 30
0.0
 11
53.943530389188311
 21
17.182144359340089
 31
0.0
  0
LINE
  5
138D
  8
DIMENSIONS
 62
     0
 10
54.093530389188302
 20
16.552385418636678
 30
0.0
 11
54.093530389188302
 21
17.182144359340089
 31
0.0
  0
LINE
  5
138E
  8
DIMENSIONS
 62
     0
 10
53.763530389188311
 20
17.00214435934009
 30
0.0
 11
53.583530389188311
 21
17.00214435934009
 31
0.0
  0
LINE
  5
138F
  8
DIMENSIONS
 62
     0
 10
54.273530389188302
 20
17.00214435934009
 30
0.0
 11
54.453530389188302
 21
17.00214435934009
 31
0.0
  0
SOLID
  5
1390
  8
DIMENSIONS
 62
     0
 10
53.763530389188311
 20
17.032144359340091
 30
0.0
 11
53.763530389188311
 21
16.972144359340088
 31
0.0
 12
53.943530389188311
 22
17.00214435934009
 32
0.0
 13
53.943530389188311
 23
17.00214435934009
 33
0.0
  0
SOLID
  5
1391
  8
DIMENSIONS
 62
     0
 10
54.273530389188302
 20
17.032144359340091
 30
0.0
 11
54.273530389188302
 21
16.972144359340088
 31
0.0
 12
54.093530389188302
 22
17.00214435934009
 32
0.0
 13
54.093530389188302
 23
17.00214435934009
 33
0.0
  0
INSERT
  5
1392
  8
DIMENSIONS
  2
*U159
 10
0.0
 20
0.0
 30
0.0
  0
POINT
  5
1393
  8
DEFPOINTS
 62
     0
 10
53.943530389188311
 20
16.33988541863669
 30
0.0
  0
POINT
  5
1394
  8
DEFPOINTS
 62
     0
 10
54.093530389188302
 20
16.489885418636678
 30
0.0
  0
POINT
  5
1395
  8
DEFPOINTS
 62
     0
 10
54.093530389188302
 20
17.00214435934009
 30
0.0
  0
ENDBLK
  5
E5D
  8
0
  0
BLOCK
  8
0
  2
*D32
 70
     1
 10
0.0
 20
0.0
 30
0.0
  3
*D32
  1

  0
LINE
  5
1396
  8
DIMENSIONS
 62
     0
 10
52.531030389188302
 20
16.489885418636678
 30
0.0
 11
51.742458468677839
 21
16.489885418636678
 31
0.0
  0
LINE
  5
1397
  8
DIMENSIONS
 62
     0
 10
52.681030389188301
 20
16.139885418636691
 30
0.0
 11
51.742458468677839
 21
16.139885418636691
 31
0.0
  0
LINE
  5
1398
  8
DIMENSIONS
 62
     0
 10
51.922458468677839
 20
16.669885418636682
 30
0.0
 11
51.922458468677839
 21
16.849885418636681
 31
0.0
  0
LINE
  5
1399
  8
DIMENSIONS
 62
     0
 10
51.922458468677839
 20
15.959885418636681
 30
0.0
 11
51.922458468677839
 21
15.77988541863669
 31
0.0
  0
SOLID
  5
139A
  8
DIMENSIONS
 62
     0
 10
51.892458468677837
 20
16.669885418636682
 30
0.0
 11
51.95245846867784
 21
16.669885418636682
 31
0.0
 12
51.922458468677839
 22
16.489885418636678
 32
0.0
 13
51.922458468677839
 23
16.489885418636678
 33
0.0
  0
SOLID
  5
139B
  8
DIMENSIONS
 62
     0
 10
51.892458468677837
 20
15.959885418636681
 30
0.0
 11
51.95245846867784
 21
15.959885418636681
 31
0.0
 12
51.922458468677839
 22
16.139885418636691
 32
0.0
 13
51.922458468677839
 23
16.139885418636691
 33
0.0
  0
INSERT
  5
139C
  8
DIMENSIONS
  2
*U160
 10
0.0
 20
0.0
 30
0.0
  0
POINT
  5
139D
  8
DEFPOINTS
 62
     0
 10
52.593530389188302
 20
16.489885418636678
 30
0.0
  0
POINT
  5
139E
  8
DEFPOINTS
 62
     0
 10
52.743530389188308
 20
16.139885418636691
 30
0.0
  0
POINT
  5
139F
  8
DEFPOINTS
 62
     0
 10
51.922458468677839
 20
16.139885418636691
 30
0.0
  0
ENDBLK
  5
E6A
  8
0
  0
BLOCK
  8
0
  2
*D33
 70
     1
 10
0.0
 20
0.0
 30
0.0
  3
*D33
  1

  0
LINE
  5
13A0
  8
DIMENSIONS
 62
     0
 10
52.681030389188301
 20
16.139885418636691
 30
0.0
 11
51.742458468677839
 21
16.139885418636691
 31
0.0
  0
LINE
  5
13A1
  8
DIMENSIONS
 62
     0
 10
52.681030389188301
 20
15.33988541863669
 30
0.0
 11
51.742458468677832
 21
15.33988541863669
 31
0.0
  0
LINE
  5
13A2
  8
DIMENSIONS
 62
     0
 10
51.922458468677839
 20
15.959885418636681
 30
0.0
 11
51.922458468677839
 21
15.90506139947073
 31
0.0
  0
LINE
  5
13A3
  8
DIMENSIONS
 62
     0
 10
51.922458468677839
 20
15.51988541863669
 30
0.0
 11
51.922458468677839
 21
15.564846529075091
 31
0.0
  0
SOLID
  5
13A4
  8
DIMENSIONS
 62
     0
 10
51.892458468677837
 20
15.959885418636681
 30
0.0
 11
51.95245846867784
 21
15.959885418636681
 31
0.0
 12
51.922458468677839
 22
16.139885418636691
 32
0.0
 13
51.922458468677839
 23
16.139885418636691
 33
0.0
  0
SOLID
  5
13A5
  8
DIMENSIONS
 62
     0
 10
51.892458468677837
 20
15.51988541863669
 30
0.0
 11
51.95245846867784
 21
15.51988541863669
 31
0.0
 12
51.922458468677839
 22
15.33988541863669
 32
0.0
 13
51.922458468677839
 23
15.33988541863669
 33
0.0
  0
INSERT
  5
13A6
  8
DIMENSIONS
  2
*U161
 10
0.0
 20
0.0
 30
0.0
  0
POINT
  5
13A7
  8
DEFPOINTS
 62
     0
 10
52.743530389188308
 20
16.139885418636691
 30
0.0
  0
POINT
  5
13A8
  8
DEFPOINTS
 62
     0
 10
52.743530389188308
 20
15.33988541863669
 30
0.0
  0
POINT
  5
13A9
  8
DEFPOINTS
 62
     0
 10
51.922458468677839
 20
15.33988541863669
 30
0.0
  0
ENDBLK
  5
E77
  8
0
  0
BLOCK
  8
0
  2
*D34
 70
     1
 10
0.0
 20
0.0
 30
0.0
  3
*D34
  1

  0
LINE
  5
13AA
  8
DIMENSIONS
 62
     0
 10
52.531030389188302
 20
14.98988541863668
 30
0.0
 11
51.742458468677832
 21
14.989885418636691
 31
0.0
  0
LINE
  5
13AB
  8
DIMENSIONS
 62
     0
 10
52.681030389188301
 20
15.33988541863669
 30
0.0
 11
51.742458468677832
 21
15.33988541863669
 31
0.0
  0
LINE
  5
13AC
  8
DIMENSIONS
 62
     0
 10
51.922458468677839
 20
14.809885418636689
 30
0.0
 11
51.922458468677839
 21
14.629885418636681
 31
0.0
  0
LINE
  5
13AD
  8
DIMENSIONS
 62
     0
 10
51.922458468677839
 20
15.51988541863669
 30
0.0
 11
51.922458468677839
 21
15.69988541863669
 31
0.0
  0
SOLID
  5
13AE
  8
DIMENSIONS
 62
     0
 10
51.892458468677837
 20
14.809885418636689
 30
0.0
 11
51.95245846867784
 21
14.809885418636689
 31
0.0
 12
51.922458468677839
 22
14.989885418636691
 32
0.0
 13
51.922458468677839
 23
14.989885418636691
 33
0.0
  0
SOLID
  5
13AF
  8
DIMENSIONS
 62
     0
 10
51.892458468677837
 20
15.51988541863669
 30
0.0
 11
51.95245846867784
 21
15.51988541863669
 31
0.0
 12
51.922458468677839
 22
15.33988541863669
 32
0.0
 13
51.922458468677839
 23
15.33988541863669
 33
0.0
  0
INSERT
  5
13B0
  8
DIMENSIONS
  2
*U162
 10
0.0
 20
0.0
 30
0.0
  0
POINT
  5
13B1
  8
DEFPOINTS
 62
     0
 10
52.593530389188302
 20
14.98988541863668
 30
0.0
  0
POINT
  5
13B2
  8
DEFPOINTS
 62
     0
 10
52.743530389188308
 20
15.33988541863669
 30
0.0
  0
POINT
  5
13B3
  8
DEFPOINTS
 62
     0
 10
51.922458468677839
 20
15.33988541863669
 30
0.0
  0
ENDBLK
  5
E84
  8
0
  0
BLOCK
  8
0
  2
*D35
 70
     1
 10
0.0
 20
0.0
 30
0.0
  3
*D35
  1

  0
LINE
  5
13B4
  8
DIMENSIONS
 62
     0
 10
54.006030389188311
 20
16.33988541863669
 30
0.0
 11
55.7618634917728
 21
16.33988541863669
 31
0.0
  0
LINE
  5
13B5
  8
DIMENSIONS
 62
     0
 10
54.006030389188311
 20
15.13988541863668
 30
0.0
 11
55.7618634917728
 21
15.13988541863668
 31
0.0
  0
LINE
  5
13B6
  8
DIMENSIONS
 62
     0
 10
55.581863491772801
 20
16.159885418636691
 30
0.0
 11
55.581863491772801
 21
15.90752459320465
 31
0.0
  0
LINE
  5
13B7
  8
DIMENSIONS
 62
     0
 10
55.581863491772801
 20
15.31988541863668
 30
0.0
 11
55.581863491772801
 21
15.56730972280902
 31
0.0
  0
SOLID
  5
13B8
  8
DIMENSIONS
 62
     0
 10
55.551863491772799
 20
16.159885418636691
 30
0.0
 11
55.611863491772809
 21
16.159885418636691
 31
0.0
 12
55.581863491772801
 22
16.33988541863669
 32
0.0
 13
55.581863491772801
 23
16.33988541863669
 33
0.0
  0
SOLID
  5
13B9
  8
DIMENSIONS
 62
     0
 10
55.551863491772792
 20
15.31988541863668
 30
0.0
 11
55.611863491772802
 21
15.31988541863668
 31
0.0
 12
55.581863491772801
 22
15.13988541863668
 32
0.0
 13
55.581863491772801
 23
15.13988541863668
 33
0.0
  0
INSERT
  5
13BA
  8
DIMENSIONS
  2
*U163
 10
0.0
 20
0.0
 30
0.0
  0
POINT
  5
13BB
  8
DEFPOINTS
 62
     0
 10
53.943530389188311
 20
16.33988541863669
 30
0.0
  0
POINT
  5
13BC
  8
DEFPOINTS
 62
     0
 10
53.943530389188311
 20
15.13988541863668
 30
0.0
  0
POINT
  5
13BD
  8
DEFPOINTS
 62
     0
 10
55.581863491772801
 20
15.13988541863668
 30
0.0
  0
ENDBLK
  5
E91
  8
0
  0
BLOCK
  8
0
  2
*D36
 70
     1
 10
0.0
 20
0.0
 30
0.0
  3
*D36
  1

  0
LINE
  5
15A0
  8
DIMENSIONS
 62
     0
 10
54.156030389188302
 20
14.98988541863668
 30
0.0
 11
54.790646639569061
 21
14.98988541863668
 31
0.0
  0
LINE
  5
15A1
  8
DIMENSIONS
 62
     0
 10
54.006030389188311
 20
15.13988541863668
 30
0.0
 11
54.790646639569061
 21
15.13988541863668
 31
0.0
  0
LINE
  5
15A2
  8
DIMENSIONS
 62
     0
 10
54.610646639569062
 20
14.80988541863668
 30
0.0
 11
54.610646639569062
 21
14.629885418636681
 31
0.0
  0
LINE
  5
15A3
  8
DIMENSIONS
 62
     0
 10
54.610646639569062
 20
15.31988541863668
 30
0.0
 11
54.610646639569062
 21
15.49988541863668
 31
0.0
  0
LINE
  5
15A4
  8
DIMENSIONS
 62
     0
 10
54.790646639569061
 20
14.629885418636681
 30
0.0
 11
54.610646639569062
 21
14.629885418636681
 31
0.0
  0
TEXT
  8
DIMENSIONS
  40
0.125
  5
168B
  62
0
  72
0
  71
0
 10
55.0826
 20
14.4086
 30
0.000000
  1
0.150 [3.81]
  0
SOLID
  5
15A6
  8
DIMENSIONS
 62
     0
 10
54.580646639569061
 20
14.80988541863668
 30
0.0
 11
54.640646639569063
 21
14.80988541863668
 31
0.0
 12
54.610646639569062
 22
14.98988541863668
 32
0.0
 13
54.610646639569062
 23
14.98988541863668
 33
0.0
  0
SOLID
  5
15A7
  8
DIMENSIONS
 62
     0
 10
54.580646639569061
 20
15.31988541863668
 30
0.0
 11
54.640646639569063
 21
15.31988541863668
 31
0.0
 12
54.610646639569062
 22
15.13988541863668
 32
0.0
 13
54.610646639569062
 23
15.13988541863668
 33
0.0
  0
POINT
  5
15A8
  8
DEFPOINTS
 62
     0
 10
54.093530389188302
 20
14.98988541863668
 30
0.0
  0
POINT
  5
15A9
  8
DEFPOINTS
 62
     0
 10
53.943530389188311
 20
15.13988541863668
 30
0.0
  0
POINT
  5
15AA
  8
DEFPOINTS
 62
     0
 10
54.610646639569062
 20
15.13988541863668
 30
0.0
  0
ENDBLK
  5
EAB
  8
0
  0
BLOCK
  8
0
  2
*D37
 70
     1
 10
0.0
 20
0.0
 30
0.0
  3
*D37
  1

  0
LINE
  5
13C9
  8
DIMENSIONS
 62
     0
 10
52.531030389188302
 20
14.98988541863668
 30
0.0
 11
50.905506380903127
 21
14.989885418636691
 31
0.0
  0
LINE
  5
13CA
  8
DIMENSIONS
 62
     0
 10
52.531030389188302
 20
16.489885418636678
 30
0.0
 11
50.905506380903141
 21
16.489885418636678
 31
0.0
  0
LINE
  5
13CB
  8
DIMENSIONS
 62
     0
 10
51.085506380903141
 20
15.16988541863669
 30
0.0
 11
51.085506380903141
 21
15.86434532445211
 31
0.0
  0
LINE
  5
13CC
  8
DIMENSIONS
 62
     0
 10
51.085506380903141
 20
16.309885418636679
 30
0.0
 11
51.085506380903141
 21
16.204560194847751
 31
0.0
  0
SOLID
  5
13CD
  8
DIMENSIONS
 62
     0
 10
51.055506380903132
 20
15.16988541863669
 30
0.0
 11
51.115506380903142
 21
15.16988541863669
 31
0.0
 12
51.085506380903141
 22
14.989885418636691
 32
0.0
 13
51.085506380903141
 23
14.989885418636691
 33
0.0
  0
SOLID
  5
13CE
  8
DIMENSIONS
 62
     0
 10
51.055506380903132
 20
16.309885418636679
 30
0.0
 11
51.115506380903142
 21
16.309885418636679
 31
0.0
 12
51.085506380903141
 22
16.489885418636678
 32
0.0
 13
51.085506380903141
 23
16.489885418636678
 33
0.0
  0
INSERT
  5
13CF
  8
DIMENSIONS
  2
*U164
 10
0.0
 20
0.0
 30
0.0
  0
POINT
  5
13D0
  8
DEFPOINTS
 62
     0
 10
52.593530389188302
 20
14.98988541863668
 30
0.0
  0
POINT
  5
13D1
  8
DEFPOINTS
 62
     0
 10
52.593530389188302
 20
16.489885418636678
 30
0.0
  0
POINT
  5
13D2
  8
DEFPOINTS
 62
     0
 10
51.085506380903141
 20
16.489885418636678
 30
0.0
  0
ENDBLK
  5
EB8
  8
0
  0
BLOCK
  8
0
  2
*D38
 70
     1
 10
0.0
 20
0.0
 30
0.0
  3
*D38
  1

  0
LINE
  5
13D3
  8
DIMENSIONS
 62
     0
 10
52.593530389188302
 20
16.552385418636678
 30
0.0
 11
52.593530389188302
 21
17.75514338404156
 31
0.0
  0
LINE
  5
13D4
  8
DIMENSIONS
 62
     0
 10
54.093530389188302
 20
16.552385418636678
 30
0.0
 11
54.093530389188302
 21
17.75514338404156
 31
0.0
  0
LINE
  5
13D5
  8
DIMENSIONS
 62
     0
 10
52.413530389188303
 20
17.57514338404156
 30
0.0
 11
52.233530389188303
 21
17.57514338404156
 31
0.0
  0
LINE
  5
13D6
  8
DIMENSIONS
 62
     0
 10
54.273530389188302
 20
17.57514338404156
 30
0.0
 11
54.453530389188302
 21
17.57514338404156
 31
0.0
  0
SOLID
  5
13D7
  8
DIMENSIONS
 62
     0
 10
52.413530389188303
 20
17.605143384041568
 30
0.0
 11
52.413530389188303
 21
17.545143384041559
 31
0.0
 12
52.593530389188302
 22
17.57514338404156
 32
0.0
 13
52.593530389188302
 23
17.57514338404156
 33
0.0
  0
SOLID
  5
13D8
  8
DIMENSIONS
 62
     0
 10
54.273530389188302
 20
17.605143384041568
 30
0.0
 11
54.273530389188302
 21
17.545143384041559
 31
0.0
 12
54.093530389188302
 22
17.57514338404156
 32
0.0
 13
54.093530389188302
 23
17.57514338404156
 33
0.0
  0
INSERT
  5
13D9
  8
DIMENSIONS
  2
*U165
 10
0.0
 20
0.0
 30
0.0
  0
POINT
  5
13DA
  8
DEFPOINTS
 62
     0
 10
52.593530389188302
 20
16.489885418636678
 30
0.0
  0
POINT
  5
13DB
  8
DEFPOINTS
 62
     0
 10
54.093530389188302
 20
16.489885418636678
 30
0.0
  0
POINT
  5
13DC
  8
DEFPOINTS
 62
     0
 10
54.093530389188302
 20
17.57514338404156
 30
0.0
  0
ENDBLK
  5
EC5
  8
0
  0
BLOCK
  8
0
  2
*D39
 70
     1
 10
0.0
 20
0.0
 30
0.0
  3
*D39
  1

  0
LINE
  5
136D
  8
DIMENSIONS
 62
     0
 10
42.551068968734171
 20
15.71679898418823
 30
0.0
 11
44.035335756941457
 21
15.71679898418823
 31
0.0
  0
LINE
  5
136E
  8
DIMENSIONS
 62
     0
 10
42.551068968734157
 20
16.216798984188241
 30
0.0
 11
44.035335756941457
 21
16.216798984188241
 31
0.0
  0
LINE
  5
136F
  8
DIMENSIONS
 62
     0
 10
43.855335756941457
 20
15.536798984188231
 30
0.0
 11
43.855335756941457
 21
15.356798984188231
 31
0.0
  0
LINE
  5
1370
  8
DIMENSIONS
 62
     0
 10
43.855335756941457
 20
16.396798984188241
 30
0.0
 11
43.855335756941457
 21
16.57679898418823
 31
0.0
  0
LINE
  5
1371
  8
DIMENSIONS
 62
     0
 10
43.855335756941457
 20
16.57679898418823
 30
0.0
 11
44.035335756941457
 21
16.57679898418823
 31
0.0
  0
SOLID
  5
1372
  8
DIMENSIONS
 62
     0
 10
43.825335756941463
 20
15.536798984188231
 30
0.0
 11
43.885335756941458
 21
15.536798984188231
 31
0.0
 12
43.855335756941457
 22
15.71679898418823
 32
0.0
 13
43.855335756941457
 23
15.71679898418823
 33
0.0
  0
SOLID
  5
1373
  8
DIMENSIONS
 62
     0
 10
43.825335756941463
 20
16.396798984188241
 30
0.0
 11
43.885335756941458
 21
16.396798984188241
 31
0.0
 12
43.855335756941457
 22
16.216798984188241
 32
0.0
 13
43.855335756941457
 23
16.216798984188241
 33
0.0
  0
INSERT
  5
1374
  8
DIMENSIONS
  2
*U156
 10
0.0
 20
0.0
 30
0.0
  0
POINT
  5
1375
  8
DEFPOINTS
 62
     0
 10
42.488568968734178
 20
15.71679898418823
 30
0.0
  0
POINT
  5
1376
  8
DEFPOINTS
 62
     0
 10
42.488568968734171
 20
16.216798984188241
 30
0.0
  0
POINT
  5
1377
  8
DEFPOINTS
 62
     0
 10
43.855335756941457
 20
16.216798984188241
 30
0.0
  0
ENDBLK
  5
1069
  8
0
  0
BLOCK
  8
0
  2
*D40
 70
     1
 10
0.0
 20
0.0
 30
0.0
  3
*D40
  1

  0
LINE
  5
13DD
  8
DIMENSIONS
 62
     0
 10
54.00603038918829
 20
15.73988541863668
 30
0.0
 11
54.900486832234307
 21
15.73988541863668
 31
0.0
  0
LINE
  5
13DE
  8
DIMENSIONS
 62
     0
 10
54.006030389188311
 20
16.33988541863669
 30
0.0
 11
54.900486832234307
 21
16.33988541863669
 31
0.0
  0
LINE
  5
13DF
  8
DIMENSIONS
 62
     0
 10
54.7204868322343
 20
15.91988541863669
 30
0.0
 11
54.720486832234307
 21
16.159885418636691
 31
0.0
  0
LINE
  5
13E0
  8
DIMENSIONS
 62
     0
 10
54.720486832234307
 20
16.33988541863669
 30
0.0
 11
54.720486832234307
 21
16.69988541863669
 31
0.0
  0
LINE
  5
13E1
  8
DIMENSIONS
 62
     0
 10
54.720486832234307
 20
16.69988541863669
 30
0.0
 11
54.900486832234307
 21
16.69988541863669
 31
0.0
  0
SOLID
  5
13E2
  8
DIMENSIONS
 62
     0
 10
54.690486832234299
 20
15.91988541863669
 30
0.0
 11
54.750486832234301
 21
15.91988541863669
 31
0.0
 12
54.7204868322343
 22
15.73988541863668
 32
0.0
 13
54.7204868322343
 23
15.73988541863668
 33
0.0
  0
SOLID
  5
13E3
  8
DIMENSIONS
 62
     0
 10
54.690486832234313
 20
16.159885418636691
 30
0.0
 11
54.750486832234309
 21
16.159885418636691
 31
0.0
 12
54.720486832234307
 22
16.33988541863669
 32
0.0
 13
54.720486832234307
 23
16.33988541863669
 33
0.0
  0
INSERT
  5
13E4
  8
DIMENSIONS
  2
*U166
 10
0.0
 20
0.0
 30
0.0
  0
POINT
  5
13E5
  8
DEFPOINTS
 62
     0
 10
53.94353038918829
 20
15.73988541863668
 30
0.0
  0
POINT
  5
13E6
  8
DEFPOINTS
 62
     0
 10
53.943530389188311
 20
16.33988541863669
 30
0.0
  0
POINT
  5
13E7
  8
DEFPOINTS
 62
     0
 10
54.720486832234307
 20
16.33988541863669
 30
0.0
  0
ENDBLK
  5
10C3
  8
0
  0
BLOCK
  8
0
  2
*U42
 70
     1
 10
0.0
 20
0.0
 30
0.0
  3
*U42
  1

  0
TEXT
  5
1460
  8
PINOUT
 10
41.205203716732917
 20
10.57546004401328
 30
0.0
 40
0.125
  1
PIN #
  0
ENDBLK
  5
1462
  8
0
  0
BLOCK
  8
0
  2
*U43
 70
     1
 10
0.0
 20
0.0
 30
0.0
  3
*U43
  1

  0
TEXT
  5
1464
  8
PINOUT
 10
42.099894719581272
 20
10.5752371658649
 30
0.0
 40
0.125
  1
FUNCTION
  0
ENDBLK
  5
1466
  8
0
  0
BLOCK
  8
0
  2
*U44
 70
     1
 10
0.0
 20
0.0
 30
0.0
  3
*U44
  1

  0
TEXT
  5
1468
  8
PINOUT
 10
41.370350832668819
 20
10.225980442362729
 30
0.0
 40
0.125
  1
1
  0
ENDBLK
  5
146A
  8
0
  0
BLOCK
  8
0
  2
*U45
 70
     1
 10
0.0
 20
0.0
 30
0.0
  3
*U45
  1

  0
TEXT
  5
146C
  8
PINOUT
 10
41.382141489380771
 20
9.8754949228685582
 30
0.0
 40
0.125
  1
2
  0
ENDBLK
  5
146E
  8
0
  0
BLOCK
  8
0
  2
*U46
 70
     1
 10
0.0
 20
0.0
 30
0.0
  3
*U46
  1

  0
TEXT
  5
1470
  8
PINOUT
 10
41.374805936630672
 20
9.5250363909642708
 30
0.0
 40
0.125
  1
3
  0
ENDBLK
  5
1472
  8
0
  0
BLOCK
  8
0
  2
*U47
 70
     1
 10
0.0
 20
0.0
 30
0.0
  3
*U47
  1

  0
TEXT
  5
1474
  8
PINOUT
 10
41.384378908122919
 20
9.1747796819702412
 30
0.0
 40
0.125
  1
4
  0
ENDBLK
  5
1476
  8
0
  0
BLOCK
  8
0
  2
*U48
 70
     1
 10
0.0
 20
0.0
 30
0.0
  3
*U48
  1

  0
TEXT
  5
1478
  8
PINOUT
 10
42.113665183428459
 20
9.5217045275424024
 30
0.0
 40
0.125
  1
+ OUTPUT
  0
ENDBLK
  5
147A
  8
0
  0
BLOCK
  8
0
  2
*U49
 70
     1
 10
0.0
 20
0.0
 30
0.0
  3
*U49
  1

  0
TEXT
  5
147C
  8
PINOUT
 10
42.234657680017833
 20
9.8753745852667336
 30
0.0
 40
0.125
  1
- INPUT
  0
ENDBLK
  5
147E
  8
0
  0
BLOCK
  8
0
  2
*U50
 70
     1
 10
0.0
 20
0.0
 30
0.0
  3
*U50
  1

  0
TEXT
  5
1480
  8
PINOUT
 10
42.210655292568987
 20
10.225860104760891
 30
0.0
 40
0.125
  1
+ INPUT
  0
ENDBLK
  5
1482
  8
0
  0
BLOCK
  8
0
  2
*U51
 70
     1
 10
0.0
 20
0.0
 30
0.0
  3
*U51
  1

  0
TEXT
  5
1484
  8
PINOUT
 10
42.137667570877291
 20
9.1683685465144542
 30
0.0
 40
0.125
  1
- OUTPUT
  0
ENDBLK
  5
1486
  8
0
  0
BLOCK
  8
0
  2
*U52
 70
     1
 10
0.0
 20
0.0
 30
0.0
  3
*U52
  1

  0
TEXT
  5
1488
  8
PINOUT
 10
41.152070928114732
 20
10.917699313407059
 30
0.0
 40
0.125
  1
ALTERNATE PINOUT (/B)
  0
ENDBLK
  5
148A
  8
0
  0
BLOCK
  8
0
  2
*U53
 70
     1
 10
0.0
 20
0.0
 30
0.0
  3
*U53
  1

  0
TEXT
  5
148C
  8
DIMENSIONS
 10
40.438725697805417
 20
13.950536221557259
 30
0.0
 40
0.125
  1
MIN PIN LENGTH
  0
ENDBLK
  5
148E
  8
0
  0
BLOCK
  8
0
  2
*U54
 70
     1
 10
0.0
 20
0.0
 30
0.0
  3
*U54
  1

  0
TEXT
  5
1490
  8
CONVERTER
 10
41.358998137786628
 20
15.28669629239667
 30
0.0
 40
0.08
  1
2
  0
ENDBLK
  5
1492
  8
0
  0
BLOCK
  8
0
  2
*U55
 70
     1
 10
0.0
 20
0.0
 30
0.0
  3
*U55
  1

  0
TEXT
  5
1494
  8
CONVERTER
 10
41.350103185535602
 20
16.08669629239666
 30
0.0
 40
0.08
  1
1
  0
ENDBLK
  5
1496
  8
0
  0
BLOCK
  8
0
  2
*U56
 70
     1
 10
0.0
 20
0.0
 30
0.0
  3
*U56
  1

  0
TEXT
  5
1498
  8
CONVERTER
 10
42.358112514552097
 20
15.187023713951911
 30
0.0
 40
0.0800000000000001
  1
4
  0
ENDBLK
  5
149A
  8
0
  0
BLOCK
  8
0
  2
*U57
 70
     1
 10
0.0
 20
0.0
 30
0.0
  3
*U57
  1

  0
TEXT
  5
149C
  8
CONVERTER
 10
42.357785092996842
 20
16.186696292396661
 30
0.0
 40
0.0800000000000001
  1
3
  0
ENDBLK
  5
149E
  8
0
  0
BLOCK
  8
0
  2
*U58
 70
     1
 10
0.0
 20
0.0
 30
0.0
  3
*U58
  1

  0
SOLID
  5
14A0
  8
DIMENSIONS
 10
41.98413567333975
 20
12.42595551132713
 30
0.0
 11
41.888568968734148
 21
12.581412916975189
 31
0.0
 12
42.029388523571249
 22
12.465353221234251
 32
0.0
 13
42.029388523571249
 23
12.465353221234251
 33
0.0
  0
POLYLINE
  5
14A1
  8
DIMENSIONS
 66
     1
 10
0.0
 20
0.0
 30
0.0
  0
VERTEX
  5
14A2
  8
DIMENSIONS
 10
42.006762098455511
 20
12.44565436628069
 30
0.0
  0
VERTEX
  5
14A3
  8
DIMENSIONS
 10
42.279445203350733
 20
12.1324461179948
 30
0.0
  0
VERTEX
  5
14A4
  8
DIMENSIONS
 10
42.467895445200611
 20
12.13214140169139
 30
0.0
  0
SEQEND
  5
14A5
  8
DIMENSIONS
  0
ENDBLK
  5
14A7
  8
0
  0
BLOCK
  8
0
  2
*U59
 70
     1
 10
0.0
 20
0.0
 30
0.0
  3
*U59
  1

  0
TEXT
  5
14A9
  8
DIMENSIONS
 10
42.534538834481943
 20
12.085147725897279
 30
0.0
 40
0.125
  1
BLACK PHENOLIC CASE
  0
ENDBLK
  5
14AB
  8
0
  0
BLOCK
  8
0
  2
*U60
 70
     1
 10
0.0
 20
0.0
 30
0.0
  3
*U60
  1

  0
SOLID
  5
14AD
  8
DIMENSIONS
 10
41.994873899727757
 20
13.359734397706889
 30
0.0
 11
41.888568968734148
 21
13.21141291697519
 31
0.0
 12
41.941023423220528
 22
13.38619429528689
 32
0.0
 13
41.941023423220528
 23
13.38619429528689
 33
0.0
  0
POLYLINE
  5
14AE
  8
DIMENSIONS
 66
     1
 10
0.0
 20
0.0
 30
0.0
  0
VERTEX
  5
14AF
  8
DIMENSIONS
 10
41.967948661474153
 20
13.372964346496889
 30
0.0
  0
VERTEX
  5
14B0
  8
DIMENSIONS
 10
42.406767748806089
 20
14.266037227140121
 30
0.0
  0
VERTEX
  5
14B1
  8
DIMENSIONS
 10
42.541862383225087
 20
14.26593931342965
 30
0.0
  0
SEQEND
  5
14B2
  8
DIMENSIONS
  0
ENDBLK
  5
14B4
  8
0
  0
BLOCK
  8
0
  2
*U61
 70
     1
 10
0.0
 20
0.0
 30
0.0
  3
*U61
  1

  0
TEXT
  5
14B6
  8
DIMENSIONS
 10
42.596118274862633
 20
14.206795565825431
 30
0.0
 40
0.125
  1
NONCONDUCTIVE BASE PLATE
  0
ENDBLK
  5
14B8
  8
0
  0
BLOCK
  8
0
  2
*U62
 70
     1
 10
0.0
 20
0.0
 30
0.0
  3
*U62
  1

  0
SOLID
  5
14BA
  8
DIMENSIONS
 10
42.61032167743241
 20
13.609241942811209
 30
0.0
 11
42.503568968734157
 21
13.461242418536351
 31
0.0
 12
42.556551415035258
 22
13.63586446864444
 32
0.0
 13
42.556551415035258
 23
13.63586446864444
 33
0.0
  0
POLYLINE
  5
14BB
  8
DIMENSIONS
 66
     1
 10
0.0
 20
0.0
 30
0.0
  0
VERTEX
  5
14BC
  8
DIMENSIONS
 10
42.583436546233827
 20
13.62255320572782
 30
0.0
  0
VERTEX
  5
14BD
  8
DIMENSIONS
 10
42.720890704476311
 20
13.90017322580327
 30
0.0
  0
VERTEX
  5
14BE
  8
DIMENSIONS
 10
42.856495468776558
 20
13.899792416077799
 30
0.0
  0
SEQEND
  5
14BF
  8
DIMENSIONS
  0
ENDBLK
  5
14C1
  8
0
  0
BLOCK
  8
0
  2
*U63
 70
     1
 10
0.0
 20
0.0
 30
0.0
  3
*U63
  1

  0
TEXT
  5
14C3
  8
DIMENSIONS
 10
42.893320542290759
 20
13.842203222506569
 30
0.0
 40
0.125
  1
PINS -  0.040 [0.11] Dia.
  0
ENDBLK
  5
14C5
  8
0
  0
BLOCK
  8
0
  2
*U64
 70
     1
 10
0.0
 20
0.0
 30
0.0
  3
*U64
  1

  0
TEXT
  5
14C7
  8
DIMENSIONS
 10
42.992199444133611
 20
13.634708826718249
 30
0.0
 40
0.125
  1
TIN PLATED BRASS, MATTE FINISH
  0
ENDBLK
  5
14C9
  8
0
  0
BLOCK
  8
0
  2
*U65
 70
     1
 10
0.0
 20
0.0
 30
0.0
  3
*U65
  1

  0
TEXT
  5
14CB
  8
CONVERTER
 10
30.62802524410699
 20
15.40978272684511
 30
0.0
 40
0.08
  1
2
  0
ENDBLK
  5
14CD
  8
0
  0
BLOCK
  8
0
  2
*U66
 70
     1
 10
0.0
 20
0.0
 30
0.0
  3
*U66
  1

  0
TEXT
  5
14CF
  8
CONVERTER
 10
30.619130291855971
 20
16.00978272684511
 30
0.0
 40
0.08
  1
1
  0
ENDBLK
  5
14D1
  8
0
  0
BLOCK
  8
0
  2
*U67
 70
     1
 10
0.0
 20
0.0
 30
0.0
  3
*U67
  1

  0
TEXT
  5
14D3
  8
CONVERTER
 10
31.227139620872471
 20
15.210110148400361
 30
0.0
 40
0.0800000000000001
  1
4
  0
ENDBLK
  5
14D5
  8
0
  0
BLOCK
  8
0
  2
*U68
 70
     1
 10
0.0
 20
0.0
 30
0.0
  3
*U68
  1

  0
TEXT
  5
14D7
  8
CONVERTER
 10
31.226812199317219
 20
16.209782726845109
 30
0.0
 40
0.0800000000000001
  1
3
  0
ENDBLK
  5
14D9
  8
0
  0
BLOCK
  8
0
  2
*U69
 70
     1
 10
0.0
 20
0.0
 30
0.0
  3
*U69
  1

  0
TEXT
  5
14DB
  8
DIMENSIONS
 10
29.526505843453101
 20
13.96948041103869
 30
0.0
 40
0.125
  1
MIN PIN LENGTH
  0
ENDBLK
  5
14DD
  8
0
  0
BLOCK
  8
0
  2
*U70
 70
     1
 10
0.0
 20
0.0
 30
0.0
  3
*U70
  1

  0
SOLID
  5
14DF
  8
DIMENSIONS
 10
31.003162779660141
 20
12.42595551132713
 30
0.0
 11
30.907596075054538
 21
12.581412916975189
 31
0.0
 12
31.04841562989164
 22
12.465353221234251
 32
0.0
 13
31.04841562989164
 23
12.465353221234251
 33
0.0
  0
POLYLINE
  5
14E0
  8
DIMENSIONS
 66
     1
 10
0.0
 20
0.0
 30
0.0
  0
VERTEX
  5
14E1
  8
DIMENSIONS
 10
31.02578920477589
 20
12.44565436628069
 30
0.0
  0
VERTEX
  5
14E2
  8
DIMENSIONS
 10
31.298472309671109
 20
12.1324461179948
 30
0.0
  0
VERTEX
  5
14E3
  8
DIMENSIONS
 10
31.486922551521001
 20
12.13214140169139
 30
0.0
  0
SEQEND
  5
14E4
  8
DIMENSIONS
  0
ENDBLK
  5
14E6
  8
0
  0
BLOCK
  8
0
  2
*U71
 70
     1
 10
0.0
 20
0.0
 30
0.0
  3
*U71
  1

  0
TEXT
  5
14E8
  8
DIMENSIONS
 10
31.553565940802329
 20
12.085147725897279
 30
0.0
 40
0.125
  1
BLACK PHENOLIC CASE
  0
ENDBLK
  5
14EA
  8
0
  0
BLOCK
  8
0
  2
*U72
 70
     1
 10
0.0
 20
0.0
 30
0.0
  3
*U72
  1

  0
SOLID
  5
14EC
  8
DIMENSIONS
 10
31.013901006048151
 20
13.359734397706889
 30
0.0
 11
30.907596075054538
 21
13.21141291697519
 31
0.0
 12
30.960050529540919
 22
13.38619429528689
 32
0.0
 13
30.960050529540919
 23
13.38619429528689
 33
0.0
  0
POLYLINE
  5
14ED
  8
DIMENSIONS
 66
     1
 10
0.0
 20
0.0
 30
0.0
  0
VERTEX
  5
14EE
  8
DIMENSIONS
 10
30.986975767794529
 20
13.372964346496889
 30
0.0
  0
VERTEX
  5
14EF
  8
DIMENSIONS
 10
31.425794855126469
 20
14.266037227140121
 30
0.0
  0
VERTEX
  5
14F0
  8
DIMENSIONS
 10
31.560889489545492
 20
14.26593931342965
 30
0.0
  0
SEQEND
  5
14F1
  8
DIMENSIONS
  0
ENDBLK
  5
14F3
  8
0
  0
BLOCK
  8
0
  2
*U73
 70
     1
 10
0.0
 20
0.0
 30
0.0
  3
*U73
  1

  0
TEXT
  5
14F5
  8
DIMENSIONS
 10
31.615145381183009
 20
14.206795565825431
 30
0.0
 40
0.125
  1
NONCONDUCTIVE BASE PLATE
  0
ENDBLK
  5
14F7
  8
0
  0
BLOCK
  8
0
  2
*U74
 70
     1
 10
0.0
 20
0.0
 30
0.0
  3
*U74
  1

  0
SOLID
  5
14F9
  8
DIMENSIONS
 10
31.479348783752791
 20
13.609241942811209
 30
0.0
 11
31.372596075054538
 21
13.461242418536351
 31
0.0
 12
31.425578521355629
 22
13.63586446864444
 32
0.0
 13
31.425578521355629
 23
13.63586446864444
 33
0.0
  0
POLYLINE
  5
14FA
  8
DIMENSIONS
 66
     1
 10
0.0
 20
0.0
 30
0.0
  0
VERTEX
  5
14FB
  8
DIMENSIONS
 10
31.452463652554211
 20
13.62255320572782
 30
0.0
  0
VERTEX
  5
14FC
  8
DIMENSIONS
 10
31.589917810796688
 20
13.90017322580327
 30
0.0
  0
VERTEX
  5
14FD
  8
DIMENSIONS
 10
31.725522575096932
 20
13.899792416077799
 30
0.0
  0
SEQEND
  5
14FE
  8
DIMENSIONS
  0
ENDBLK
  5
1500
  8
0
  0
BLOCK
  8
0
  2
*U75
 70
     1
 10
0.0
 20
0.0
 30
0.0
  3
*U75
  1

  0
TEXT
  5
1502
  8
DIMENSIONS
 10
31.762347648611119
 20
13.842203222506569
 30
0.0
 40
0.125
  1
PINS -  0.040 [0.11] Dia.
  0
ENDBLK
  5
1504
  8
0
  0
BLOCK
  8
0
  2
*U76
 70
     1
 10
0.0
 20
0.0
 30
0.0
  3
*U76
  1

  0
TEXT
  5
1506
  8
DIMENSIONS
 10
31.861226550453988
 20
13.634708826718249
 30
0.0
 40
0.125
  1
TIN PLATED BRASS, MATTE FINISH
  0
ENDBLK
  5
1508
  8
0
  0
BLOCK
  8
0
  2
*U77
 70
     1
 10
0.0
 20
0.0
 30
0.0
  3
*U77
  1

  0
TEXT
  5
150A
  8
PINOUT
 10
28.937284940344551
 20
10.59854647846173
 30
0.0
 40
0.125
  1
PIN #
  0
ENDBLK
  5
150C
  8
0
  0
BLOCK
  8
0
  2
*U78
 70
     1
 10
0.0
 20
0.0
 30
0.0
  3
*U78
  1

  0
TEXT
  5
150E
  8
PINOUT
 10
29.831975943192901
 20
10.59832360031335
 30
0.0
 40
0.125
  1
FUNCTION
  0
ENDBLK
  5
1510
  8
0
  0
BLOCK
  8
0
  2
*U79
 70
     1
 10
0.0
 20
0.0
 30
0.0
  3
*U79
  1

  0
TEXT
  5
1512
  8
PINOUT
 10
29.102432056280449
 20
10.24906687681119
 30
0.0
 40
0.125
  1
1
  0
ENDBLK
  5
1514
  8
0
  0
BLOCK
  8
0
  2
*U80
 70
     1
 10
0.0
 20
0.0
 30
0.0
  3
*U80
  1

  0
TEXT
  5
1516
  8
PINOUT
 10
29.114222712992401
 20
9.8985813573170098
 30
0.0
 40
0.125
  1
2
  0
ENDBLK
  5
1518
  8
0
  0
BLOCK
  8
0
  2
*U81
 70
     1
 10
0.0
 20
0.0
 30
0.0
  3
*U81
  1

  0
TEXT
  5
151A
  8
PINOUT
 10
29.106887160242302
 20
9.5481228254127224
 30
0.0
 40
0.125
  1
3
  0
ENDBLK
  5
151C
  8
0
  0
BLOCK
  8
0
  2
*U82
 70
     1
 10
0.0
 20
0.0
 30
0.0
  3
*U82
  1

  0
TEXT
  5
151E
  8
PINOUT
 10
29.116460131734559
 20
9.1978661164186946
 30
0.0
 40
0.125
  1
4
  0
ENDBLK
  5
1520
  8
0
  0
BLOCK
  8
0
  2
*U83
 70
     1
 10
0.0
 20
0.0
 30
0.0
  3
*U83
  1

  0
TEXT
  5
1522
  8
PINOUT
 10
29.8457464070401
 20
9.1943054424966828
 30
0.0
 40
0.125
  1
+ OUTPUT
  0
ENDBLK
  5
1524
  8
0
  0
BLOCK
  8
0
  2
*U84
 70
     1
 10
0.0
 20
0.0
 30
0.0
  3
*U84
  1

  0
TEXT
  5
1526
  8
PINOUT
 10
29.966738903629452
 20
9.8984610197151852
 30
0.0
 40
0.125
  1
- INPUT
  0
ENDBLK
  5
1528
  8
0
  0
BLOCK
  8
0
  2
*U85
 70
     1
 10
0.0
 20
0.0
 30
0.0
  3
*U85
  1

  0
TEXT
  5
152A
  8
PINOUT
 10
29.94273651618062
 20
10.24894653920934
 30
0.0
 40
0.125
  1
+ INPUT
  0
ENDBLK
  5
152C
  8
0
  0
BLOCK
  8
0
  2
*U86
 70
     1
 10
0.0
 20
0.0
 30
0.0
  3
*U86
  1

  0
TEXT
  5
152E
  8
PINOUT
 10
29.86974879448892
 20
9.5419405004570859
 30
0.0
 40
0.125
  1
- OUTPUT
  0
ENDBLK
  5
1530
  8
0
  0
BLOCK
  8
0
  2
*U87
 70
     1
 10
0.0
 20
0.0
 30
0.0
  3
*U87
  1

  0
TEXT
  5
1532
  8
PINOUT
 10
29.157387144905091
 20
10.923476743762739
 30
0.0
 40
0.125
  1
DEFAULT PINOUT
  0
ENDBLK
  5
1534
  8
0
  0
BLOCK
  8
0
  2
*U88
 70
     1
 10
0.0
 20
0.0
 30
0.0
  3
*U88
  1

  0
TEXT
  5
1536
  8
PINOUT
 10
31.1807938218939
 20
10.59854647846173
 30
0.0
 40
0.125
  1
PIN #
  0
ENDBLK
  5
1538
  8
0
  0
BLOCK
  8
0
  2
*U89
 70
     1
 10
0.0
 20
0.0
 30
0.0
  3
*U89
  1

  0
TEXT
  5
153A
  8
PINOUT
 10
32.07548482474224
 20
10.59832360031335
 30
0.0
 40
0.125
  1
FUNCTION
  0
ENDBLK
  5
153C
  8
0
  0
BLOCK
  8
0
  2
*U90
 70
     1
 10
0.0
 20
0.0
 30
0.0
  3
*U90
  1

  0
TEXT
  5
153E
  8
PINOUT
 10
31.345940937829791
 20
10.24906687681119
 30
0.0
 40
0.125
  1
1
  0
ENDBLK
  5
1540
  8
0
  0
BLOCK
  8
0
  2
*U91
 70
     1
 10
0.0
 20
0.0
 30
0.0
  3
*U91
  1

  0
TEXT
  5
1542
  8
PINOUT
 10
31.35773159454175
 20
9.8985813573170098
 30
0.0
 40
0.125
  1
2
  0
ENDBLK
  5
1544
  8
0
  0
BLOCK
  8
0
  2
*U92
 70
     1
 10
0.0
 20
0.0
 30
0.0
  3
*U92
  1

  0
TEXT
  5
1546
  8
PINOUT
 10
31.350396041791651
 20
9.5481228254127224
 30
0.0
 40
0.125
  1
3
  0
ENDBLK
  5
1548
  8
0
  0
BLOCK
  8
0
  2
*U93
 70
     1
 10
0.0
 20
0.0
 30
0.0
  3
*U93
  1

  0
TEXT
  5
154A
  8
PINOUT
 10
31.359969013283902
 20
9.1978661164186946
 30
0.0
 40
0.125
  1
4
  0
ENDBLK
  5
154C
  8
0
  0
BLOCK
  8
0
  2
*U94
 70
     1
 10
0.0
 20
0.0
 30
0.0
  3
*U94
  1

  0
TEXT
  5
154E
  8
PINOUT
 10
32.089255288589442
 20
9.5447909619908522
 30
0.0
 40
0.125
  1
+ OUTPUT
  0
ENDBLK
  5
1550
  8
0
  0
BLOCK
  8
0
  2
*U95
 70
     1
 10
0.0
 20
0.0
 30
0.0
  3
*U95
  1

  0
TEXT
  5
1552
  8
PINOUT
 10
32.210247785178801
 20
9.8984610197151852
 30
0.0
 40
0.125
  1
- INPUT
  0
ENDBLK
  5
1554
  8
0
  0
BLOCK
  8
0
  2
*U96
 70
     1
 10
0.0
 20
0.0
 30
0.0
  3
*U96
  1

  0
TEXT
  5
1556
  8
PINOUT
 10
32.186245397729962
 20
10.24894653920934
 30
0.0
 40
0.125
  1
+ INPUT
  0
ENDBLK
  5
1558
  8
0
  0
BLOCK
  8
0
  2
*U97
 70
     1
 10
0.0
 20
0.0
 30
0.0
  3
*U97
  1

  0
TEXT
  5
155A
  8
PINOUT
 10
32.11325767603828
 20
9.1914549809629076
 30
0.0
 40
0.125
  1
- OUTPUT
  0
ENDBLK
  5
155C
  8
0
  0
BLOCK
  8
0
  2
*U98
 70
     1
 10
0.0
 20
0.0
 30
0.0
  3
*U98
  1

  0
TEXT
  5
155E
  8
PINOUT
 10
31.127661033275711
 20
10.940785747855511
 30
0.0
 40
0.125
  1
ALTERNATE PINOUT (/A)
  0
ENDBLK
  5
1560
  8
0
  0
BLOCK
  8
0
  2
*U99
 70
     1
 10
0.0
 20
0.0
 30
0.0
  3
*U99
  1

  0
TEXT
  5
1562
  8
DIMENSIONS
 10
51.893687118259557
 20
13.950536221557259
 30
0.0
 40
0.125
  1
MIN PIN LENGTH
  0
ENDBLK
  5
1564
  8
0
  0
BLOCK
  8
0
  2
*U100
 70
     1
 10
0.0
 20
0.0
 30
0.0
  3
*U100
  1

  0
TEXT
  5
1566
  8
CONVERTER
 10
52.813959558240768
 20
15.309782726845119
 30
0.0
 40
0.08
  1
2
  0
ENDBLK
  5
1568
  8
0
  0
BLOCK
  8
0
  2
*U101
 70
     1
 10
0.0
 20
0.0
 30
0.0
  3
*U101
  1

  0
TEXT
  5
156A
  8
CONVERTER
 10
52.805064605989742
 20
16.109782726845111
 30
0.0
 40
0.08
  1
1
  0
ENDBLK
  5
156C
  8
0
  0
BLOCK
  8
0
  2
*U102
 70
     1
 10
0.0
 20
0.0
 30
0.0
  3
*U102
  1

  0
TEXT
  5
156E
  8
CONVERTER
 10
53.813073935006237
 20
15.110110148400359
 30
0.0
 40
0.0800000000000001
  1
4
  0
ENDBLK
  5
1570
  8
0
  0
BLOCK
  8
0
  2
*U103
 70
     1
 10
0.0
 20
0.0
 30
0.0
  3
*U103
  1

  0
TEXT
  5
1572
  8
CONVERTER
 10
53.812746513450989
 20
16.309782726845121
 30
0.0
 40
0.0800000000000001
  1
3
  0
ENDBLK
  5
1574
  8
0
  0
BLOCK
  8
0
  2
*U104
 70
     1
 10
0.0
 20
0.0
 30
0.0
  3
*U104
  1

  0
SOLID
  5
1576
  8
DIMENSIONS
 10
53.43909709379389
 20
12.42595551132713
 30
0.0
 11
53.343530389188302
 21
12.581412916975189
 31
0.0
 12
53.484349944025389
 22
12.465353221234251
 32
0.0
 13
53.484349944025389
 23
12.465353221234251
 33
0.0
  0
POLYLINE
  5
1577
  8
DIMENSIONS
 66
     1
 10
0.0
 20
0.0
 30
0.0
  0
VERTEX
  5
1578
  8
DIMENSIONS
 10
53.46172351890965
 20
12.44565436628069
 30
0.0
  0
VERTEX
  5
1579
  8
DIMENSIONS
 10
53.734406623804873
 20
12.1324461179948
 30
0.0
  0
VERTEX
  5
157A
  8
DIMENSIONS
 10
53.922856865654751
 20
12.13214140169139
 30
0.0
  0
SEQEND
  5
157B
  8
DIMENSIONS
  0
ENDBLK
  5
157D
  8
0
  0
BLOCK
  8
0
  2
*U105
 70
     1
 10
0.0
 20
0.0
 30
0.0
  3
*U105
  1

  0
TEXT
  5
157F
  8
DIMENSIONS
 10
53.989500254936083
 20
12.085147725897279
 30
0.0
 40
0.125
  1
BLACK PHENOLIC CASE
  0
ENDBLK
  5
1581
  8
0
  0
BLOCK
  8
0
  2
*U106
 70
     1
 10
0.0
 20
0.0
 30
0.0
  3
*U106
  1

  0
SOLID
  5
1583
  8
DIMENSIONS
 10
53.449835320181897
 20
13.359734397706889
 30
0.0
 11
53.343530389188302
 21
13.21141291697519
 31
0.0
 12
53.395984843674668
 22
13.38619429528689
 32
0.0
 13
53.395984843674668
 23
13.38619429528689
 33
0.0
  0
POLYLINE
  5
1584
  8
DIMENSIONS
 66
     1
 10
0.0
 20
0.0
 30
0.0
  0
VERTEX
  5
1585
  8
DIMENSIONS
 10
53.422910081928293
 20
13.372964346496889
 30
0.0
  0
VERTEX
  5
1586
  8
DIMENSIONS
 10
53.831216944292663
 20
14.203939562217871
 30
0.0
  0
VERTEX
  5
1587
  8
DIMENSIONS
 10
53.996823803679241
 20
14.203939562217871
 30
0.0
  0
SEQEND
  5
1588
  8
DIMENSIONS
  0
ENDBLK
  5
158A
  8
0
  0
BLOCK
  8
0
  2
*U107
 70
     1
 10
0.0
 20
0.0
 30
0.0
  3
*U107
  1

  0
TEXT
  5
158C
  8
DIMENSIONS
 10
54.051079695316773
 20
14.14479581461366
 30
0.0
 40
0.125
  1
NONCONDUCTIVE BASE PLATE
  0
ENDBLK
  5
158E
  8
0
  0
BLOCK
  8
0
  2
*U108
 70
     1
 10
0.0
 20
0.0
 30
0.0
  3
*U108
  1

  0
SOLID
  5
1590
  8
DIMENSIONS
 10
54.06528309788655
 20
13.609241942811209
 30
0.0
 11
53.958530389188297
 21
13.461242418536351
 31
0.0
 12
54.011512835489398
 22
13.63586446864444
 32
0.0
 13
54.011512835489398
 23
13.63586446864444
 33
0.0
  0
POLYLINE
  5
1591
  8
DIMENSIONS
 66
     1
 10
0.0
 20
0.0
 30
0.0
  0
VERTEX
  5
1592
  8
DIMENSIONS
 10
54.038397966687981
 20
13.62255320572782
 30
0.0
  0
VERTEX
  5
1593
  8
DIMENSIONS
 10
54.175852124930458
 20
13.90017322580327
 30
0.0
  0
VERTEX
  5
1594
  8
DIMENSIONS
 10
54.311456889230698
 20
13.899792416077799
 30
0.0
  0
SEQEND
  5
1595
  8
DIMENSIONS
  0
ENDBLK
  5
1597
  8
0
  0
BLOCK
  8
0
  2
*U109
 70
     1
 10
0.0
 20
0.0
 30
0.0
  3
*U109
  1

  0
TEXT
  5
1599
  8
DIMENSIONS
 10
54.348281962744899
 20
13.842203222506569
 30
0.0
 40
0.125
  1
PINS -  0.040 [0.11] Dia.
  0
ENDBLK
  5
159B
  8
0
  0
BLOCK
  8
0
  2
*U110
 70
     1
 10
0.0
 20
0.0
 30
0.0
  3
*U110
  1

  0
TEXT
  5
159D
  8
DIMENSIONS
 10
54.447160864587751
 20
13.634708826718249
 30
0.0
 40
0.125
  1
TIN PLATED BRASS, MATTE FINISH
  0
ENDBLK
  5
159F
  8
0
  0
BLOCK
  8
0
  2
*U111
 70
     1
 10
0.0
 20
0.0
 30
0.0
  3
*U111
  1

  0
TEXT
  5
15AC
  8
DIMENSIONS
 62
     0
 10
42.960902634289234
 20
12.84182523221399
 30
0.0
 40
0.125
  1
0.630 [16.00]
  0
ENDBLK
  5
15AE
  8
0
  0
BLOCK
  8
0
  2
*U112
 70
     1
 10
0.0
 20
0.0
 30
0.0
  3
*U112
  1

  0
TEXT
  5
15B0
  8
DIMENSIONS
 62
     0
 10
40.660529308664451
 20
13.776264554082969
 30
0.0
 40
0.125
  1
0.250 [6.35]
  0
ENDBLK
  5
15B2
  8
0
  0
BLOCK
  8
0
  2
*U113
 70
     1
 10
0.0
 20
0.0
 30
0.0
  3
*U113
  1

  0
TEXT
  5
15B4
  8
DIMENSIONS
 62
     0
 10
54.415864054743373
 20
12.84182523221399
 30
0.0
 40
0.125
  1
0.630 [16.00]
  0
ENDBLK
  5
15B6
  8
0
  0
BLOCK
  8
0
  2
*U114
 70
     1
 10
0.0
 20
0.0
 30
0.0
  3
*U114
  1

  0
TEXT
  5
15B8
  8
DIMENSIONS
 62
     0
 10
52.115490729118591
 20
13.776264554082969
 30
0.0
 40
0.125
  1
0.250 [6.35]
  0
ENDBLK
  5
15BA
  8
0
  0
BLOCK
  8
0
  2
*U115
 70
     1
 10
0.0
 20
0.0
 30
0.0
  3
*U115
  1

  0
TEXT
  5
15BC
  8
CONVERTER
 10
42.357184820145562
 20
15.687023713951911
 30
0.0
 40
0.0800000000000001
  1
5
  0
ENDBLK
  5
15BE
  8
0
  0
BLOCK
  8
0
  2
*U116
 70
     1
 10
0.0
 20
0.0
 30
0.0
  3
*U116
  1

  0
TEXT
  5
15C0
  8
PINOUT
 10
41.381138798982413
 20
8.8253599878512361
 30
0.0
 40
0.125
  1
5
  0
ENDBLK
  5
15C2
  8
0
  0
BLOCK
  8
0
  2
*U117
 70
     1
 10
0.0
 20
0.0
 30
0.0
  3
*U117
  1

  0
TEXT
  5
15C4
  8
PINOUT
 10
42.349511022446201
 20
8.8178830270202777
 30
0.0
 40
0.125
  1
COM
  0
ENDBLK
  5
15C6
  8
0
  0
BLOCK
  8
0
  2
*U118
 70
     1
 10
0.0
 20
0.0
 30
0.0
  3
*U118
  1

  0
TEXT
  5
15C8
  8
CONVERTER
 10
53.812146240599681
 20
15.71011014840037
 30
0.0
 40
0.0800000000000001
  1
5
  0
ENDBLK
  5
15CA
  8
0
  0
BLOCK
  8
0
  2
*U119
 70
     1
 10
0.0
 20
0.0
 30
0.0
  3
*U119
  1

  0
TEXT
  5
15CC
  8
PINOUT
 10
52.396296764925012
 20
10.57546004401328
 30
0.0
 40
0.125
  1
PIN #
  0
ENDBLK
  5
15CE
  8
0
  0
BLOCK
  8
0
  2
*U120
 70
     1
 10
0.0
 20
0.0
 30
0.0
  3
*U120
  1

  0
TEXT
  5
15D0
  8
PINOUT
 10
53.290987767773359
 20
10.5752371658649
 30
0.0
 40
0.125
  1
FUNCTION
  0
ENDBLK
  5
15D2
  8
0
  0
BLOCK
  8
0
  2
*U121
 70
     1
 10
0.0
 20
0.0
 30
0.0
  3
*U121
  1

  0
TEXT
  5
15D4
  8
PINOUT
 10
52.561443880860921
 20
10.225980442362729
 30
0.0
 40
0.125
  1
1
  0
ENDBLK
  5
15D6
  8
0
  0
BLOCK
  8
0
  2
*U122
 70
     1
 10
0.0
 20
0.0
 30
0.0
  3
*U122
  1

  0
TEXT
  5
15D8
  8
PINOUT
 10
52.573234537572873
 20
9.8754949228685582
 30
0.0
 40
0.125
  1
2
  0
ENDBLK
  5
15DA
  8
0
  0
BLOCK
  8
0
  2
*U123
 70
     1
 10
0.0
 20
0.0
 30
0.0
  3
*U123
  1

  0
TEXT
  5
15DC
  8
PINOUT
 10
52.565898984822773
 20
9.5250363909642708
 30
0.0
 40
0.125
  1
3
  0
ENDBLK
  5
15DE
  8
0
  0
BLOCK
  8
0
  2
*U124
 70
     1
 10
0.0
 20
0.0
 30
0.0
  3
*U124
  1

  0
TEXT
  5
15E0
  8
PINOUT
 10
52.57547195631502
 20
9.1747796819702412
 30
0.0
 40
0.125
  1
4
  0
ENDBLK
  5
15E2
  8
0
  0
BLOCK
  8
0
  2
*U125
 70
     1
 10
0.0
 20
0.0
 30
0.0
  3
*U125
  1

  0
TEXT
  5
15E4
  8
PINOUT
 10
53.304758231620568
 20
9.5217045275424024
 30
0.0
 40
0.125
  1
+ OUTPUT
  0
ENDBLK
  5
15E6
  8
0
  0
BLOCK
  8
0
  2
*U126
 70
     1
 10
0.0
 20
0.0
 30
0.0
  3
*U126
  1

  0
TEXT
  5
15E8
  8
PINOUT
 10
53.42575072820992
 20
9.8753745852667336
 30
0.0
 40
0.125
  1
- INPUT
  0
ENDBLK
  5
15EA
  8
0
  0
BLOCK
  8
0
  2
*U127
 70
     1
 10
0.0
 20
0.0
 30
0.0
  3
*U127
  1

  0
TEXT
  5
15EC
  8
PINOUT
 10
53.401748340761081
 20
10.225860104760891
 30
0.0
 40
0.125
  1
+ INPUT
  0
ENDBLK
  5
15EE
  8
0
  0
BLOCK
  8
0
  2
*U128
 70
     1
 10
0.0
 20
0.0
 30
0.0
  3
*U128
  1

  0
TEXT
  5
15F0
  8
PINOUT
 10
53.328760619069399
 20
9.1683685465144542
 30
0.0
 40
0.125
  1
- OUTPUT
  0
ENDBLK
  5
15F2
  8
0
  0
BLOCK
  8
0
  2
*U129
 70
     1
 10
0.0
 20
0.0
 30
0.0
  3
*U129
  1

  0
TEXT
  5
15F4
  8
PINOUT
 10
52.338346445611059
 20
10.917699313407059
 30
0.0
 40
0.125
  1
ALTERNATE PINOUT (/C)
  0
ENDBLK
  5
15F6
  8
0
  0
BLOCK
  8
0
  2
*U130
 70
     1
 10
0.0
 20
0.0
 30
0.0
  3
*U130
  1

  0
TEXT
  5
15F8
  8
PINOUT
 10
52.5722318471745
 20
8.8253599878512361
 30
0.0
 40
0.125
  1
5
  0
ENDBLK
  5
15FA
  8
0
  0
BLOCK
  8
0
  2
*U131
 70
     1
 10
0.0
 20
0.0
 30
0.0
  3
*U131
  1

  0
TEXT
  5
15FC
  8
PINOUT
 10
53.540604070638302
 20
8.8178830270202777
 30
0.0
 40
0.125
  1
COM
  0
ENDBLK
  5
15FE
  8
0
  0
BLOCK
  8
0
  2
*U132
 70
     1
 10
0.0
 20
0.0
 30
0.0
  3
*U132
  1

  0
TEXT
  5
1600
  8
DIMENSIONS
 62
     0
 10
29.07976521629384
 20
15.696824759577209
 30
0.0
 40
0.125
  1
0.600 [15.24]
  0
ENDBLK
  5
1602
  8
0
  0
BLOCK
  8
0
  2
*U133
 70
     1
 10
0.0
 20
0.0
 30
0.0
  3
*U133
  1

  0
TEXT
  5
1604
  8
DIMENSIONS
 62
     0
 10
31.732584544784501
 20
15.67020609302566
 30
0.0
 40
0.125
  1
1.000 [25.40]
  0
ENDBLK
  5
1606
  8
0
  0
BLOCK
  8
0
  2
*U134
 70
     1
 10
0.0
 20
0.0
 30
0.0
  3
*U134
  1

  0
TEXT
  5
1608
  8
DIMENSIONS
 62
     0
 10
31.78702690494821
 20
16.319737055744461
 30
0.0
 40
0.125
  1
0.250 [6.35]
  0
ENDBLK
  5
160A
  8
0
  0
BLOCK
  8
0
  2
*U135
 70
     1
 10
0.0
 20
0.0
 30
0.0
  3
*U135
  1

  0
TEXT
  5
160C
  8
DIMENSIONS
 62
     0
 10
31.78702690494821
 20
15.06973705574447
 30
0.0
 40
0.125
  1
0.250 [6.35]
  0
ENDBLK
  5
160E
  8
0
  0
BLOCK
  8
0
  2
*U136
 70
     1
 10
0.0
 20
0.0
 30
0.0
  3
*U136
  1

  0
TEXT
  5
1610
  8
DIMENSIONS
 62
     0
 10
28.499006575038852
 20
16.219737055744471
 30
0.0
 40
0.125
  1
0.450 [11.43]
  0
ENDBLK
  5
1612
  8
0
  0
BLOCK
  8
0
  2
*U137
 70
     1
 10
0.0
 20
0.0
 30
0.0
  3
*U137
  1

  0
TEXT
  5
1614
  8
DIMENSIONS
 62
     0
 10
28.499006575038852
 20
15.169737055744459
 30
0.0
 40
0.125
  1
0.450 [11.43]
  0
ENDBLK
  5
1616
  8
0
  0
BLOCK
  8
0
  2
*U138
 70
     1
 10
0.0
 20
0.0
 30
0.0
  3
*U138
  1

  0
TEXT
  5
1618
  8
DIMENSIONS
 62
     0
 10
32.522809586414432
 20
15.97202708954161
 30
0.0
 40
0.125
  1
1.500 [38.10]
  0
ENDBLK
  5
161A
  8
0
  0
BLOCK
  8
0
  2
*U139
 70
     1
 10
0.0
 20
0.0
 30
0.0
  3
*U139
  1

  0
TEXT
  5
161C
  8
DIMENSIONS
 62
     0
 10
28.815934716887561
 20
17.25264551470773
 30
0.0
 40
0.125
  1
0.800 [20.32]
  0
ENDBLK
  5
161E
  8
0
  0
BLOCK
  8
0
  2
*U140
 70
     1
 10
0.0
 20
0.0
 30
0.0
  3
*U140
  1

  0
TEXT
  5
1620
  8
DIMENSIONS
 62
     0
 10
28.687668397943909
 20
16.896145829959501
 30
0.0
 40
0.125
  1
0.400 [10.16]
  0
ENDBLK
  5
1622
  8
0
  0
BLOCK
  8
0
  2
*U141
 70
     1
 10
0.0
 20
0.0
 30
0.0
  3
*U141
  1

  0
TEXT
  5
1624
  8
DIMENSIONS
 62
     0
 10
32.15597020028639
 20
16.897901281393889
 30
0.0
 40
0.125
  1
0.300 [7.62]
  0
ENDBLK
  5
1626
  8
0
  0
BLOCK
  8
0
  2
*U142
 70
     1
 10
0.0
 20
0.0
 30
0.0
  3
*U142
  1

  0
TEXT
  5
1628
  8
DIMENSIONS
 62
     0
 10
30.369931575897379
 20
17.599880847206791
 30
0.0
 40
0.125
  1
1.500 [38.10]
  0
ENDBLK
  5
162A
  8
0
  0
BLOCK
  8
0
  2
*U143
 70
     1
 10
0.0
 20
0.0
 30
0.0
  3
*U143
  1

  0
TEXT
  5
162C
  8
DIMENSIONS
 62
     0
 10
31.979929740609609
 20
12.84182523221399
 30
0.0
 40
0.125
  1
0.630 [16.00]
  0
ENDBLK
  5
162E
  8
0
  0
BLOCK
  8
0
  2
*U144
 70
     1
 10
0.0
 20
0.0
 30
0.0
  3
*U144
  1

  0
TEXT
  5
1630
  8
DIMENSIONS
 62
     0
 10
29.67955641498483
 20
13.776264554082969
 30
0.0
 40
0.125
  1
0.250 [6.35]
  0
ENDBLK
  5
1632
  8
0
  0
BLOCK
  8
0
  2
*U145
 70
     1
 10
0.0
 20
0.0
 30
0.0
  3
*U145
  1

  0
TEXT
  5
1634
  8
DIMENSIONS
 62
     0
 10
41.385925577241622
 20
17.13062250686108
 30
0.0
 40
0.125
  1
1.200 [30.48]
  0
ENDBLK
  5
1636
  8
0
  0
BLOCK
  8
0
  2
*U146
 70
     1
 10
0.0
 20
0.0
 30
0.0
  3
*U146
  1

  0
TEXT
  5
1638
  8
DIMENSIONS
 62
     0
 10
39.777501438038392
 20
16.759412462027871
 30
0.0
 40
0.125
  1
0.150 [3.81]
  0
ENDBLK
  5
163A
  8
0
  0
BLOCK
  8
0
  2
*U147
 70
     1
 10
0.0
 20
0.0
 30
0.0
  3
*U147
  1

  0
TEXT
  5
163C
  8
DIMENSIONS
 62
     0
 10
43.081321356182997
 20
16.77257583907878
 30
0.0
 40
0.125
  1
0.150 [3.81]
  0
ENDBLK
  5
163E
  8
0
  0
BLOCK
  8
0
  2
*U148
 70
     1
 10
0.0
 20
0.0
 30
0.0
  3
*U148
  1

  0
TEXT
  5
1640
  8
DIMENSIONS
 62
     0
 10
40.008339476600227
 20
16.24665062129602
 30
0.0
 40
0.125
  1
0.350 [8.89]
  0
ENDBLK
  5
1642
  8
0
  0
BLOCK
  8
0
  2
*U149
 70
     1
 10
0.0
 20
0.0
 30
0.0
  3
*U149
  1

  0
TEXT
  5
1644
  8
DIMENSIONS
 62
     0
 10
39.959780472507461
 20
15.666719166932239
 30
0.0
 40
0.125
  1
0.800 [20.32]
  0
ENDBLK
  5
1646
  8
0
  0
BLOCK
  8
0
  2
*U150
 70
     1
 10
0.0
 20
0.0
 30
0.0
  3
*U150
  1

  0
TEXT
  5
1648
  8
DIMENSIONS
 62
     0
 10
40.008339476600227
 20
15.096650621296019
 30
0.0
 40
0.125
  1
0.350 [8.89]
  0
ENDBLK
  5
164A
  8
0
  0
BLOCK
  8
0
  2
*U151
 70
     1
 10
0.0
 20
0.0
 30
0.0
  3
*U151
  1

  0
TEXT
  5
164C
  8
DIMENSIONS
 62
     0
 10
44.052219720345562
 20
15.669593737437809
 30
0.0
 40
0.125
  1
1.000 [25.40]
  0
ENDBLK
  5
164E
  8
0
  0
BLOCK
  8
0
  2
*U152
 70
     1
 10
0.0
 20
0.0
 30
0.0
  3
*U152
  1

  0
TEXT
  5
1650
  8
DIMENSIONS
 62
     0
 10
42.798466439561409
 20
16.29665062129602
 30
0.0
 40
0.125
  1
0.250 [6.35]
  0
ENDBLK
  5
1652
  8
0
  0
BLOCK
  8
0
  2
*U153
 70
     1
 10
0.0
 20
0.0
 30
0.0
  3
*U153
  1

  0
TEXT
  5
1654
  8
DIMENSIONS
 62
     0
 10
42.798466439561409
 20
15.04665062129602
 30
0.0
 40
0.125
  1
0.250 [6.35]
  0
ENDBLK
  5
1656
  8
0
  0
BLOCK
  8
0
  2
*U154
 70
     1
 10
0.0
 20
0.0
 30
0.0
  3
*U154
  1

  0
TEXT
  5
1658
  8
DIMENSIONS
 62
     0
 10
39.116945028661831
 20
15.96621796230926
 30
0.0
 40
0.125
  1
1.500 [38.10]
  0
ENDBLK
  5
165A
  8
0
  0
BLOCK
  8
0
  2
*U155
 70
     1
 10
0.0
 20
0.0
 30
0.0
  3
*U155
  1

  0
TEXT
  5
165C
  8
DIMENSIONS
 62
     0
 10
41.353189554794703
 20
17.506908586700892
 30
0.0
 40
0.125
  1
1.500 [38.10]
  0
ENDBLK
  5
165E
  8
0
  0
BLOCK
  8
0
  2
*U156
 70
     1
 10
0.0
 20
0.0
 30
0.0
  3
*U156
  1

  0
TEXT
  5
1660
  8
DIMENSIONS
 62
     0
 10
44.118088144390292
 20
16.53165062129602
 30
0.0
 40
0.125
  1
0.500 [12.70]
  0
ENDBLK
  5
1662
  8
0
  0
BLOCK
  8
0
  2
*U157
 70
     1
 10
0.0
 20
0.0
 30
0.0
  3
*U157
  1

  0
TEXT
  5
1664
  8
DIMENSIONS
 62
     0
 10
52.840886997695769
 20
17.25370894130954
 30
0.0
 40
0.125
  1
1.200 [30.48]
  0
ENDBLK
  5
1666
  8
0
  0
BLOCK
  8
0
  2
*U158
 70
     1
 10
0.0
 20
0.0
 30
0.0
  3
*U158
  1

  0
TEXT
  5
1668
  8
DIMENSIONS
 62
     0
 10
51.232462858492532
 20
16.962498896476319
 30
0.0
 40
0.125
  1
0.150 [3.81]
  0
ENDBLK
  5
166A
  8
0
  0
BLOCK
  8
0
  2
*U159
 70
     1
 10
0.0
 20
0.0
 30
0.0
  3
*U159
  1

  0
TEXT
  5
166C
  8
DIMENSIONS
 62
     0
 10
54.536282776637137
 20
16.956995996447869
 30
0.0
 40
0.125
  1
0.150 [3.81]
  0
ENDBLK
  5
166E
  8
0
  0
BLOCK
  8
0
  2
*U160
 70
     1
 10
0.0
 20
0.0
 30
0.0
  3
*U160
  1

  0
TEXT
  5
1670
  8
DIMENSIONS
 62
     0
 10
51.463300897054367
 20
16.269737055744471
 30
0.0
 40
0.125
  1
0.350 [8.89]
  0
ENDBLK
  5
1672
  8
0
  0
BLOCK
  8
0
  2
*U161
 70
     1
 10
0.0
 20
0.0
 30
0.0
  3
*U161
  1

  0
TEXT
  5
1674
  8
DIMENSIONS
 62
     0
 10
51.414741892961601
 20
15.689805601380691
 30
0.0
 40
0.125
  1
0.800 [20.32]
  0
ENDBLK
  5
1676
  8
0
  0
BLOCK
  8
0
  2
*U162
 70
     1
 10
0.0
 20
0.0
 30
0.0
  3
*U162
  1

  0
TEXT
  5
1678
  8
DIMENSIONS
 62
     0
 10
51.463300897054367
 20
15.119737055744469
 30
0.0
 40
0.125
  1
0.350 [8.89]
  0
ENDBLK
  5
167A
  8
0
  0
BLOCK
  8
0
  2
*U163
 70
     1
 10
0.0
 20
0.0
 30
0.0
  3
*U163
  1

  0
TEXT
  5
167C
  8
DIMENSIONS
 62
     0
 10
55.068263559985631
 20
15.69226879511462
 30
0.0
 40
0.125
  1
1.200 [30.48]
  0
ENDBLK
  5
167E
  8
0
  0
BLOCK
  8
0
  2
*U164
 70
     1
 10
0.0
 20
0.0
 30
0.0
  3
*U164
  1

  0
TEXT
  5
1680
  8
DIMENSIONS
 62
     0
 10
50.571906449115957
 20
15.98930439675771
 30
0.0
 40
0.125
  1
1.500 [38.10]
  0
ENDBLK
  5
1682
  8
0
  0
BLOCK
  8
0
  2
*U165
 70
     1
 10
0.0
 20
0.0
 30
0.0
  3
*U165
  1

  0
TEXT
  5
1684
  8
DIMENSIONS
 62
     0
 10
52.808150975248843
 20
17.52999502114934
 30
0.0
 40
0.125
  1
1.500 [38.10]
  0
ENDBLK
  5
1686
  8
0
  0
BLOCK
  8
0
  2
*U166
 70
     1
 10
0.0
 20
0.0
 30
0.0
  3
*U166
  1

  0
TEXT
  5
1688
  8
DIMENSIONS
 62
     0
 10
54.983239219683142
 20
16.654737055744469
 30
0.0
 40
0.125
  1
0.600 [15.24]
  0
ENDBLK
  5
168A
  8
0
  0
ENDSEC
  0
SECTION
  2
ENTITIES
  0
LINE
  5
2FB
  8
GRID
 10
41.050598254298343
 20
11.159071810780979
 30
0.0
 11
43.294107135847689
 21
11.159071810780979
 31
0.0
  0
LINE
  5
2FC
  8
GRID
 10
43.294107135847689
 20
11.159071810780979
 30
0.0
 11
43.294107135847703
 21
8.7056731743217384
 31
0.0
  0
LINE
  5
2FD
  8
GRID
 10
41.050598254298343
 20
11.159071810780979
 30
0.0
 11
41.050598254298343
 21
8.7056731743217295
 31
0.0
  0
INSERT
  5
2FE
  8
DIMENSIONS
  2
*U42
 10
0.0
 20
0.0
 30
0.0
  0
LINE
  5
2FF
  8
GRID
 10
43.294107135847689
 20
10.808586291286799
 30
0.0
 11
41.050598254298343
 21
10.808586291286799
 31
0.0
  0
LINE
  5
300
  8
GRID
 10
41.807796900859167
 20
10.808586291286799
 30
0.0
 11
41.807796900859181
 21
8.7056731743217313
 31
0.0
  0
INSERT
  5
301
  8
DIMENSIONS
  2
*U43
 10
0.0
 20
0.0
 30
0.0
  0
LINE
  5
302
  8
GRID
 10
43.294107135847689
 20
10.458100771792621
 30
0.0
 11
41.050598254298343
 21
10.458100771792621
 31
0.0
  0
LINE
  5
303
  8
GRID
 10
43.294107135847689
 20
10.107615252298441
 30
0.0
 11
41.050598254298343
 21
10.107615252298441
 31
0.0
  0
LINE
  5
304
  8
GRID
 10
43.294107135847689
 20
9.7571297328042661
 30
0.0
 11
41.050598254298343
 21
9.7571297328042661
 31
0.0
  0
LINE
  5
305
  8
GRID
 10
43.294107135847703
 20
9.4066442133100878
 30
0.0
 11
41.050598254298343
 21
9.4066442133100878
 31
0.0
  0
INSERT
  5
306
  8
DIMENSIONS
  2
*U44
 10
0.0
 20
0.0
 30
0.0
  0
INSERT
  5
307
  8
DIMENSIONS
  2
*U45
 10
0.0
 20
0.0
 30
0.0
  0
INSERT
  5
308
  8
DIMENSIONS
  2
*U46
 10
0.0
 20
0.0
 30
0.0
  0
INSERT
  5
309
  8
DIMENSIONS
  2
*U47
 10
0.0
 20
0.0
 30
0.0
  0
INSERT
  5
30A
  8
DIMENSIONS
  2
*U48
 10
0.0
 20
0.0
 30
0.0
  0
INSERT
  5
30B
  8
DIMENSIONS
  2
*U49
 10
0.0
 20
0.0
 30
0.0
  0
INSERT
  5
30C
  8
DIMENSIONS
  2
*U50
 10
0.0
 20
0.0
 30
0.0
  0
LINE
  5
30D
  8
GRID
 10
43.294107135847703
 20
9.0561586938159166
 30
0.0
 11
41.050598254298343
 21
9.0561586938159095
 31
0.0
  0
INSERT
  5
30E
  8
DIMENSIONS
  2
*U51
 10
0.0
 20
0.0
 30
0.0
  0
INSERT
  5
30F
  8
DIMENSIONS
  2
*U52
 10
0.0
 20
0.0
 30
0.0
  0
LINE
  5
310
  8
CONVERTER
 10
41.138568968734148
 20
12.581412916975189
 30
0.0
 11
42.638568968734162
 21
12.581412916975189
 31
0.0
  0
LINE
  5
311
  8
CONVERTER
 10
42.638568968734162
 20
13.21141291697519
 30
0.0
 11
42.638568968734162
 21
12.581412916975189
 31
0.0
  0
LINE
  5
312
  8
CONVERTER
 10
41.138568968734148
 20
13.21141291697519
 30
0.0
 11
41.138568968734148
 21
12.581412916975189
 31
0.0
  0
LINE
  5
313
  8
CONVERTER
 10
42.638568968734162
 20
13.21141291697519
 30
0.0
 11
41.138568968734148
 21
13.21141291697519
 31
0.0
  0
CIRCLE
  5
314
  8
CONVERTER
 10
42.488568968734171
 20
15.21679898418823
 30
0.0
 40
0.02
  0
CIRCLE
  5
315
  8
CONVERTER
 10
41.288568968734168
 20
15.316798984188241
 30
0.0
 40
0.02
  0
CIRCLE
  5
316
  8
CONVERTER
 10
41.288568968734168
 20
16.116798984188229
 30
0.0
 40
0.02
  0
LINE
  5
317
  8
CONVERTER
 10
41.138568968734162
 20
16.46679898418823
 30
0.0
 11
41.538568968734161
 21
16.46679898418823
 31
0.0
  0
CIRCLE
  5
318
  8
CONVERTER
 10
42.488568968734171
 20
16.216798984188241
 30
0.0
 40
0.02
  0
LINE
  5
319
  8
CONVERTER
 10
42.638568968734162
 20
16.46679898418823
 30
0.0
 11
42.338568968734151
 21
16.46679898418823
 31
0.0
  0
LINE
  5
31A
  8
CONVERTER
 10
41.138568968734162
 20
14.96679898418823
 30
0.0
 11
41.138568968734162
 21
16.46679898418823
 31
0.0
  0
LINE
  5
31B
  8
CONVERTER
 10
42.638568968734162
 20
14.96679898418823
 30
0.0
 11
41.138568968734162
 21
14.96679898418823
 31
0.0
  0
LINE
  5
31C
  8
CONVERTER
 10
42.638568968734162
 20
16.46679898418823
 30
0.0
 11
42.638568968734162
 21
14.96679898418823
 31
0.0
  0
LINE
  5
31D
  8
CONVERTER
 10
41.138568968734162
 20
16.46679898418823
 30
0.0
 11
42.638568968734162
 21
16.46679898418823
 31
0.0
  0
LINE
  5
31E
  8
CONVERTER
 10
41.308568968734157
 20
13.46141291697519
 30
0.0
 11
41.308568968734157
 21
13.21141291697519
 31
0.0
  0
LINE
  5
31F
  8
CONVERTER
 10
41.268568968734158
 20
13.46141291697519
 30
0.0
 11
41.268568968734158
 21
13.21141291697519
 31
0.0
  0
LINE
  5
320
  8
CONVERTER
 10
42.468568968734161
 20
13.46141291697519
 30
0.0
 11
42.468568968734161
 21
13.21141291697519
 31
0.0
  0
LINE
  5
321
  8
CONVERTER
 10
42.508568968734167
 20
13.46141291697519
 30
0.0
 11
42.508568968734167
 21
13.21141291697519
 31
0.0
  0
LINE
  5
322
  8
CONVERTER
 10
42.508568968734167
 20
13.46141291697519
 30
0.0
 11
42.468568968734161
 21
13.46141291697519
 31
0.0
  0
LINE
  5
323
  8
CONVERTER
 10
41.308568968734157
 20
13.46141291697519
 30
0.0
 11
41.268568968734158
 21
13.46141291697519
 31
0.0
  0
DIMENSION
  5
324
  8
DIMENSIONS
  2
*D1
 10
43.468619210005471
 20
12.581412916975189
 30
0.0
 11
43.468619210005471
 21
12.886973595106211
 31
0.0
 70
   128
 13
42.638568968734162
 23
13.21141291697519
 33
0.0
 14
42.781005118522287
 24
12.581412916975189
 34
0.0
 50
90.0
  0
DIMENSION
  5
327
  8
DIMENSIONS
  2
*D2
 10
40.397776921215602
 20
13.46141291697519
 30
0.0
 11
41.119686880287908
 21
13.8214129169752
 31
0.0
 70
   128
 13
41.138568968734148
 23
13.21141291697519
 33
0.0
 14
41.268568968734158
 24
13.46141291697519
 34
0.0
 50
90.0
  0
INSERT
  5
32A
  8
DIMENSIONS
  2
*U53
 10
0.0
 20
0.0
 30
0.0
  0
LINE
  5
32B
  8
CONVERTER
 10
35.118739237469889
 20
13.21141291697519
 30
0.0
 11
35.118739237469889
 21
12.581412916975189
 31
0.0
  0
LINE
  5
32C
  8
CONVERTER
 10
35.118739237469889
 20
12.581412916975189
 30
0.0
 11
33.618739237469889
 21
12.581412916975189
 31
0.0
  0
LINE
  5
32D
  8
CONVERTER
 10
33.618739237469889
 20
12.581412916975189
 30
0.0
 11
33.618739237469889
 21
13.21141291697519
 31
0.0
  0
LINE
  5
32E
  8
CONVERTER
 10
33.618739237469889
 20
13.21141291697519
 30
0.0
 11
35.118739237469889
 21
13.21141291697519
 31
0.0
  0
LINE
  5
33B
  8
CONVERTER
 10
46.775029170038223
 20
13.21141291697519
 30
0.0
 11
45.275029170038223
 21
13.21141291697519
 31
0.0
  0
LINE
  5
33C
  8
CONVERTER
 10
46.775029170038223
 20
12.581412916975189
 30
0.0
 11
46.775029170038223
 21
13.21141291697519
 31
0.0
  0
LINE
  5
33D
  8
CONVERTER
 10
45.275029170038223
 20
12.581412916975189
 30
0.0
 11
46.775029170038223
 21
12.581412916975189
 31
0.0
  0
LINE
  5
33E
  8
CONVERTER
 10
45.275029170038223
 20
13.21141291697519
 30
0.0
 11
45.275029170038223
 21
12.581412916975189
 31
0.0
  0
INSERT
  5
33F
  8
DIMENSIONS
  2
*U54
 10
0.0
 20
0.0
 30
0.0
  0
INSERT
  5
340
  8
DIMENSIONS
  2
*U55
 10
0.0
 20
0.0
 30
0.0
  0
INSERT
  5
341
  8
DIMENSIONS
  2
*U56
 10
0.0
 20
0.0
 30
0.0
  0
INSERT
  5
342
  8
DIMENSIONS
  2
*U57
 10
0.0
 20
0.0
 30
0.0
  0
LINE
  5
343
  8
CONVERTER
 10
41.173568968734159
 20
15.00179898418823
 30
0.0
 11
41.173568968734159
 21
16.43179898418823
 31
0.0
  0
LINE
  5
344
  8
CONVERTER
 10
41.173568968734159
 20
16.43179898418823
 30
0.0
 11
42.603568968734159
 21
16.43179898418823
 31
0.0
  0
LINE
  5
345
  8
CONVERTER
 10
42.603568968734159
 20
16.43179898418823
 30
0.0
 11
42.603568968734159
 21
15.00179898418823
 31
0.0
  0
LINE
  5
346
  8
CONVERTER
 10
42.603568968734159
 20
15.00179898418823
 30
0.0
 11
41.173568968734159
 21
15.00179898418823
 31
0.0
  0
INSERT
  5
347
  8
DIMENSIONS
  2
*U58
 10
0.0
 20
0.0
 30
0.0
1001
ACAD
1000
DSTYLE
1002
{
1070
   147
1040
0.09
1070
    77
1070
     0
1002
}
  0
INSERT
  5
348
  8
DIMENSIONS
  2
*U59
 10
0.0
 20
0.0
 30
0.0
  0
INSERT
  5
349
  8
DIMENSIONS
  2
*U60
 10
0.0
 20
0.0
 30
0.0
1001
ACAD
1000
DSTYLE
1002
{
1070
   147
1040
0.09
1070
    77
1070
     0
1002
}
  0
INSERT
  5
34A
  8
DIMENSIONS
  2
*U61
 10
0.0
 20
0.0
 30
0.0
  0
INSERT
  5
34B
  8
DIMENSIONS
  2
*U62
 10
0.0
 20
0.0
 30
0.0
1001
ACAD
1000
DSTYLE
1002
{
1070
   147
1040
0.09
1070
    77
1070
     0
1002
}
  0
INSERT
  5
34C
  8
DIMENSIONS
  2
*U63
 10
0.0
 20
0.0
 30
0.0
  0
INSERT
  5
34D
  8
DIMENSIONS
  2
*U64
 10
0.0
 20
0.0
 30
0.0
  0
LINE
  5
34E
  8
0
 10
41.8140199080038
 20
15.716798984188239
 30
0.0
 11
41.963118029464518
 21
15.716798984188239
 31
0.0
  0
LINE
  5
34F
  8
0
 10
41.888568968734162
 20
15.78465588673523
 30
0.0
 11
41.888568968734162
 21
15.648942081641239
 31
0.0
  0
LINE
  5
350
  8
0
 10
41.766579639751797
 20
15.716798984188239
 30
0.0
 11
41.325641795516823
 21
15.716798984188239
 31
0.0
  0
LINE
  5
351
  8
0
 10
41.888568968734162
 20
15.831307514055521
 30
0.0
 11
41.888568968734162
 21
16.282052132298091
 31
0.0
  0
LINE
  5
352
  8
0
 10
42.010558297716521
 20
15.716798984188239
 30
0.0
 11
42.317379197878189
 21
15.716798984188239
 31
0.0
  0
LINE
  5
353
  8
0
 10
41.888568968734162
 20
15.602290454320951
 30
0.0
 11
41.888568968734162
 21
15.169913815318591
 31
0.0
  0
LINE
  5
354
  8
CONVERTER
 10
45.545029170038219
 20
13.46141291697519
 30
0.0
 11
45.50502917003822
 21
13.46141291697519
 31
0.0
  0
LINE
  5
355
  8
CONVERTER
 10
45.50502917003822
 20
13.46141291697519
 30
0.0
 11
45.50502917003822
 21
13.21141291697519
 31
0.0
  0
LINE
  5
356
  8
CONVERTER
 10
45.545029170038219
 20
13.46141291697519
 30
0.0
 11
45.545029170038219
 21
13.21141291697519
 31
0.0
  0
LINE
  5
357
  8
CONVERTER
 10
45.645029170038207
 20
13.46141291697519
 30
0.0
 11
45.645029170038207
 21
13.21141291697519
 31
0.0
  0
LINE
  5
358
  8
CONVERTER
 10
45.605029170038208
 20
13.46141291697519
 30
0.0
 11
45.605029170038208
 21
13.21141291697519
 31
0.0
  0
LINE
  5
359
  8
CONVERTER
 10
45.645029170038207
 20
13.46141291697519
 30
0.0
 11
45.605029170038208
 21
13.46141291697519
 31
0.0
  0
LINE
  5
35A
  8
CONVERTER
 10
46.405029170038212
 20
13.46141291697519
 30
0.0
 11
46.445029170038218
 21
13.46141291697519
 31
0.0
  0
LINE
  5
35B
  8
CONVERTER
 10
46.445029170038218
 20
13.46141291697519
 30
0.0
 11
46.445029170038218
 21
13.21141291697519
 31
0.0
  0
LINE
  5
35C
  8
CONVERTER
 10
46.405029170038212
 20
13.46141291697519
 30
0.0
 11
46.405029170038212
 21
13.21141291697519
 31
0.0
  0
LINE
  5
35D
  8
CONVERTER
 10
46.50502917003822
 20
13.46141291697519
 30
0.0
 11
46.50502917003822
 21
13.21141291697519
 31
0.0
  0
LINE
  5
35E
  8
CONVERTER
 10
46.545029170038219
 20
13.46141291697519
 30
0.0
 11
46.545029170038219
 21
13.21141291697519
 31
0.0
  0
LINE
  5
35F
  8
CONVERTER
 10
46.50502917003822
 20
13.46141291697519
 30
0.0
 11
46.545029170038219
 21
13.46141291697519
 31
0.0
  0
DIMENSION
  5
360
  8
DIMENSIONS
  2
*D3
 10
42.488568968734171
 20
17.1757708697533
 30
0.0
 11
41.899525509028791
 21
17.1757708697533
 31
0.0
 70
   128
 13
41.288568968734168
 23
16.116798984188229
 33
0.0
 14
42.488568968734171
 24
16.216798984188241
 34
0.0
  0
DIMENSION
  5
363
  8
DIMENSIONS
  2
*D4
 10
41.138568968734162
 20
16.804560824920092
 30
0.0
 11
40.236659009661849
 21
16.804560824920092
 31
0.0
 70
   128
 13
41.288568968734168
 23
16.116798984188229
 33
0.0
 14
41.138568968734162
 24
16.46679898418823
 34
0.0
  0
DIMENSION
  5
366
  8
DIMENSIONS
  2
*D5
 10
42.638568968734162
 20
16.817724201971011
 30
0.0
 11
43.540478927806468
 21
16.817724201971011
 31
0.0
 70
   128
 13
42.488568968734171
 23
16.216798984188241
 33
0.0
 14
42.638568968734162
 24
16.46679898418823
 34
0.0
  0
DIMENSION
  5
369
  8
DIMENSIONS
  2
*D6
 10
40.467497048223699
 20
16.116798984188229
 30
0.0
 11
40.467497048223699
 21
16.29179898418824
 31
0.0
 70
   128
 13
41.138568968734162
 23
16.46679898418823
 33
0.0
 14
41.288568968734168
 24
16.116798984188229
 34
0.0
 50
90.0
  0
DIMENSION
  5
36C
  8
DIMENSIONS
  2
*D7
 10
40.467497048223699
 20
15.316798984188241
 30
0.0
 11
40.467497048223699
 21
15.71186752982447
 31
0.0
 70
   128
 13
41.288568968734168
 23
16.116798984188229
 33
0.0
 14
41.288568968734168
 24
15.316798984188241
 34
0.0
 50
90.0
  0
DIMENSION
  5
36F
  8
DIMENSIONS
  2
*D8
 10
40.467497048223699
 20
15.316798984188241
 30
0.0
 11
40.467497048223699
 21
15.14179898418824
 31
0.0
 70
   128
 13
41.138568968734162
 23
14.96679898418823
 33
0.0
 14
41.288568968734168
 24
15.316798984188241
 34
0.0
 50
90.0
  0
DIMENSION
  5
372
  8
DIMENSIONS
  2
*D9
 10
44.565819652132717
 20
15.21679898418823
 30
0.0
 11
44.565819652132717
 21
15.71474210033003
 31
0.0
 70
   128
 13
42.488568968734171
 23
16.216798984188241
 33
0.0
 14
42.488568968734171
 24
15.21679898418823
 34
0.0
 50
90.0
  0
DIMENSION
  5
375
  8
DIMENSIONS
  2
*D10
 10
43.25762401118488
 20
16.46679898418823
 30
0.0
 11
43.257624011184873
 21
16.341798984188241
 31
0.0
 70
   128
 13
42.488568968734171
 23
16.216798984188241
 33
0.0
 14
42.638568968734162
 24
16.46679898418823
 34
0.0
 50
90.0
  0
DIMENSION
  5
378
  8
DIMENSIONS
  2
*D11
 10
43.257624011184873
 20
15.21679898418823
 30
0.0
 11
43.257624011184873
 21
15.091798984188239
 31
0.0
 70
   128
 13
42.638568968734162
 23
14.96679898418823
 33
0.0
 14
42.488568968734171
 24
15.21679898418823
 34
0.0
 50
90.0
  0
DIMENSION
  5
37B
  8
DIMENSIONS
  2
*D12
 10
39.630544960449001
 20
16.466798984188241
 30
0.0
 11
39.630544960448987
 21
16.011366325201479
 31
0.0
 70
   128
 13
41.138568968734162
 23
14.96679898418823
 33
0.0
 14
41.138568968734162
 24
16.46679898418823
 34
0.0
 50
90.0
  0
DIMENSION
  5
37E
  8
DIMENSIONS
  2
*D13
 10
42.638568968734162
 20
17.552056949593108
 30
0.0
 11
41.866789486581872
 21
17.552056949593108
 31
0.0
 70
   128
 13
41.138568968734162
 23
16.46679898418823
 33
0.0
 14
42.638568968734162
 24
16.46679898418823
 34
0.0
  0
TEXT
  5
4AE
  8
FRAME_TEXT
 10
57.029127799137129
 20
4.0131640201924936
 30
0.0
 40
0.125
  1
American Power Design
 72
     1
 11
57.965561973761957
 21
4.0756640201924936
 31
0.0
 73
     2
  0
LINE
  5
4AF
  8
FRAME
 10
54.815529655497564
 20
4.2823203109877213
 30
0.0
 11
54.815529655497564
 21
2.7471592936517442
 31
0.0
  0
LINE
  5
4B0
  8
FRAME
 10
55.978709349402131
 20
4.2823203109877213
 30
0.0
 11
55.978709349402124
 21
3.4556951478068099
 31
0.0
  0
LINE
  5
4B1
  8
FRAME
 10
56.923423821608878
 20
4.2823203109877213
 30
0.0
 11
56.923423821608878
 21
2.7471592936517442
 31
0.0
  0
TEXT
  5
4B2
  8
FRAME
 10
55.24718063010377
 20
4.1526101130596507
 30
0.0
 40
0.0354267927077533
  1
SPECIFIED
 72
     1
 11
55.377807866107702
 21
4.1526101130596507
 31
0.0
  0
TEXT
  5
4B3
  8
FRAME_TEXT
 10
56.991749865537017
 20
2.9524008653511848
 30
0.0
 40
0.09
  1
1:1
  0
LINE
  5
4B4
  8
FRAME
 10
56.923423821608878
 20
3.869007729397266
 30
0.0
 11
59.007700125915029
 21
3.869007729397266
 31
0.0
  0
LINE
  5
4B5
  8
FRAME
 10
56.923423821608878
 20
3.1781852715960781
 30
0.0
 11
59.007700125915029
 21
3.1781852715960781
 31
0.0
  0
LINE
  5
4B6
  8
FRAME
 10
56.923423821608878
 20
2.885952638760322
 30
0.0
 11
59.007700125915029
 21
2.885952638760322
 31
0.0
  0
TEXT
  5
4B7
  8
FRAME
 10
56.964286893244839
 20
3.8030647200767289
 30
0.0
 40
0.0354267927077533
  1
TITLE
  0
TEXT
  5
4B8
  8
FRAME
 10
56.955440934362372
 20
3.1136338324542439
 30
0.0
 40
0.0354267927077533
  1
SCALE
  0
TEXT
  5
4B9
  8
FRAME
 10
56.99004424410856
 20
2.796865029738933
 30
0.0
 40
0.0354267927077533
  1
SHEET       OF       
  0
LINE
  5
4BA
  8
FRAME
 10
54.815529655497564
 20
3.4556951478068099
 30
0.0
 11
56.923423821608878
 21
3.4556951478068099
 31
0.0
  0
LINE
  5
4BB
  8
FRAME
 10
54.815529655497564
 20
3.101427220729279
 30
0.0
 11
56.923423821608878
 21
3.101427220729279
 31
0.0
  0
TEXT
  5
4BC
  8
FRAME
 10
54.92926571571347
 20
4.0516595923225678
 30
0.0
 40
0.0354267927077533
  1
DIMENSIONS IN INCHES [MM]
  0
TEXT
  5
4BD
  8
FRAME
 10
54.92926571571347
 20
3.8696786907290468
 30
0.0
 40
0.0354267927077533
  1
TOLERANCES
  0
TEXT
  5
4BE
  8
FRAME
 10
54.898565034886033
 20
3.7345036392756921
 30
0.0
 40
0.0354267927077533
  1
FRAC =                          .XX =
  0
TEXT
  5
4BF
  8
FRAME
 10
54.900386261714772
 20
3.5785079868228631
 30
0.0
 40
0.0354267927077533
  1
.XXX =                         ANGLE =
  0
TEXT
  5
4C0
  8
FRAME
 10
54.849897923524757
 20
3.389497578698343
 30
0.0
 40
0.0354267927077533
  1
MATERIAL
  0
TEXT
  5
4C1
  8
FRAME
 10
54.849897923524757
 20
3.040245385799222
 30
0.0
 40
0.0354267927077533
  1
FINISH
  0
LINE
  5
4C2
  8
FRAME
 10
55.978709349402124
 20
3.5885456204608861
 30
0.0
 11
56.923423821608878
 21
3.5885456204608861
 31
0.0
  0
LINE
  5
4C3
  8
FRAME
 10
55.978709349402124
 20
3.721396093114961
 30
0.0
 11
56.923423821608878
 21
3.721396093114961
 31
0.0
  0
LINE
  5
4C4
  8
FRAME
 10
55.978709349402124
 20
3.8542465657690359
 30
0.0
 11
56.923423821608878
 21
3.8542465657690359
 31
0.0
  0
LINE
  5
4C5
  8
FRAME
 10
55.978709349402131
 20
3.9870970384231099
 30
0.0
 11
56.923423821608878
 21
3.9870970384231099
 31
0.0
  0
LINE
  5
4C6
  8
FRAME
 10
55.978709349402131
 20
4.1199475110771866
 30
0.0
 11
56.923423821608878
 21
4.1199475110771866
 31
0.0
  0
TEXT
  5
4C7
  8
FRAME
 10
55.999577652805172
 20
3.8989283852472409
 30
0.0
 40
0.0354267927077533
  1
DWN
  0
TEXT
  5
4C8
  8
FRAME
 10
56.003692837518471
 20
3.766388434344877
 30
0.0
 40
0.0354267927077533
  1
CHK
  0
TEXT
  5
4C9
  8
FRAME
 10
56.003692837518471
 20
3.6382455434250551
 30
0.0
 40
0.0354267927077533
  1
CH DR
  0
TEXT
  5
4CA
  8
FRAME
 10
56.008322420320937
 20
3.5333442552701029
 30
0.0
 40
0.0354267927077533
  1
COG
  0
TEXT
  5
4CB
  8
FRAME
 10
56.008322420320937
 20
3.4742996007571811
 30
0.0
 40
0.0354267927077533
  1
ENG
  0
TEXT
  5
4CC
  8
FRAME
 10
56.217682442610482
 20
4.0264431247409851
 30
0.0
 40
0.0531401890616299
  1
APPROVAL
  0
TEXT
  5
4CD
  8
FRAME
 10
56.771174786550397
 20
3.5060303301197151
 30
0.0
 40
0.0354267927077533
  1
DATE
  0
TEXT
  5
4CE
  8
FRAME
 10
56.771174786550397
 20
3.7717312754278658
 30
0.0
 40
0.0354267927077533
  1
DATE
  0
TEXT
  5
4CF
  8
FRAME
 10
56.771174786550397
 20
3.6388808027737891
 30
0.0
 40
0.0354267927077533
  1
DATE
  0
TEXT
  5
4D0
  8
FRAME
 10
56.771174786550397
 20
3.9045817480819389
 30
0.0
 40
0.0354267927077533
  1
DATE
  0
TEXT
  5
4D1
  8
FRAME_TEXT
 10
57.18326411458829
 20
2.7674154661488588
 30
0.0
 40
0.1
  1
1  1
  0
LINE
  5
4D2
  8
FRAME
 10
57.218647094173491
 20
3.1781852715960781
 30
0.0
 11
57.218647094173491
 21
2.885952638760322
 31
0.0
  0
TEXT
  5
4D3
  8
FRAME_TEXT
 10
57.293928949248027
 20
2.9127146472875238
 30
0.0
 40
0.1476116362823053
  1
D
  0
TEXT
  5
4D4
  8
FRAME
 10
57.519500900751403
 20
3.1139515425407049
 30
0.0
 40
0.0354267927077533
  1
FILE
  0
LINE
  5
4D5
  8
FRAME
 10
57.484348039481638
 20
3.1781852715960781
 30
0.0
 11
57.484348039481638
 21
2.885952638760322
 31
0.0
  0
LINE
  5
4D6
  8
FRAME
 10
58.062985653708282
 20
2.885952638760322
 30
0.0
 11
58.062985653708282
 21
2.7471592936517442
 31
0.0
  0
TEXT
  5
4D7
  8
FRAME
 10
58.223014807170181
 20
2.796865029738933
 30
0.0
 40
0.0354267927077533
  1
DO NOT SCALE PRINT
  0
TEXT
  5
4D8
  8
FRAME
 10
58.751951113290517
 20
3.1136338324542439
 30
0.0
 40
0.0354267927077533
  1
REV.
  0
LINE
  5
4D9
  8
FRAME
 10
58.712476853350431
 20
3.1781852715960781
 30
0.0
 11
58.712476853350431
 21
2.885952638760322
 31
0.0
  0
LINE
  5
4DA
  8
FRAME
 10
54.815529655497571
 20
4.2823203109877213
 30
0.0
 11
59.007700125915029
 21
4.2823203109877213
 31
0.0
  0
TEXT
  5
4DB
  8
FRAME
 10
56.003692837518471
 20
4.1985566154862362
 30
0.0
 40
0.0531401890616299
  1
STANDARD
  0
TEXT
  5
4DC
  8
FRAME
 10
55.143917876438643
 20
4.2145635799197354
 30
0.0
 40
0.0354267927077533
  1
UNLESS OTHERWISE
 72
     1
 11
55.399662588052657
 21
4.2145635799197354
 31
0.0
  0
TEXT
  5
4DD
  8
FRAME_TEXT
 10
55.118192770225598
 20
3.5681008563530821
 30
0.0
 40
0.05
  1
%%p.005
  0
TEXT
  5
4DE
  8
FRAME_TEXT
 10
58.820831661276372
 20
2.9516140468436181
 30
0.0
 40
0.12
  1
A
  0
TEXT
  5
4DF
  8
FRAME_TEXT
 10
57.367123266365098
 20
3.4573663576359741
 30
0.0
 40
0.125
  1
P2 Dimensions
 72
     1
 11
57.954307782054038
 21
3.5198663576359741
 31
0.0
 73
     2
  0
TEXT
  5
4E0
  8
FRAME_TEXT
 10
55.651365215503702
 20
3.72951913055992
 30
0.0
 40
0.05
  1
%%p.05
  0
TEXT
  5
4E1
  8
FRAME_TEXT
 10
55.132729816879333
 20
3.725051050374895
 30
0.0
 40
0.05
  1
%%p1/64
  0
TEXT
  5
4E2
  8
FRAME_TEXT
 10
55.720115891483992
 20
3.5696152140746671
 30
0.0
 40
0.05
  1
%%p1°0
  0
TEXT
  5
4E3
  8
FRAME
 10
57.248678961835743
 20
3.1136338324542439
 30
0.0
 40
0.0354267927077533
  1
SIZE
  0
TEXT
  5
4E4
  8
FRAME_TEXT
 10
57.750417418789709
 20
2.9716263009694801
 30
0.0
 40
0.1
  1
p2_cadd
  0
TEXT
  5
4E5
  8
FRAME_TEXT
 10
56.171676052390737
 20
3.8973369766165411
 30
0.0
 40
0.05
  1
ON FILE
  0
TEXT
  5
4E6
  8
FRAME_TEXT
 10
56.171676052390737
 20
3.7630529474430019
 30
0.0
 40
0.05
  1
ON FILE
  0
LINE
  5
4E7
  8
FRAME
 10
59.007700125915022
 20
24.747159293651752
 30
0.0
 11
59.007700125915029
 21
2.7471592936517459
 31
0.0
  0
LINE
  5
4E8
  8
FRAME
 10
59.007700125915029
 20
2.7471592936517459
 30
0.0
 11
25.007700125915029
 21
2.747159293651749
 31
0.0
  0
LINE
  5
4E9
  8
FRAME
 10
25.007700125915029
 20
2.747159293651749
 30
0.0
 11
25.007700125915029
 21
24.747159293651752
 31
0.0
  0
LINE
  5
4EA
  8
FRAME
 10
25.007700125915029
 20
24.747159293651752
 30
0.0
 11
59.007700125915029
 21
24.747159293651752
 31
0.0
  0
CIRCLE
  5
5FB
  8
CONVERTER
 10
31.357596075054541
 20
15.23988541863668
 30
0.0
 40
0.02
  0
CIRCLE
  5
5FC
  8
CONVERTER
 10
30.557596075054541
 20
15.439885418636679
 30
0.0
 40
0.02
  0
CIRCLE
  5
5FD
  8
CONVERTER
 10
30.557596075054541
 20
16.039885418636679
 30
0.0
 40
0.02
  0
LINE
  5
5FE
  8
CONVERTER
 10
30.157596075054538
 20
16.489885418636678
 30
0.0
 11
30.557596075054541
 21
16.489885418636678
 31
0.0
  0
CIRCLE
  5
5FF
  8
CONVERTER
 10
31.357596075054541
 20
16.239885418636678
 30
0.0
 40
0.02
  0
LINE
  5
600
  8
CONVERTER
 10
31.657596075054531
 20
16.489885418636678
 30
0.0
 11
31.357596075054541
 21
16.489885418636678
 31
0.0
  0
LINE
  5
601
  8
CONVERTER
 10
30.157596075054538
 20
14.98988541863668
 30
0.0
 11
30.157596075054538
 21
16.489885418636678
 31
0.0
  0
LINE
  5
602
  8
CONVERTER
 10
31.657596075054531
 20
14.98988541863668
 30
0.0
 11
30.157596075054538
 21
14.98988541863668
 31
0.0
  0
LINE
  5
603
  8
CONVERTER
 10
31.657596075054531
 20
16.489885418636678
 30
0.0
 11
31.657596075054531
 21
14.98988541863668
 31
0.0
  0
LINE
  5
604
  8
CONVERTER
 10
30.157596075054538
 20
16.489885418636678
 30
0.0
 11
31.657596075054531
 21
16.489885418636678
 31
0.0
  0
INSERT
  5
605
  8
DIMENSIONS
  2
*U65
 10
0.0
 20
0.0
 30
0.0
  0
INSERT
  5
606
  8
DIMENSIONS
  2
*U66
 10
0.0
 20
0.0
 30
0.0
  0
INSERT
  5
607
  8
DIMENSIONS
  2
*U67
 10
0.0
 20
0.0
 30
0.0
  0
INSERT
  5
608
  8
DIMENSIONS
  2
*U68
 10
0.0
 20
0.0
 30
0.0
  0
LINE
  5
609
  8
CONVERTER
 10
30.192596075054531
 20
15.02488541863668
 30
0.0
 11
30.192596075054531
 21
16.454885418636682
 31
0.0
  0
LINE
  5
60A
  8
CONVERTER
 10
30.192596075054531
 20
16.454885418636682
 30
0.0
 11
31.622596075054538
 21
16.454885418636682
 31
0.0
  0
LINE
  5
60B
  8
CONVERTER
 10
31.622596075054538
 20
16.454885418636682
 30
0.0
 11
31.622596075054538
 21
15.02488541863668
 31
0.0
  0
LINE
  5
60C
  8
CONVERTER
 10
31.622596075054538
 20
15.02488541863668
 30
0.0
 11
30.192596075054531
 21
15.02488541863668
 31
0.0
  0
LINE
  5
60D
  8
0
 10
30.83304701432419
 20
15.739885418636691
 30
0.0
 11
30.982145135784901
 21
15.739885418636691
 31
0.0
  0
LINE
  5
60E
  8
0
 10
30.907596075054538
 20
15.80774232118368
 30
0.0
 11
30.907596075054538
 21
15.672028516089689
 31
0.0
  0
LINE
  5
60F
  8
0
 10
30.78560674607218
 20
15.739885418636691
 30
0.0
 11
30.344668901837199
 21
15.739885418636691
 31
0.0
  0
LINE
  5
610
  8
0
 10
30.907596075054538
 20
15.85439394850397
 30
0.0
 11
30.907596075054538
 21
16.305138566746539
 31
0.0
  0
LINE
  5
611
  8
0
 10
31.029585404036901
 20
15.739885418636691
 30
0.0
 11
31.460434336011641
 21
15.739885418636691
 31
0.0
  0
LINE
  5
612
  8
0
 10
30.907596075054538
 20
15.6253768887694
 30
0.0
 11
30.907596075054538
 21
15.19300024976704
 31
0.0
  0
DIMENSION
  5
613
  8
DIMENSIONS
  2
*D14
 10
29.587481792010081
 20
15.439885418636679
 30
0.0
 11
29.587481792010081
 21
15.74197312246943
 31
0.0
 70
   128
 13
30.557596075054541
 23
16.039885418636679
 33
0.0
 14
30.557596075054541
 24
15.439885418636679
 34
0.0
 50
90.0
  0
DIMENSION
  5
616
  8
DIMENSIONS
  2
*D15
 10
32.246184476571678
 20
15.23988541863668
 30
0.0
 11
32.246184476571678
 21
15.71535445591789
 31
0.0
 70
   128
 13
31.357596075054541
 23
16.239885418636678
 33
0.0
 14
31.357596075054541
 24
15.23988541863668
 34
0.0
 50
90.0
  0
DIMENSION
  5
619
  8
DIMENSIONS
  2
*D16
 10
32.246184476571692
 20
16.489885418636678
 30
0.0
 11
32.246184476571678
 21
16.364885418636689
 31
0.0
 70
   128
 13
31.357596075054541
 23
16.239885418636678
 33
0.0
 14
31.657596075054531
 24
16.489885418636678
 34
0.0
 50
90.0
  0
DIMENSION
  5
61C
  8
DIMENSIONS
  2
*D17
 10
32.246184476571678
 20
14.98988541863668
 30
0.0
 11
32.246184476571678
 21
15.114885418636691
 31
0.0
 70
   128
 13
31.357596075054541
 23
15.23988541863668
 33
0.0
 14
31.657596075054531
 24
14.98988541863668
 34
0.0
 50
90.0
  0
DIMENSION
  5
61F
  8
DIMENSIONS
  2
*D18
 10
29.006723150755089
 20
16.039885418636679
 30
0.0
 11
29.006723150755089
 21
16.264885418636691
 31
0.0
 70
   128
 13
30.157596075054538
 23
16.489885418636678
 33
0.0
 14
30.557596075054541
 24
16.039885418636679
 34
0.0
 50
90.0
  0
DIMENSION
  5
622
  8
DIMENSIONS
  2
*D19
 10
29.006723150755089
 20
15.439885418636679
 30
0.0
 11
29.006723150755089
 21
15.21488541863669
 31
0.0
 70
   128
 13
30.157596075054538
 23
14.98988541863668
 33
0.0
 14
30.557596075054541
 24
15.439885418636679
 34
0.0
 50
90.0
  0
DIMENSION
  5
625
  8
DIMENSIONS
  2
*D20
 10
33.036409518201602
 20
14.98988541863668
 30
0.0
 11
33.036409518201602
 21
16.017175452433829
 31
0.0
 70
   128
 13
31.657596075054531
 23
16.489885418636678
 33
0.0
 14
31.657596075054531
 24
14.98988541863668
 34
0.0
 50
90.0
  0
DIMENSION
  5
628
  8
DIMENSIONS
  2
*D21
 10
31.357596075054541
 20
17.297793877599961
 30
0.0
 11
29.323651292603792
 21
17.297793877599961
 31
0.0
 70
   128
 13
30.557596075054541
 23
16.039885418636679
 33
0.0
 14
31.357596075054541
 24
16.239885418636678
 34
0.0
  0
DIMENSION
  5
62B
  8
DIMENSIONS
  2
*D22
 10
30.557596075054541
 20
16.941294192851728
 30
0.0
 11
29.195384973660151
 21
16.941294192851728
 31
0.0
 70
   128
 13
30.157596075054538
 23
16.489885418636678
 33
0.0
 14
30.557596075054541
 24
16.039885418636679
 34
0.0
  0
DIMENSION
  5
62E
  8
DIMENSIONS
  2
*D23
 10
31.657596075054531
 20
16.94304964428612
 30
0.0
 11
32.615127771909847
 21
16.94304964428612
 31
0.0
 70
   128
 13
31.357596075054541
 23
16.239885418636678
 33
0.0
 14
31.657596075054531
 24
16.489885418636678
 34
0.0
  0
DIMENSION
  5
631
  8
DIMENSIONS
  2
*D24
 10
31.657596075054531
 20
17.645029210099011
 30
0.0
 11
30.883531507684559
 21
17.645029210099011
 31
0.0
 70
   128
 13
30.157596075054538
 23
16.489885418636678
 33
0.0
 14
31.657596075054531
 24
16.489885418636678
 34
0.0
  0
LINE
  5
75E
  8
CONVERTER
 10
30.157596075054538
 20
12.581412916975189
 30
0.0
 11
31.657596075054531
 21
12.581412916975189
 31
0.0
  0
LINE
  5
75F
  8
CONVERTER
 10
31.657596075054531
 20
13.21141291697519
 30
0.0
 11
31.657596075054531
 21
12.581412916975189
 31
0.0
  0
LINE
  5
760
  8
CONVERTER
 10
30.157596075054538
 20
13.21141291697519
 30
0.0
 11
30.157596075054538
 21
12.581412916975189
 31
0.0
  0
LINE
  5
761
  8
CONVERTER
 10
31.657596075054531
 20
13.21141291697519
 30
0.0
 11
30.157596075054538
 21
13.21141291697519
 31
0.0
  0
LINE
  5
762
  8
CONVERTER
 10
30.57759607505454
 20
13.46141291697519
 30
0.0
 11
30.57759607505454
 21
13.21141291697519
 31
0.0
  0
LINE
  5
763
  8
CONVERTER
 10
30.53759607505453
 20
13.46141291697519
 30
0.0
 11
30.53759607505453
 21
13.21141291697519
 31
0.0
  0
LINE
  5
764
  8
CONVERTER
 10
31.337596075054531
 20
13.46141291697519
 30
0.0
 11
31.337596075054531
 21
13.21141291697519
 31
0.0
  0
LINE
  5
765
  8
CONVERTER
 10
31.37759607505453
 20
13.46141291697519
 30
0.0
 11
31.37759607505453
 21
13.21141291697519
 31
0.0
  0
LINE
  5
766
  8
CONVERTER
 10
31.37759607505453
 20
13.46141291697519
 30
0.0
 11
31.337596075054531
 21
13.46141291697519
 31
0.0
  0
LINE
  5
767
  8
CONVERTER
 10
30.57759607505454
 20
13.46141291697519
 30
0.0
 11
30.53759607505453
 21
13.46141291697519
 31
0.0
  0
DIMENSION
  5
768
  8
DIMENSIONS
  2
*D25
 10
32.487646316325851
 20
12.581412916975189
 30
0.0
 11
32.487646316325851
 21
12.886973595106211
 31
0.0
 70
   128
 13
31.657596075054531
 23
13.21141291697519
 33
0.0
 14
31.80003222484266
 24
12.581412916975189
 34
0.0
 50
90.0
  0
DIMENSION
  5
76B
  8
DIMENSIONS
  2
*D26
 10
29.416804027535989
 20
13.46141291697519
 30
0.0
 11
30.138713986608298
 21
13.8214129169752
 31
0.0
 70
   128
 13
30.157596075054538
 23
13.21141291697519
 33
0.0
 14
30.53759607505453
 24
13.46141291697519
 34
0.0
 50
90.0
  0
INSERT
  5
76E
  8
DIMENSIONS
  2
*U69
 10
0.0
 20
0.0
 30
0.0
  0
LINE
  5
76F
  8
CONVERTER
 10
28.27113587375047
 20
13.21141291697519
 30
0.0
 11
28.27113587375047
 21
12.581412916975189
 31
0.0
  0
LINE
  5
770
  8
CONVERTER
 10
28.27113587375047
 20
12.581412916975189
 30
0.0
 11
26.77113587375047
 21
12.581412916975189
 31
0.0
  0
LINE
  5
771
  8
CONVERTER
 10
26.77113587375047
 20
12.581412916975189
 30
0.0
 11
26.77113587375047
 21
13.21141291697519
 31
0.0
  0
LINE
  5
772
  8
CONVERTER
 10
26.77113587375047
 20
13.21141291697519
 30
0.0
 11
28.27113587375047
 21
13.21141291697519
 31
0.0
  0
LINE
  5
773
  8
CONVERTER
 10
27.04113587375047
 20
13.46141291697519
 30
0.0
 11
27.00113587375046
 21
13.46141291697519
 31
0.0
  0
LINE
  5
774
  8
CONVERTER
 10
27.00113587375046
 20
13.46141291697519
 30
0.0
 11
27.00113587375046
 21
13.21141291697519
 31
0.0
  0
LINE
  5
775
  8
CONVERTER
 10
27.04113587375047
 20
13.46141291697519
 30
0.0
 11
27.04113587375047
 21
13.21141291697519
 31
0.0
  0
LINE
  5
776
  8
CONVERTER
 10
27.241135873750469
 20
13.46141291697519
 30
0.0
 11
27.241135873750469
 21
13.21141291697519
 31
0.0
  0
LINE
  5
777
  8
CONVERTER
 10
27.20113587375047
 20
13.46141291697519
 30
0.0
 11
27.20113587375047
 21
13.21141291697519
 31
0.0
  0
LINE
  5
778
  8
CONVERTER
 10
27.241135873750469
 20
13.46141291697519
 30
0.0
 11
27.20113587375047
 21
13.46141291697519
 31
0.0
  0
LINE
  5
779
  8
CONVERTER
 10
27.801135873750461
 20
13.46141291697519
 30
0.0
 11
27.841135873750471
 21
13.46141291697519
 31
0.0
  0
LINE
  5
77A
  8
CONVERTER
 10
27.841135873750471
 20
13.46141291697519
 30
0.0
 11
27.841135873750471
 21
13.21141291697519
 31
0.0
  0
LINE
  5
77B
  8
CONVERTER
 10
27.801135873750471
 20
13.46141291697519
 30
0.0
 11
27.801135873750471
 21
13.21141291697519
 31
0.0
  0
LINE
  5
77C
  8
CONVERTER
 10
28.00113587375046
 20
13.46141291697519
 30
0.0
 11
28.00113587375046
 21
13.21141291697519
 31
0.0
  0
LINE
  5
77D
  8
CONVERTER
 10
28.04113587375047
 20
13.46141291697519
 30
0.0
 11
28.04113587375047
 21
13.21141291697519
 31
0.0
  0
LINE
  5
77E
  8
CONVERTER
 10
28.00113587375046
 20
13.46141291697519
 30
0.0
 11
28.04113587375047
 21
13.46141291697519
 31
0.0
  0
LINE
  5
78B
  8
CONVERTER
 10
39.177425806318801
 20
13.21141291697519
 30
0.0
 11
37.677425806318801
 21
13.21141291697519
 31
0.0
  0
LINE
  5
78C
  8
CONVERTER
 10
39.177425806318801
 20
12.581412916975189
 30
0.0
 11
39.177425806318801
 21
13.21141291697519
 31
0.0
  0
LINE
  5
78D
  8
CONVERTER
 10
37.677425806318801
 20
12.581412916975189
 30
0.0
 11
39.177425806318801
 21
12.581412916975189
 31
0.0
  0
LINE
  5
78E
  8
CONVERTER
 10
37.677425806318801
 20
13.21141291697519
 30
0.0
 11
37.677425806318801
 21
12.581412916975189
 31
0.0
  0
INSERT
  5
78F
  8
DIMENSIONS
  2
*U70
 10
0.0
 20
0.0
 30
0.0
1001
ACAD
1000
DSTYLE
1002
{
1070
   147
1040
0.09
1070
    77
1070
     0
1002
}
  0
INSERT
  5
790
  8
DIMENSIONS
  2
*U71
 10
0.0
 20
0.0
 30
0.0
  0
INSERT
  5
791
  8
DIMENSIONS
  2
*U72
 10
0.0
 20
0.0
 30
0.0
1001
ACAD
1000
DSTYLE
1002
{
1070
   147
1040
0.09
1070
    77
1070
     0
1002
}
  0
INSERT
  5
792
  8
DIMENSIONS
  2
*U73
 10
0.0
 20
0.0
 30
0.0
  0
INSERT
  5
793
  8
DIMENSIONS
  2
*U74
 10
0.0
 20
0.0
 30
0.0
1001
ACAD
1000
DSTYLE
1002
{
1070
   147
1040
0.09
1070
    77
1070
     0
1002
}
  0
INSERT
  5
794
  8
DIMENSIONS
  2
*U75
 10
0.0
 20
0.0
 30
0.0
  0
INSERT
  5
795
  8
DIMENSIONS
  2
*U76
 10
0.0
 20
0.0
 30
0.0
  0
LINE
  5
85B
  8
GRID
 10
28.782679477909969
 20
11.182158245229431
 30
0.0
 11
31.026188359459319
 21
11.182158245229431
 31
0.0
  0
LINE
  5
85C
  8
GRID
 10
31.026188359459319
 20
11.182158245229431
 30
0.0
 11
31.026188359459329
 21
9.0792451282643682
 31
0.0
  0
LINE
  5
85D
  8
GRID
 10
28.782679477909969
 20
11.182158245229431
 30
0.0
 11
28.782679477909969
 21
9.0792451282643611
 31
0.0
  0
INSERT
  5
85E
  8
DIMENSIONS
  2
*U77
 10
0.0
 20
0.0
 30
0.0
  0
LINE
  5
85F
  8
GRID
 10
31.026188359459319
 20
10.831672725735251
 30
0.0
 11
28.782679477909969
 21
10.831672725735251
 31
0.0
  0
LINE
  5
860
  8
GRID
 10
29.5398781244708
 20
10.831672725735251
 30
0.0
 11
29.5398781244708
 21
9.0792451282643611
 31
0.0
  0
INSERT
  5
861
  8
DIMENSIONS
  2
*U78
 10
0.0
 20
0.0
 30
0.0
  0
LINE
  5
862
  8
GRID
 10
31.026188359459319
 20
10.481187206241071
 30
0.0
 11
28.782679477909969
 21
10.481187206241071
 31
0.0
  0
LINE
  5
863
  8
GRID
 10
31.026188359459319
 20
10.130701686746891
 30
0.0
 11
28.782679477909969
 21
10.130701686746891
 31
0.0
  0
LINE
  5
864
  8
GRID
 10
31.026188359459319
 20
9.7802161672527177
 30
0.0
 11
28.782679477909969
 21
9.7802161672527177
 31
0.0
  0
LINE
  5
865
  8
GRID
 10
31.026188359459329
 20
9.4297306477585394
 30
0.0
 11
28.782679477909969
 21
9.4297306477585394
 31
0.0
  0
INSERT
  5
866
  8
DIMENSIONS
  2
*U79
 10
0.0
 20
0.0
 30
0.0
  0
INSERT
  5
867
  8
DIMENSIONS
  2
*U80
 10
0.0
 20
0.0
 30
0.0
  0
INSERT
  5
868
  8
DIMENSIONS
  2
*U81
 10
0.0
 20
0.0
 30
0.0
  0
INSERT
  5
869
  8
DIMENSIONS
  2
*U82
 10
0.0
 20
0.0
 30
0.0
  0
INSERT
  5
86A
  8
DIMENSIONS
  2
*U83
 10
0.0
 20
0.0
 30
0.0
  0
INSERT
  5
86B
  8
DIMENSIONS
  2
*U84
 10
0.0
 20
0.0
 30
0.0
  0
INSERT
  5
86C
  8
DIMENSIONS
  2
*U85
 10
0.0
 20
0.0
 30
0.0
  0
LINE
  5
86D
  8
GRID
 10
31.026188359459329
 20
9.0792451282643682
 30
0.0
 11
28.782679477909969
 21
9.0792451282643611
 31
0.0
  0
INSERT
  5
86E
  8
DIMENSIONS
  2
*U86
 10
0.0
 20
0.0
 30
0.0
  0
INSERT
  5
86F
  8
DIMENSIONS
  2
*U87
 10
0.0
 20
0.0
 30
0.0
  0
LINE
  5
870
  8
GRID
 10
31.026188359459319
 20
11.182158245229431
 30
0.0
 11
33.269697241008657
 21
11.182158245229431
 31
0.0
  0
LINE
  5
871
  8
GRID
 10
33.269697241008657
 20
11.182158245229431
 30
0.0
 11
33.269697241008672
 21
9.0792451282643682
 31
0.0
  0
INSERT
  5
873
  8
DIMENSIONS
  2
*U88
 10
0.0
 20
0.0
 30
0.0
  0
LINE
  5
874
  8
GRID
 10
33.269697241008657
 20
10.831672725735251
 30
0.0
 11
31.026188359459319
 21
10.831672725735251
 31
0.0
  0
LINE
  5
875
  8
GRID
 10
31.783387006020149
 20
10.831672725735251
 30
0.0
 11
31.783387006020149
 21
9.0792451282643611
 31
0.0
  0
INSERT
  5
876
  8
DIMENSIONS
  2
*U89
 10
0.0
 20
0.0
 30
0.0
  0
LINE
  5
877
  8
GRID
 10
33.269697241008657
 20
10.481187206241071
 30
0.0
 11
31.026188359459319
 21
10.481187206241071
 31
0.0
  0
LINE
  5
878
  8
GRID
 10
33.269697241008657
 20
10.130701686746891
 30
0.0
 11
31.026188359459319
 21
10.130701686746891
 31
0.0
  0
LINE
  5
879
  8
GRID
 10
33.269697241008657
 20
9.7802161672527177
 30
0.0
 11
31.026188359459319
 21
9.7802161672527177
 31
0.0
  0
LINE
  5
87A
  8
GRID
 10
33.269697241008672
 20
9.4297306477585394
 30
0.0
 11
31.026188359459319
 21
9.4297306477585394
 31
0.0
  0
INSERT
  5
87B
  8
DIMENSIONS
  2
*U90
 10
0.0
 20
0.0
 30
0.0
  0
INSERT
  5
87C
  8
DIMENSIONS
  2
*U91
 10
0.0
 20
0.0
 30
0.0
  0
INSERT
  5
87D
  8
DIMENSIONS
  2
*U92
 10
0.0
 20
0.0
 30
0.0
  0
INSERT
  5
87E
  8
DIMENSIONS
  2
*U93
 10
0.0
 20
0.0
 30
0.0
  0
INSERT
  5
87F
  8
DIMENSIONS
  2
*U94
 10
0.0
 20
0.0
 30
0.0
  0
INSERT
  5
880
  8
DIMENSIONS
  2
*U95
 10
0.0
 20
0.0
 30
0.0
  0
INSERT
  5
881
  8
DIMENSIONS
  2
*U96
 10
0.0
 20
0.0
 30
0.0
  0
LINE
  5
882
  8
GRID
 10
33.269697241008672
 20
9.0792451282643682
 30
0.0
 11
31.026188359459319
 21
9.0792451282643611
 31
0.0
  0
INSERT
  5
883
  8
DIMENSIONS
  2
*U97
 10
0.0
 20
0.0
 30
0.0
  0
INSERT
  5
884
  8
DIMENSIONS
  2
*U98
 10
0.0
 20
0.0
 30
0.0
  0
LINE
  5
DB5
  8
CONVERTER
 10
52.593530389188288
 20
12.581412916975189
 30
0.0
 11
54.093530389188302
 21
12.581412916975189
 31
0.0
  0
LINE
  5
DB6
  8
CONVERTER
 10
54.093530389188302
 20
13.21141291697519
 30
0.0
 11
54.093530389188302
 21
12.581412916975189
 31
0.0
  0
LINE
  5
DB7
  8
CONVERTER
 10
52.593530389188288
 20
13.21141291697519
 30
0.0
 11
52.593530389188288
 21
12.581412916975189
 31
0.0
  0
LINE
  5
DB8
  8
CONVERTER
 10
54.093530389188302
 20
13.21141291697519
 30
0.0
 11
52.593530389188288
 21
13.21141291697519
 31
0.0
  0
CIRCLE
  5
DB9
  8
CONVERTER
 10
53.943530389188311
 20
15.13988541863668
 30
0.0
 40
0.02
  0
CIRCLE
  5
DBA
  8
CONVERTER
 10
52.743530389188308
 20
15.33988541863669
 30
0.0
 40
0.02
  0
CIRCLE
  5
DBB
  8
CONVERTER
 10
52.743530389188308
 20
16.139885418636691
 30
0.0
 40
0.02
  0
LINE
  5
DBC
  8
CONVERTER
 10
52.593530389188302
 20
16.489885418636678
 30
0.0
 11
52.993530389188301
 21
16.489885418636678
 31
0.0
  0
CIRCLE
  5
DBD
  8
CONVERTER
 10
53.943530389188311
 20
16.33988541863669
 30
0.0
 40
0.02
  0
LINE
  5
DBE
  8
CONVERTER
 10
54.093530389188302
 20
16.489885418636678
 30
0.0
 11
53.793530389188291
 21
16.489885418636678
 31
0.0
  0
LINE
  5
DBF
  8
CONVERTER
 10
52.593530389188302
 20
14.98988541863668
 30
0.0
 11
52.593530389188302
 21
16.489885418636678
 31
0.0
  0
LINE
  5
DC0
  8
CONVERTER
 10
54.093530389188302
 20
14.98988541863668
 30
0.0
 11
52.593530389188302
 21
14.98988541863668
 31
0.0
  0
LINE
  5
DC1
  8
CONVERTER
 10
54.093530389188302
 20
16.489885418636678
 30
0.0
 11
54.093530389188302
 21
14.98988541863668
 31
0.0
  0
LINE
  5
DC2
  8
CONVERTER
 10
52.593530389188302
 20
16.489885418636678
 30
0.0
 11
54.093530389188302
 21
16.489885418636678
 31
0.0
  0
LINE
  5
DC3
  8
CONVERTER
 10
52.763530389188297
 20
13.46141291697519
 30
0.0
 11
52.763530389188297
 21
13.21141291697519
 31
0.0
  0
LINE
  5
DC4
  8
CONVERTER
 10
52.723530389188298
 20
13.46141291697519
 30
0.0
 11
52.723530389188298
 21
13.21141291697519
 31
0.0
  0
LINE
  5
DC5
  8
CONVERTER
 10
53.923530389188301
 20
13.46141291697519
 30
0.0
 11
53.923530389188301
 21
13.21141291697519
 31
0.0
  0
LINE
  5
DC6
  8
CONVERTER
 10
53.963530389188307
 20
13.46141291697519
 30
0.0
 11
53.963530389188307
 21
13.21141291697519
 31
0.0
  0
LINE
  5
DC7
  8
CONVERTER
 10
53.963530389188307
 20
13.46141291697519
 30
0.0
 11
53.923530389188301
 21
13.46141291697519
 31
0.0
  0
LINE
  5
DC8
  8
CONVERTER
 10
52.763530389188311
 20
13.46141291697519
 30
0.0
 11
52.723530389188298
 21
13.46141291697519
 31
0.0
  0
DIMENSION
  5
DC9
  8
DIMENSIONS
  2
*D27
 10
54.923580630459611
 20
12.581412916975189
 30
0.0
 11
54.923580630459611
 21
12.886973595106211
 31
0.0
 70
   128
 13
54.093530389188302
 23
13.21141291697519
 33
0.0
 14
54.235966538976427
 24
12.581412916975189
 34
0.0
 50
90.0
  0
DIMENSION
  5
DCC
  8
DIMENSIONS
  2
*D28
 10
51.852738341669749
 20
13.46141291697519
 30
0.0
 11
52.574648300742048
 21
13.8214129169752
 31
0.0
 70
   128
 13
52.593530389188288
 23
13.21141291697519
 33
0.0
 14
52.723530389188298
 24
13.46141291697519
 34
0.0
 50
90.0
  0
INSERT
  5
DCF
  8
DIMENSIONS
  2
*U99
 10
0.0
 20
0.0
 30
0.0
  0
LINE
  5
DD0
  8
CONVERTER
 10
58.229990590492363
 20
13.21141291697519
 30
0.0
 11
56.729990590492363
 21
13.21141291697519
 31
0.0
  0
LINE
  5
DD1
  8
CONVERTER
 10
58.229990590492363
 20
12.581412916975189
 30
0.0
 11
58.229990590492363
 21
13.21141291697519
 31
0.0
  0
LINE
  5
DD2
  8
CONVERTER
 10
56.729990590492363
 20
12.581412916975189
 30
0.0
 11
58.229990590492363
 21
12.581412916975189
 31
0.0
  0
LINE
  5
DD3
  8
CONVERTER
 10
56.729990590492363
 20
13.21141291697519
 30
0.0
 11
56.729990590492363
 21
12.581412916975189
 31
0.0
  0
INSERT
  5
DD4
  8
DIMENSIONS
  2
*U100
 10
0.0
 20
0.0
 30
0.0
  0
INSERT
  5
DD5
  8
DIMENSIONS
  2
*U101
 10
0.0
 20
0.0
 30
0.0
  0
INSERT
  5
DD6
  8
DIMENSIONS
  2
*U102
 10
0.0
 20
0.0
 30
0.0
  0
INSERT
  5
DD7
  8
DIMENSIONS
  2
*U103
 10
0.0
 20
0.0
 30
0.0
  0
LINE
  5
DD8
  8
CONVERTER
 10
52.628530389188299
 20
15.02488541863668
 30
0.0
 11
52.628530389188299
 21
16.454885418636682
 31
0.0
  0
LINE
  5
DD9
  8
CONVERTER
 10
52.628530389188299
 20
16.454885418636682
 30
0.0
 11
54.058530389188299
 21
16.454885418636682
 31
0.0
  0
LINE
  5
DDA
  8
CONVERTER
 10
54.058530389188299
 20
16.454885418636682
 30
0.0
 11
54.058530389188299
 21
15.02488541863668
 31
0.0
  0
LINE
  5
DDB
  8
CONVERTER
 10
54.058530389188299
 20
15.02488541863668
 30
0.0
 11
52.628530389188299
 21
15.02488541863668
 31
0.0
  0
INSERT
  5
DDC
  8
DIMENSIONS
  2
*U104
 10
0.0
 20
0.0
 30
0.0
1001
ACAD
1000
DSTYLE
1002
{
1070
   147
1040
0.09
1070
    77
1070
     0
1002
}
  0
INSERT
  5
DDD
  8
DIMENSIONS
  2
*U105
 10
0.0
 20
0.0
 30
0.0
  0
INSERT
  5
DDE
  8
DIMENSIONS
  2
*U106
 10
0.0
 20
0.0
 30
0.0
1001
ACAD
1000
DSTYLE
1002
{
1070
   147
1040
0.09
1070
    77
1070
     0
1002
}
  0
INSERT
  5
DDF
  8
DIMENSIONS
  2
*U107
 10
0.0
 20
0.0
 30
0.0
  0
INSERT
  5
DE0
  8
DIMENSIONS
  2
*U108
 10
0.0
 20
0.0
 30
0.0
1001
ACAD
1000
DSTYLE
1002
{
1070
   147
1040
0.09
1070
    77
1070
     0
1002
}
  0
INSERT
  5
DE1
  8
DIMENSIONS
  2
*U109
 10
0.0
 20
0.0
 30
0.0
  0
INSERT
  5
DE2
  8
DIMENSIONS
  2
*U110
 10
0.0
 20
0.0
 30
0.0
  0
LINE
  5
DE3
  8
0
 10
53.26898132845794
 20
15.739885418636691
 30
0.0
 11
53.418079449918658
 21
15.739885418636691
 31
0.0
  0
LINE
  5
DE4
  8
0
 10
53.343530389188302
 20
15.80774232118368
 30
0.0
 11
53.343530389188302
 21
15.672028516089689
 31
0.0
  0
LINE
  5
DE5
  8
0
 10
53.221541060205944
 20
15.739885418636691
 30
0.0
 11
52.780603215970963
 21
15.739885418636691
 31
0.0
  0
LINE
  5
DE6
  8
0
 10
53.343530389188302
 20
15.85439394850397
 30
0.0
 11
53.343530389188302
 21
16.305138566746539
 31
0.0
  0
LINE
  5
DE7
  8
0
 10
53.465519718170661
 20
15.739885418636691
 30
0.0
 11
53.769571728407897
 21
15.739885418636691
 31
0.0
  0
LINE
  5
DE8
  8
0
 10
53.343530389188302
 20
15.6253768887694
 30
0.0
 11
53.343530389188302
 21
15.19300024976704
 31
0.0
  0
LINE
  5
DE9
  8
CONVERTER
 10
56.899990590492358
 20
13.46141291697519
 30
0.0
 11
56.859990590492373
 21
13.46141291697519
 31
0.0
  0
LINE
  5
DEA
  8
CONVERTER
 10
56.859990590492373
 20
13.46141291697519
 30
0.0
 11
56.859990590492373
 21
13.21141291697519
 31
0.0
  0
LINE
  5
DEB
  8
CONVERTER
 10
56.899990590492351
 20
13.46141291697519
 30
0.0
 11
56.899990590492351
 21
13.21141291697519
 31
0.0
  0
LINE
  5
DEC
  8
CONVERTER
 10
57.099990590492347
 20
13.46141291697519
 30
0.0
 11
57.099990590492347
 21
13.21141291697519
 31
0.0
  0
LINE
  5
DED
  8
CONVERTER
 10
57.059990590492347
 20
13.46141291697519
 30
0.0
 11
57.059990590492347
 21
13.21141291697519
 31
0.0
  0
LINE
  5
DEE
  8
CONVERTER
 10
57.099990590492347
 20
13.46141291697519
 30
0.0
 11
57.059990590492347
 21
13.46141291697519
 31
0.0
  0
LINE
  5
DEF
  8
CONVERTER
 10
57.859990590492359
 20
13.46141291697519
 30
0.0
 11
57.899990590492358
 21
13.46141291697519
 31
0.0
  0
LINE
  5
DF0
  8
CONVERTER
 10
57.899990590492358
 20
13.46141291697519
 30
0.0
 11
57.899990590492358
 21
13.21141291697519
 31
0.0
  0
LINE
  5
DF1
  8
CONVERTER
 10
57.859990590492359
 20
13.46141291697519
 30
0.0
 11
57.859990590492359
 21
13.21141291697519
 31
0.0
  0
LINE
  5
DF2
  8
CONVERTER
 10
58.059990590492369
 20
13.46141291697519
 30
0.0
 11
58.059990590492369
 21
13.21141291697519
 31
0.0
  0
LINE
  5
DF3
  8
CONVERTER
 10
58.099990590492361
 20
13.46141291697519
 30
0.0
 11
58.099990590492361
 21
13.21141291697519
 31
0.0
  0
LINE
  5
DF4
  8
CONVERTER
 10
58.059990590492362
 20
13.46141291697519
 30
0.0
 11
58.099990590492361
 21
13.46141291697519
 31
0.0
  0
DIMENSION
  5
DF5
  8
DIMENSIONS
  2
*D29
 10
53.943530389188311
 20
17.298857304201771
 30
0.0
 11
53.354486929482931
 21
17.298857304201771
 31
0.0
 70
   128
 13
52.743530389188308
 23
16.139885418636691
 33
0.0
 14
53.943530389188311
 24
16.33988541863669
 34
0.0
  0
DIMENSION
  5
DF8
  8
DIMENSIONS
  2
*D30
 10
52.593530389188302
 20
17.00764725936855
 30
0.0
 11
51.691620430115989
 21
17.00764725936855
 31
0.0
 70
   128
 13
52.743530389188308
 23
16.139885418636691
 33
0.0
 14
52.593530389188302
 24
16.489885418636678
 34
0.0
  0
DIMENSION
  5
DFB
  8
DIMENSIONS
  2
*D31
 10
54.093530389188302
 20
17.00214435934009
 30
0.0
 11
54.995440348260608
 21
17.00214435934009
 31
0.0
 70
   128
 13
53.943530389188311
 23
16.33988541863669
 33
0.0
 14
54.093530389188302
 24
16.489885418636678
 34
0.0
  0
DIMENSION
  5
DFE
  8
DIMENSIONS
  2
*D32
 10
51.922458468677839
 20
16.139885418636691
 30
0.0
 11
51.922458468677839
 21
16.314885418636688
 31
0.0
 70
   128
 13
52.593530389188302
 23
16.489885418636678
 33
0.0
 14
52.743530389188308
 24
16.139885418636691
 34
0.0
 50
90.0
  0
DIMENSION
  5
E01
  8
DIMENSIONS
  2
*D33
 10
51.922458468677839
 20
15.33988541863669
 30
0.0
 11
51.922458468677839
 21
15.73495396427292
 31
0.0
 70
   128
 13
52.743530389188308
 23
16.139885418636691
 33
0.0
 14
52.743530389188308
 24
15.33988541863669
 34
0.0
 50
90.0
  0
DIMENSION
  5
E04
  8
DIMENSIONS
  2
*D34
 10
51.922458468677839
 20
15.33988541863669
 30
0.0
 11
51.922458468677839
 21
15.1648854186367
 31
0.0
 70
   128
 13
52.593530389188302
 23
14.98988541863668
 33
0.0
 14
52.743530389188308
 24
15.33988541863669
 34
0.0
 50
90.0
  0
DIMENSION
  5
E07
  8
DIMENSIONS
  2
*D35
 10
55.581863491772801
 20
15.13988541863668
 30
0.0
 11
55.581863491772801
 21
15.737417158006849
 31
0.0
 70
   128
 13
53.943530389188311
 23
16.33988541863669
 33
0.0
 14
53.943530389188311
 24
15.13988541863668
 34
0.0
 50
90.0
  0
DIMENSION
  5
E0D
  8
DIMENSIONS
  2
*D36
 10
54.610646639569062
 20
15.13988541863668
 30
0.0
 11
54.804000365498048
 21
14.62988541863669
 31
0.0
 70
   128
 13
54.093530389188302
 23
14.98988541863668
 33
0.0
 14
53.943530389188311
 24
15.13988541863668
 34
0.0
 50
90.0
1001
ACAD
1000
DSTYLE
1002
{
1070
   287
1070
     4
1070
   279
1070
     1
1002
}
  0
DIMENSION
  5
E10
  8
DIMENSIONS
  2
*D37
 10
51.085506380903141
 20
16.489885418636678
 30
0.0
 11
51.085506380903141
 21
16.03445275964993
 31
0.0
 70
   128
 13
52.593530389188302
 23
14.98988541863668
 33
0.0
 14
52.593530389188302
 24
16.489885418636678
 34
0.0
 50
90.0
  0
DIMENSION
  5
E13
  8
DIMENSIONS
  2
*D38
 10
54.093530389188302
 20
17.57514338404156
 30
0.0
 11
53.321750907036012
 21
17.57514338404156
 31
0.0
 70
   128
 13
52.593530389188302
 23
16.489885418636678
 33
0.0
 14
54.093530389188302
 24
16.489885418636678
 34
0.0
  0
LINE
  5
E22
  8
CONVERTER
 10
50.632387226772941
 20
13.21141291697519
 30
0.0
 11
49.132387226772941
 21
13.21141291697519
 31
0.0
  0
LINE
  5
E23
  8
CONVERTER
 10
50.632387226772941
 20
12.581412916975189
 30
0.0
 11
50.632387226772941
 21
13.21141291697519
 31
0.0
  0
LINE
  5
E24
  8
CONVERTER
 10
49.132387226772941
 20
12.581412916975189
 30
0.0
 11
50.632387226772941
 21
12.581412916975189
 31
0.0
  0
LINE
  5
E25
  8
CONVERTER
 10
49.132387226772941
 20
13.21141291697519
 30
0.0
 11
49.132387226772941
 21
12.581412916975189
 31
0.0
  0
CIRCLE
  5
1059
  8
CONVERTER
 10
42.488568968734178
 20
15.71679898418823
 30
0.0
 40
0.02
  0
INSERT
  5
105A
  8
DIMENSIONS
  2
*U115
 10
0.0
 20
0.0
 30
0.0
  0
DIMENSION
  5
1066
  8
DIMENSIONS
  2
*D39
 10
43.855335756941457
 20
16.216798984188241
 30
0.0
 11
44.625804720106522
 21
16.57679898418824
 31
0.0
 70
   128
 13
42.488568968734178
 23
15.71679898418823
 33
0.0
 14
42.488568968734171
 24
16.216798984188241
 34
0.0
 50
90.0
  0
INSERT
  5
10B1
  8
DIMENSIONS
  2
*U116
 10
0.0
 20
0.0
 30
0.0
  0
LINE
  5
10B2
  8
GRID
 10
43.294107135847703
 20
8.7056731743217384
 30
0.0
 11
41.050598254298343
 21
8.7056731743217313
 31
0.0
  0
INSERT
  5
10B3
  8
DIMENSIONS
  2
*U117
 10
0.0
 20
0.0
 30
0.0
  0
CIRCLE
  5
10B4
  8
CONVERTER
 10
53.94353038918829
 20
15.73988541863668
 30
0.0
 40
0.02
  0
INSERT
  5
10B5
  8
DIMENSIONS
  2
*U118
 10
0.0
 20
0.0
 30
0.0
  0
DIMENSION
  5
10C0
  8
DIMENSIONS
  2
*D40
 10
54.720486832234307
 20
16.33988541863669
 30
0.0
 11
55.49095579539938
 21
16.69988541863669
 31
0.0
 70
   128
 13
53.94353038918829
 23
15.73988541863668
 33
0.0
 14
53.943530389188311
 24
16.33988541863669
 34
0.0
 50
90.0
  0
LINE
  5
10FA
  8
GRID
 10
52.241691302490452
 20
11.159071810780979
 30
0.0
 11
54.48520018403979
 21
11.159071810780979
 31
0.0
  0
LINE
  5
10FB
  8
GRID
 10
54.48520018403979
 20
11.159071810780979
 30
0.0
 11
54.485200184039797
 21
8.7056731743217384
 31
0.0
  0
LINE
  5
10FC
  8
GRID
 10
52.241691302490452
 20
11.159071810780979
 30
0.0
 11
52.241691302490452
 21
8.7056731743217295
 31
0.0
  0
INSERT
  5
10FD
  8
DIMENSIONS
  2
*U119
 10
0.0
 20
0.0
 30
0.0
  0
LINE
  5
10FE
  8
GRID
 10
54.48520018403979
 20
10.808586291286799
 30
0.0
 11
52.241691302490452
 21
10.808586291286799
 31
0.0
  0
LINE
  5
10FF
  8
GRID
 10
52.998889949051282
 20
10.808586291286799
 30
0.0
 11
52.998889949051282
 21
8.7056731743217313
 31
0.0
  0
INSERT
  5
1100
  8
DIMENSIONS
  2
*U120
 10
0.0
 20
0.0
 30
0.0
  0
LINE
  5
1101
  8
GRID
 10
54.48520018403979
 20
10.458100771792621
 30
0.0
 11
52.241691302490452
 21
10.458100771792621
 31
0.0
  0
LINE
  5
1102
  8
GRID
 10
54.48520018403979
 20
10.107615252298441
 30
0.0
 11
52.241691302490452
 21
10.107615252298441
 31
0.0
  0
LINE
  5
1103
  8
GRID
 10
54.48520018403979
 20
9.7571297328042661
 30
0.0
 11
52.241691302490452
 21
9.7571297328042661
 31
0.0
  0
LINE
  5
1104
  8
GRID
 10
54.48520018403979
 20
9.4066442133100878
 30
0.0
 11
52.241691302490452
 21
9.4066442133100878
 31
0.0
  0
INSERT
  5
1105
  8
DIMENSIONS
  2
*U121
 10
0.0
 20
0.0
 30
0.0
  0
INSERT
  5
1106
  8
DIMENSIONS
  2
*U122
 10
0.0
 20
0.0
 30
0.0
  0
INSERT
  5
1107
  8
DIMENSIONS
  2
*U123
 10
0.0
 20
0.0
 30
0.0
  0
INSERT
  5
1108
  8
DIMENSIONS
  2
*U124
 10
0.0
 20
0.0
 30
0.0
  0
INSERT
  5
1109
  8
DIMENSIONS
  2
*U125
 10
0.0
 20
0.0
 30
0.0
  0
INSERT
  5
110A
  8
DIMENSIONS
  2
*U126
 10
0.0
 20
0.0
 30
0.0
  0
INSERT
  5
110B
  8
DIMENSIONS
  2
*U127
 10
0.0
 20
0.0
 30
0.0
  0
LINE
  5
110C
  8
GRID
 10
54.48520018403979
 20
9.0561586938159166
 30
0.0
 11
52.241691302490452
 21
9.0561586938159095
 31
0.0
  0
INSERT
  5
110D
  8
DIMENSIONS
  2
*U128
 10
0.0
 20
0.0
 30
0.0
  0
INSERT
  5
110E
  8
DIMENSIONS
  2
*U129
 10
0.0
 20
0.0
 30
0.0
  0
INSERT
  5
110F
  8
DIMENSIONS
  2
*U130
 10
0.0
 20
0.0
 30
0.0
  0
LINE
  5
1110
  8
GRID
 10
54.48520018403979
 20
8.7056731743217384
 30
0.0
 11
52.241691302490452
 21
8.7056731743217313
 31
0.0
  0
INSERT
  5
1111
  8
DIMENSIONS
  2
*U131
 10
0.0
 20
0.0
 30
0.0
  0
LINE
  5
11C8
  8
CONVERTER
 10
33.888739237469892
 20
13.46141291697519
 30
0.0
 11
33.848739237469893
 21
13.46141291697519
 31
0.0
  0
LINE
  5
11C9
  8
CONVERTER
 10
33.848739237469893
 20
13.46141291697519
 30
0.0
 11
33.848739237469893
 21
13.21141291697519
 31
0.0
  0
LINE
  5
11CA
  8
CONVERTER
 10
33.888739237469892
 20
13.46141291697519
 30
0.0
 11
33.888739237469892
 21
13.21141291697519
 31
0.0
  0
LINE
  5
11CB
  8
CONVERTER
 10
34.088739237469888
 20
13.46141291697519
 30
0.0
 11
34.088739237469888
 21
13.21141291697519
 31
0.0
  0
LINE
  5
11CC
  8
CONVERTER
 10
34.048739237469889
 20
13.46141291697519
 30
0.0
 11
34.048739237469889
 21
13.21141291697519
 31
0.0
  0
LINE
  5
11CD
  8
CONVERTER
 10
34.088739237469902
 20
13.46141291697519
 30
0.0
 11
34.048739237469889
 21
13.46141291697519
 31
0.0
  0
LINE
  5
11CE
  8
CONVERTER
 10
34.648739237469883
 20
13.46141291697519
 30
0.0
 11
34.688739237469889
 21
13.46141291697519
 31
0.0
  0
LINE
  5
11CF
  8
CONVERTER
 10
34.688739237469889
 20
13.46141291697519
 30
0.0
 11
34.688739237469889
 21
13.21141291697519
 31
0.0
  0
LINE
  5
11D0
  8
CONVERTER
 10
34.64873923746989
 20
13.46141291697519
 30
0.0
 11
34.64873923746989
 21
13.21141291697519
 31
0.0
  0
LINE
  5
11D1
  8
CONVERTER
 10
34.848739237469893
 20
13.46141291697519
 30
0.0
 11
34.848739237469893
 21
13.21141291697519
 31
0.0
  0
LINE
  5
11D2
  8
CONVERTER
 10
34.888739237469892
 20
13.46141291697519
 30
0.0
 11
34.888739237469892
 21
13.21141291697519
 31
0.0
  0
LINE
  5
11D3
  8
CONVERTER
 10
34.848739237469893
 20
13.46141291697519
 30
0.0
 11
34.888739237469892
 21
13.46141291697519
 31
0.0
  0
LINE
  5
11D4
  8
CONVERTER
 10
46.045029170038227
 20
13.46141291697519
 30
0.0
 11
46.00502917003822
 21
13.46141291697519
 31
0.0
  0
LINE
  5
11D5
  8
CONVERTER
 10
46.00502917003822
 20
13.46141291697519
 30
0.0
 11
46.00502917003822
 21
13.21141291697519
 31
0.0
  0
LINE
  5
11D6
  8
CONVERTER
 10
46.045029170038219
 20
13.46141291697519
 30
0.0
 11
46.045029170038219
 21
13.21141291697519
 31
0.0
  0
LINE
  5
11D7
  8
CONVERTER
 10
37.947425806318812
 20
13.46141291697519
 30
0.0
 11
37.907425806318813
 21
13.46141291697519
 31
0.0
  0
LINE
  5
11D8
  8
CONVERTER
 10
37.907425806318813
 20
13.46141291697519
 30
0.0
 11
37.907425806318813
 21
13.21141291697519
 31
0.0
  0
LINE
  5
11D9
  8
CONVERTER
 10
37.947425806318797
 20
13.46141291697519
 30
0.0
 11
37.947425806318797
 21
13.21141291697519
 31
0.0
  0
LINE
  5
11DA
  8
CONVERTER
 10
38.047425806318792
 20
13.46141291697519
 30
0.0
 11
38.047425806318792
 21
13.21141291697519
 31
0.0
  0
LINE
  5
11DB
  8
CONVERTER
 10
38.007425806318793
 20
13.46141291697519
 30
0.0
 11
38.007425806318793
 21
13.21141291697519
 31
0.0
  0
LINE
  5
11DC
  8
CONVERTER
 10
38.047425806318792
 20
13.46141291697519
 30
0.0
 11
38.007425806318793
 21
13.46141291697519
 31
0.0
  0
LINE
  5
11DD
  8
CONVERTER
 10
38.807425806318797
 20
13.46141291697519
 30
0.0
 11
38.847425806318789
 21
13.46141291697519
 31
0.0
  0
LINE
  5
11DE
  8
CONVERTER
 10
38.847425806318789
 20
13.46141291697519
 30
0.0
 11
38.847425806318789
 21
13.21141291697519
 31
0.0
  0
LINE
  5
11DF
  8
CONVERTER
 10
38.807425806318797
 20
13.46141291697519
 30
0.0
 11
38.807425806318797
 21
13.21141291697519
 31
0.0
  0
LINE
  5
11E0
  8
CONVERTER
 10
38.907425806318813
 20
13.46141291697519
 30
0.0
 11
38.907425806318813
 21
13.21141291697519
 31
0.0
  0
LINE
  5
11E1
  8
CONVERTER
 10
38.947425806318797
 20
13.46141291697519
 30
0.0
 11
38.947425806318797
 21
13.21141291697519
 31
0.0
  0
LINE
  5
11E2
  8
CONVERTER
 10
38.907425806318798
 20
13.46141291697519
 30
0.0
 11
38.947425806318797
 21
13.46141291697519
 31
0.0
  0
LINE
  5
11E3
  8
CONVERTER
 10
38.447425806318797
 20
13.46141291697519
 30
0.0
 11
38.407425806318813
 21
13.46141291697519
 31
0.0
  0
LINE
  5
11E4
  8
CONVERTER
 10
38.407425806318813
 20
13.46141291697519
 30
0.0
 11
38.407425806318813
 21
13.21141291697519
 31
0.0
  0
LINE
  5
11E5
  8
CONVERTER
 10
38.447425806318797
 20
13.46141291697519
 30
0.0
 11
38.447425806318797
 21
13.21141291697519
 31
0.0
  0
LINE
  5
12ED
  8
CONVERTER
 10
57.499990590492359
 20
13.46141291697519
 30
0.0
 11
57.499990590492359
 21
13.21141291697519
 31
0.0
  0
LINE
  5
12EE
  8
CONVERTER
 10
57.45999059049236
 20
13.46141291697519
 30
0.0
 11
57.45999059049236
 21
13.21141291697519
 31
0.0
  0
LINE
  5
12EF
  8
CONVERTER
 10
57.499990590492359
 20
13.46141291697519
 30
0.0
 11
57.45999059049236
 21
13.46141291697519
 31
0.0
  0
LINE
  5
12F0
  8
CONVERTER
 10
49.30238722677295
 20
13.46141291697519
 30
0.0
 11
49.262387226772937
 21
13.46141291697519
 31
0.0
  0
LINE
  5
12F1
  8
CONVERTER
 10
49.262387226772937
 20
13.46141291697519
 30
0.0
 11
49.262387226772937
 21
13.21141291697519
 31
0.0
  0
LINE
  5
12F2
  8
CONVERTER
 10
49.302387226772943
 20
13.46141291697519
 30
0.0
 11
49.302387226772943
 21
13.21141291697519
 31
0.0
  0
LINE
  5
12F3
  8
CONVERTER
 10
49.502387226772932
 20
13.46141291697519
 30
0.0
 11
49.502387226772932
 21
13.21141291697519
 31
0.0
  0
LINE
  5
12F4
  8
CONVERTER
 10
49.462387226772933
 20
13.46141291697519
 30
0.0
 11
49.462387226772933
 21
13.21141291697519
 31
0.0
  0
LINE
  5
12F5
  8
CONVERTER
 10
49.502387226772932
 20
13.46141291697519
 30
0.0
 11
49.462387226772933
 21
13.46141291697519
 31
0.0
  0
LINE
  5
12F6
  8
CONVERTER
 10
50.262387226772937
 20
13.46141291697519
 30
0.0
 11
50.302387226772929
 21
13.46141291697519
 31
0.0
  0
LINE
  5
12F7
  8
CONVERTER
 10
50.302387226772929
 20
13.46141291697519
 30
0.0
 11
50.302387226772929
 21
13.21141291697519
 31
0.0
  0
LINE
  5
12F8
  8
CONVERTER
 10
50.262387226772937
 20
13.46141291697519
 30
0.0
 11
50.262387226772937
 21
13.21141291697519
 31
0.0
  0
LINE
  5
12F9
  8
CONVERTER
 10
50.46238722677294
 20
13.46141291697519
 30
0.0
 11
50.46238722677294
 21
13.21141291697519
 31
0.0
  0
LINE
  5
12FA
  8
CONVERTER
 10
50.502387226772939
 20
13.46141291697519
 30
0.0
 11
50.502387226772939
 21
13.21141291697519
 31
0.0
  0
LINE
  5
12FB
  8
CONVERTER
 10
50.46238722677294
 20
13.46141291697519
 30
0.0
 11
50.502387226772939
 21
13.46141291697519
 31
0.0
  0
LINE
  5
12FC
  8
CONVERTER
 10
49.90238722677293
 20
13.46141291697519
 30
0.0
 11
49.90238722677293
 21
13.21141291697519
 31
0.0
  0
LINE
  5
12FD
  8
CONVERTER
 10
49.862387226772938
 20
13.46141291697519
 30
0.0
 11
49.862387226772938
 21
13.21141291697519
 31
0.0
  0
LINE
  5
12FE
  8
CONVERTER
 10
49.90238722677293
 20
13.46141291697519
 30
0.0
 11
49.862387226772938
 21
13.46141291697519
 31
0.0
  0
ENDSEC
  0
EOF
