  0
SECTION
  2
HEADER
  9
$ACADVER
  1
AC1009
  9
$INSBASE
 10
0.0
 20
0.0
 30
0.0
  9
$EXTMIN
 10
13.64538997407074
 20
12.66648490856077
 30
-0.0000000000112498
  9
$EXTMAX
 10
30.647177240916111
 20
23.683883612908449
 30
0.0000000000002956
  9
$LIMMIN
 10
0.0
 20
0.0
  9
$LIMMAX
 10
12.0
 20
9.0
  9
$ORTHOMODE
 70
     0
  9
$REGENMODE
 70
     1
  9
$FILLMODE
 70
     1
  9
$QTEXTMODE
 70
     0
  9
$MIRRTEXT
 70
     0
  9
$DRAGMODE
 70
     2
  9
$LTSCALE
 40
1.0
  9
$OSMODE
 70
    39
  9
$ATTMODE
 70
     1
  9
$TEXTSIZE
 40
0.125
  9
$TRACEWID
 40
0.05
  9
$TEXTSTYLE
  7
STANDARD
  9
$CLAYER
  8
CONVERTER
  9
$CELTYPE
  6
BYLAYER
  9
$CECOLOR
 62
   256
  9
$DIMSCALE
 40
1.0
  9
$DIMASZ
 40
0.125
  9
$DIMEXO
 40
0.0625
  9
$DIMDLI
 40
0.38
  9
$DIMRND
 40
0.0
  9
$DIMDLE
 40
0.0
  9
$DIMEXE
 40
0.18
  9
$DIMTP
 40
0.0
  9
$DIMTM
 40
0.0
  9
$DIMTXT
 40
0.125
  9
$DIMCEN
 40
0.09
  9
$DIMTSZ
 40
0.0
  9
$DIMTOL
 70
     0
  9
$DIMLIM
 70
     0
  9
$DIMTIH
 70
     1
  9
$DIMTOH
 70
     1
  9
$DIMSE1
 70
     0
  9
$DIMSE2
 70
     0
  9
$DIMTAD
 70
     0
  9
$DIMZIN
 70
     0
  9
$DIMBLK
  1

  9
$DIMASO
 70
     1
  9
$DIMSHO
 70
     1
  9
$DIMPOST
  1

  9
$DIMAPOST
  1

  9
$DIMALT
 70
     1
  9
$DIMALTD
 70
     2
  9
$DIMALTF
 40
25.399999999999999
  9
$DIMLFAC
 40
1.0
  9
$DIMTOFL
 70
     0
  9
$DIMTVP
 40
0.0
  9
$DIMTIX
 70
     0
  9
$DIMSOXD
 70
     0
  9
$DIMSAH
 70
     0
  9
$DIMBLK1
  1

  9
$DIMBLK2
  1

  9
$DIMSTYLE
  2
STANDARD
  9
$DIMCLRD
 70
     0
  9
$DIMCLRE
 70
     0
  9
$DIMCLRT
 70
     0
  9
$DIMTFAC
 40
1.0
  9
$DIMGAP
 40
0.09
  9
$LUNITS
 70
     2
  9
$LUPREC
 70
     4
  9
$SKETCHINC
 40
0.1
  9
$FILLETRAD
 40
0.0
  9
$AUNITS
 70
     0
  9
$AUPREC
 70
     0
  9
$MENU
  1
.
  9
$ELEVATION
 40
0.0
  9
$PELEVATION
 40
0.0
  9
$THICKNESS
 40
0.0
  9
$LIMCHECK
 70
     0
  9
$BLIPMODE
 70
     0
  9
$CHAMFERA
 40
0.0
  9
$CHAMFERB
 40
0.0
  9
$SKPOLY
 70
     0
  9
$TDCREATE
 40
2455580.4643647461
  9
$TDUPDATE
 40
2456822.3989359839
  9
$TDINDWG
 40
0.1233901157
  9
$TDUSRTIMER
 40
0.1233901157
  9
$USRTIMER
 70
     1
  9
$ANGBASE
 50
0.0
  9
$ANGDIR
 70
     0
  9
$PDMODE
 70
     0
  9
$PDSIZE
 40
0.0
  9
$PLINEWID
 40
0.0
  9
$COORDS
 70
     1
  9
$SPLFRAME
 70
     0
  9
$SPLINETYPE
 70
     6
  9
$SPLINESEGS
 70
     8
  9
$ATTDIA
 70
     0
  9
$ATTREQ
 70
     1
  9
$HANDLING
 70
     1
  9
$HANDSEED
  5
1472
  9
$SURFTAB1
 70
     6
  9
$SURFTAB2
 70
     6
  9
$SURFTYPE
 70
     6
  9
$SURFU
 70
     6
  9
$SURFV
 70
     6
  9
$UCSNAME
  2

  9
$UCSORG
 10
0.0
 20
0.0
 30
0.0
  9
$UCSXDIR
 10
1.0
 20
0.0
 30
0.0
  9
$UCSYDIR
 10
0.0
 20
1.0
 30
0.0
  9
$PUCSNAME
  2

  9
$PUCSORG
 10
0.0
 20
0.0
 30
0.0
  9
$PUCSXDIR
 10
1.0
 20
0.0
 30
0.0
  9
$PUCSYDIR
 10
0.0
 20
1.0
 30
0.0
  9
$USERI1
 70
     0
  9
$USERI2
 70
     0
  9
$USERI3
 70
     0
  9
$USERI4
 70
     0
  9
$USERI5
 70
     0
  9
$USERR1
 40
0.0
  9
$USERR2
 40
0.0
  9
$USERR3
 40
0.0
  9
$USERR4
 40
0.0
  9
$USERR5
 40
0.0
  9
$WORLDVIEW
 70
     1
  9
$SHADEDGE
 70
     3
  9
$SHADEDIF
 70
    70
  9
$TILEMODE
 70
     1
  9
$MAXACTVP
 70
    64
  9
$PLIMCHECK
 70
     0
  9
$PEXTMIN
 10
0.0
 20
0.0
 30
0.0
  9
$PEXTMAX
 10
0.0
 20
0.0
 30
0.0
  9
$PLIMMIN
 10
0.0
 20
0.0
  9
$PLIMMAX
 10
12.0
 20
9.0
  9
$UNITMODE
 70
     0
  9
$VISRETAIN
 70
     1
  9
$PLINEGEN
 70
     0
  9
$PSLTSCALE
 70
     1
  0
ENDSEC
  0
SECTION
  2
TABLES
  0
TABLE
  2
VPORT
 70
     1
  0
VPORT
  2
*ACTIVE
 70
     0
 10
0.0
 20
0.0
 11
1.0
 21
1.0
 12
22.146776840486009
 22
18.471219029521709
 13
0.0
 23
0.0
 14
0.5
 24
0.5
 15
0.5
 25
0.5
 16
0.0
 26
0.0
 36
1.0
 17
0.0
 27
0.0
 37
0.0
 40
11.7113319234165
 41
2.2000000000000002
 42
50.0
 43
0.0
 44
0.0
 50
0.0
 51
0.0
 71
     0
 72
  1000
 73
     1
 74
     2
 75
     0
 76
     0
 77
     0
 78
     0
  0
ENDTAB
  0
TABLE
  2
LTYPE
 70
     2
  0
LTYPE
  2
CONTINUOUS
 70
     0
  3
Solid line
 72
    65
 73
     0
 40
0.0
  0
LTYPE
  2
PHANTOM2
 70
     0
  3
___ _ _ ___ _ _ ___ _ _ ___ _ _
 72
    65
 73
     6
 40
1.25
 49
0.625
 49
-0.125
 49
0.125
 49
-0.125
 49
0.125
 49
-0.125
  0
ENDTAB
  0
TABLE
  2
LAYER
 70
     9
  0
LAYER
  2
0
 70
     0
 62
     7
  6
CONTINUOUS
  0
LAYER
  2
FRAME
 70
     0
 62
     7
  6
CONTINUOUS
  0
LAYER
  2
FRAME_TEXT
 70
     0
 62
     1
  6
CONTINUOUS
  0
LAYER
  2
DEFPOINTS
 70
     0
 62
     7
  6
CONTINUOUS
  0
LAYER
  2
DIMENSIONS
 70
     0
 62
     1
  6
CONTINUOUS
  0
LAYER
  2
CONVERTER
 70
     0
 62
     7
  6
CONTINUOUS
  0
LAYER
  2
MISC
 70
     0
 62
     1
  6
CONTINUOUS
  0
LAYER
  2
GRID
 70
     0
 62
     7
  6
CONTINUOUS
  0
LAYER
  2
PINOUT
 70
     0
 62
     1
  6
CONTINUOUS
  0
ENDTAB
  0
TABLE
  2
STYLE
 70
     2
  0
STYLE
  2
STANDARD
 70
     0
 40
0.0
 41
1.0
 50
0.0
 71
     0
 42
0.125
  3
txt
  4

  0
ENDTAB
  0
TABLE
  2
VIEW
 70
     0
  0
ENDTAB
  0
TABLE
  2
UCS
 70
     0
  0
ENDTAB
  0
TABLE
  2
APPID
 70
     6
  0
APPID
  2
ACAD
 70
     0
  0
APPID
  2
DCO15
 70
     0
  0
APPID
  2
ACAD_DSTYLE_DIMJAG
 70
     0
  0
APPID
  2
ACAD_DSTYLE_DIMTALN
 70
     0
  0
APPID
  2
ACAD_NAV_VCDISPLAY
 70
     0
  0
APPID
  2
ACAD_MLEADERVER
 70
     0
  0
ENDTAB
  0
TABLE
  2
DIMSTYLE
 70
     2
  0
DIMSTYLE
  2
STANDARD
 70
     0
  3

  4

  5

  6

  7

 40
1.0
 41
0.125
 42
0.0625
 43
0.38
 44
0.18
 45
0.0
 46
0.0
 47
0.0
 48
0.0
140
0.125
141
0.09
142
0.0
143
25.399999999999999
144
1.0
145
0.0
146
1.0
147
0.09
 71
     0
 72
     0
 73
     1
 74
     1
 75
     0
 76
     0
 77
     0
 78
     0
170
     1
171
     2
172
     0
173
     0
174
     0
175
     0
176
     0
177
     0
178
     0
  0
ENDTAB
  0
ENDSEC
  0
SECTION
  2
BLOCKS
  0
BLOCK
  8
0
  2
$MODEL_SPACE
 70
     0
 10
0.0
 20
0.0
 30
0.0
  3
$MODEL_SPACE
  1

  0
ENDBLK
  5
21
  8
0
  0
BLOCK
 67
     1
  8
0
  2
$PAPER_SPACE
 70
     0
 10
0.0
 20
0.0
 30
0.0
  3
$PAPER_SPACE
  1

  0
ENDBLK
  5
5B
 67
     1
  8
0
  0
BLOCK
  8
0
  2
A$C22C92D23
 70
     0
 10
0.0
 20
0.0
 30
0.0
  3
A$C22C92D23
  1

  0
TEXT
  5
117
  8
FRAME_TEXT
 10
-0.0000000000000284
 20
0.0416666867809426
 30
0.0
 40
0.125
  1
Dimensional Drawing
  0
ENDBLK
  5
119
  8
0
  0
BLOCK
  8
0
  2
A$C5BC8728C
 70
     0
 10
0.0
 20
0.0
 30
0.0
  3
A$C5BC8728C
  1

  0
TEXT
  5
5E9
  8
FRAME_TEXT
 10
-0.0000000086647987
 20
-0.0000000014337491
 30
0.0
 40
0.05
  1
CDL    03/05
  0
ENDBLK
  5
5EB
  8
0
  0
BLOCK
  8
0
  2
A$C62316909
 70
     0
 10
0.0
 20
0.0
 30
0.0
  3
A$C62316909
  1

  0
INSERT
  5
60E
  8
CONVERTER
  2
*U18
 10
0.0
 20
0.0
 30
0.0
  0
ENDBLK
  5
610
  8
0
  0
BLOCK
  8
0
  2
*D4
 70
     1
 10
0.0
 20
0.0
 30
0.0
  3
*D4
  1

  0
LINE
  5
13F8
  8
DIMENSIONS
 62
     0
 10
21.133357657730659
 20
21.121596893411208
 30
0.0
 11
19.765044886313511
 21
21.121596893411208
 31
0.0
  0
LINE
  5
13F9
  8
DIMENSIONS
 62
     0
 10
21.133357657730659
 20
20.321596893411211
 30
0.0
 11
19.765044886313511
 21
20.321596893411211
 31
0.0
  0
LINE
  5
13FA
  8
DIMENSIONS
 62
     0
 10
19.945044886313511
 20
20.996596893411208
 30
0.0
 11
19.945044886313511
 21
20.897666137497609
 31
0.0
  0
LINE
  5
13FB
  8
DIMENSIONS
 62
     0
 10
19.945044886313511
 20
20.446596893411201
 30
0.0
 11
19.945044886313511
 21
20.555986252854488
 31
0.0
  0
TEXT
  8
DIMENSIONS
  40
0.125
  5
1471
  62
0
  72
0
  71
0
 10
19.6896
 20
20.5056
 30
0.000000
  1
0.80 [20.32]
  0
SOLID
  5
13FD
  8
DIMENSIONS
 62
     0
 10
19.924211552980179
 20
20.996596893411208
 30
0.0
 11
19.965878219646839
 21
20.996596893411208
 31
0.0
 12
19.945044886313511
 22
21.121596893411208
 32
0.0
 13
19.945044886313511
 23
21.121596893411208
 33
0.0
  0
SOLID
  5
13FE
  8
DIMENSIONS
 62
     0
 10
19.924211552980179
 20
20.446596893411201
 30
0.0
 11
19.965878219646839
 21
20.446596893411201
 31
0.0
 12
19.945044886313511
 22
20.321596893411211
 32
0.0
 13
19.945044886313511
 23
20.321596893411211
 33
0.0
  0
POINT
  5
13FF
  8
DEFPOINTS
 62
     0
 10
21.195857657730659
 20
21.121596893411208
 30
0.0
  0
POINT
  5
1400
  8
DEFPOINTS
 62
     0
 10
21.195857657730659
 20
20.321596893411211
 30
0.0
  0
POINT
  5
1401
  8
DEFPOINTS
 62
     0
 10
19.945044886313511
 20
20.321596893411211
 30
0.0
  0
ENDBLK
  5
F94
  8
0
  0
BLOCK
  8
0
  2
*D5
 70
     1
 10
0.0
 20
0.0
 30
0.0
  3
*D5
  1

  0
LINE
  5
11F7
  8
DIMENSIONS
 62
     0
 10
20.533357657730651
 20
21.471596893411199
 30
0.0
 11
19.765044886313511
 21
21.471596893411199
 31
0.0
  0
LINE
  5
11F8
  8
DIMENSIONS
 62
     0
 10
21.133357657730659
 20
21.121596893411208
 30
0.0
 11
19.765044886313511
 21
21.121596893411208
 31
0.0
  0
LINE
  5
11F9
  8
DIMENSIONS
 62
     0
 10
19.945044886313511
 20
21.596596893411199
 30
0.0
 11
19.945044886313511
 21
21.721596893411199
 31
0.0
  0
LINE
  5
11FA
  8
DIMENSIONS
 62
     0
 10
19.945044886313511
 20
20.996596893411208
 30
0.0
 11
19.945044886313511
 21
20.871596893411201
 31
0.0
  0
SOLID
  5
11FB
  8
DIMENSIONS
 62
     0
 10
19.924211552980179
 20
21.596596893411199
 30
0.0
 11
19.965878219646839
 21
21.596596893411199
 31
0.0
 12
19.945044886313511
 22
21.471596893411199
 32
0.0
 13
19.945044886313511
 23
21.471596893411199
 33
0.0
  0
SOLID
  5
11FC
  8
DIMENSIONS
 62
     0
 10
19.924211552980179
 20
20.996596893411208
 30
0.0
 11
19.965878219646839
 21
20.996596893411208
 31
0.0
 12
19.945044886313511
 22
21.121596893411208
 32
0.0
 13
19.945044886313511
 23
21.121596893411208
 33
0.0
  0
INSERT
  5
11FD
  8
CONVERTER
  2
*U46
 10
0.0
 20
0.0
 30
0.0
  0
POINT
  5
11FE
  8
DEFPOINTS
 62
     0
 10
20.595857657730662
 20
21.471596893411199
 30
0.0
  0
POINT
  5
11FF
  8
DEFPOINTS
 62
     0
 10
21.195857657730659
 20
21.121596893411208
 30
0.0
  0
POINT
  5
1200
  8
DEFPOINTS
 62
     0
 10
19.945044886313511
 20
21.121596893411208
 30
0.0
  0
ENDBLK
  5
FA1
  8
0
  0
BLOCK
  8
0
  2
*D6
 70
     1
 10
0.0
 20
0.0
 30
0.0
  3
*D6
  1

  0
LINE
  5
1201
  8
DIMENSIONS
 62
     0
 10
22.458357657730659
 20
21.221596893411199
 30
0.0
 11
23.901028972394059
 21
21.221596893411199
 31
0.0
  0
LINE
  5
1202
  8
DIMENSIONS
 62
     0
 10
22.458357657730659
 20
20.221596893411199
 30
0.0
 11
23.901028972394059
 21
20.221596893411199
 31
0.0
  0
LINE
  5
1203
  8
DIMENSIONS
 62
     0
 10
23.721028972394059
 20
21.096596893411199
 30
0.0
 11
23.721028972394059
 21
20.892436835732759
 31
0.0
  0
LINE
  5
1204
  8
DIMENSIONS
 62
     0
 10
23.721028972394059
 20
20.346596893411199
 30
0.0
 11
23.721028972394059
 21
20.55075695108965
 31
0.0
  0
SOLID
  5
1205
  8
DIMENSIONS
 62
     0
 10
23.70019563906073
 20
21.096596893411199
 30
0.0
 11
23.741862305727391
 21
21.096596893411199
 31
0.0
 12
23.721028972394059
 22
21.221596893411199
 32
0.0
 13
23.721028972394059
 23
21.221596893411199
 33
0.0
  0
SOLID
  5
1206
  8
DIMENSIONS
 62
     0
 10
23.70019563906073
 20
20.346596893411199
 30
0.0
 11
23.741862305727391
 21
20.346596893411199
 31
0.0
 12
23.721028972394059
 22
20.221596893411199
 32
0.0
 13
23.721028972394059
 23
20.221596893411199
 33
0.0
  0
INSERT
  5
1207
  8
CONVERTER
  2
*U47
 10
0.0
 20
0.0
 30
0.0
  0
POINT
  5
1208
  8
DEFPOINTS
 62
     0
 10
22.395857657730659
 20
21.221596893411199
 30
0.0
  0
POINT
  5
1209
  8
DEFPOINTS
 62
     0
 10
22.395857657730659
 20
20.221596893411199
 30
0.0
  0
POINT
  5
120A
  8
DEFPOINTS
 62
     0
 10
23.721028972394059
 20
20.221596893411199
 30
0.0
  0
ENDBLK
  5
FAE
  8
0
  0
BLOCK
  8
0
  2
*D7
 70
     1
 10
0.0
 20
0.0
 30
0.0
  3
*D7
  1

  0
LINE
  5
120B
  8
DIMENSIONS
 62
     0
 10
20.533357657730651
 20
19.971596893411199
 30
0.0
 11
19.765044886313511
 21
19.971596893411199
 31
0.0
  0
LINE
  5
120C
  8
DIMENSIONS
 62
     0
 10
21.133357657730659
 20
20.321596893411211
 30
0.0
 11
19.765044886313511
 21
20.321596893411211
 31
0.0
  0
LINE
  5
120D
  8
DIMENSIONS
 62
     0
 10
19.945044886313511
 20
19.846596893411199
 30
0.0
 11
19.945044886313511
 21
19.721596893411199
 31
0.0
  0
LINE
  5
120E
  8
DIMENSIONS
 62
     0
 10
19.945044886313511
 20
20.446596893411201
 30
0.0
 11
19.945044886313511
 21
20.571596893411211
 31
0.0
  0
SOLID
  5
120F
  8
DIMENSIONS
 62
     0
 10
19.924211552980179
 20
19.846596893411199
 30
0.0
 11
19.965878219646839
 21
19.846596893411199
 31
0.0
 12
19.945044886313511
 22
19.971596893411199
 32
0.0
 13
19.945044886313511
 23
19.971596893411199
 33
0.0
  0
SOLID
  5
1210
  8
DIMENSIONS
 62
     0
 10
19.924211552980179
 20
20.446596893411201
 30
0.0
 11
19.965878219646839
 21
20.446596893411201
 31
0.0
 12
19.945044886313511
 22
20.321596893411211
 32
0.0
 13
19.945044886313511
 23
20.321596893411211
 33
0.0
  0
INSERT
  5
1211
  8
CONVERTER
  2
*U48
 10
0.0
 20
0.0
 30
0.0
  0
POINT
  5
1212
  8
DEFPOINTS
 62
     0
 10
20.595857657730662
 20
19.971596893411199
 30
0.0
  0
POINT
  5
1213
  8
DEFPOINTS
 62
     0
 10
21.195857657730659
 20
20.321596893411211
 30
0.0
  0
POINT
  5
1214
  8
DEFPOINTS
 62
     0
 10
19.945044886313511
 20
20.321596893411211
 30
0.0
  0
ENDBLK
  5
FBB
  8
0
  0
BLOCK
  8
0
  2
*D8
 70
     1
 10
0.0
 20
0.0
 30
0.0
  3
*D8
  1

  0
LINE
  5
1252
  8
DIMENSIONS
 62
     0
 10
22.395857657730659
 20
21.284096893411199
 30
0.0
 11
22.395857657730659
 21
22.118630287002421
 31
0.0
  0
LINE
  5
1253
  8
DIMENSIONS
 62
     0
 10
22.995857657730649
 20
21.534096893411199
 30
0.0
 11
22.995857657730649
 21
22.118630287002421
 31
0.0
  0
LINE
  5
1254
  8
DIMENSIONS
 62
     0
 10
22.520857657730659
 20
21.938630287002422
 30
0.0
 11
22.870857657730649
 21
21.938630287002422
 31
0.0
  0
LINE
  5
1255
  8
DIMENSIONS
 62
     0
 10
22.995857657730649
 20
21.938630287002422
 30
0.0
 11
23.167000411876291
 21
21.938630287002422
 31
0.0
  0
SOLID
  5
1256
  8
DIMENSIONS
 62
     0
 10
22.520857657730659
 20
21.95946362033575
 30
0.0
 11
22.520857657730659
 21
21.91779695366909
 31
0.0
 12
22.395857657730659
 22
21.938630287002422
 32
0.0
 13
22.395857657730659
 23
21.938630287002422
 33
0.0
  0
SOLID
  5
1257
  8
DIMENSIONS
 62
     0
 10
22.870857657730649
 20
21.95946362033575
 30
0.0
 11
22.870857657730649
 21
21.91779695366909
 31
0.0
 12
22.995857657730649
 22
21.938630287002422
 32
0.0
 13
22.995857657730649
 23
21.938630287002422
 33
0.0
  0
INSERT
  5
1258
  8
CONVERTER
  2
*U55
 10
0.0
 20
0.0
 30
0.0
  0
POINT
  5
1259
  8
DEFPOINTS
 62
     0
 10
22.395857657730659
 20
21.221596893411199
 30
0.0
  0
POINT
  5
125A
  8
DEFPOINTS
 62
     0
 10
22.995857657730649
 20
21.471596893411199
 30
0.0
  0
POINT
  5
125B
  8
DEFPOINTS
 62
     0
 10
22.995857657730649
 20
21.938630287002422
 30
0.0
  0
ENDBLK
  5
FC8
  8
0
  0
BLOCK
  8
0
  2
*D9
 70
     1
 10
0.0
 20
0.0
 30
0.0
  3
*D9
  1

  0
LINE
  5
125C
  8
DIMENSIONS
 62
     0
 10
22.458357657730659
 20
21.221596893411199
 30
0.0
 11
23.901028972394059
 21
21.221596893411199
 31
0.0
  0
LINE
  5
125D
  8
DIMENSIONS
 62
     0
 10
23.058357657730649
 20
21.471596893411199
 30
0.0
 11
23.901028972394059
 21
21.471596893411199
 31
0.0
  0
LINE
  5
125E
  8
DIMENSIONS
 62
     0
 10
23.721028972394059
 20
21.096596893411199
 30
0.0
 11
23.721028972394059
 21
20.971596893411199
 31
0.0
  0
LINE
  5
125F
  8
DIMENSIONS
 62
     0
 10
23.721028972394059
 20
21.596596893411199
 30
0.0
 11
23.721028972394059
 21
21.721596893411199
 31
0.0
  0
SOLID
  5
1260
  8
DIMENSIONS
 62
     0
 10
23.70019563906073
 20
21.096596893411199
 30
0.0
 11
23.741862305727391
 21
21.096596893411199
 31
0.0
 12
23.721028972394059
 22
21.221596893411199
 32
0.0
 13
23.721028972394059
 23
21.221596893411199
 33
0.0
  0
SOLID
  5
1261
  8
DIMENSIONS
 62
     0
 10
23.70019563906073
 20
21.596596893411199
 30
0.0
 11
23.741862305727391
 21
21.596596893411199
 31
0.0
 12
23.721028972394059
 22
21.471596893411199
 32
0.0
 13
23.721028972394059
 23
21.471596893411199
 33
0.0
  0
INSERT
  5
1262
  8
CONVERTER
  2
*U56
 10
0.0
 20
0.0
 30
0.0
  0
POINT
  5
1263
  8
DEFPOINTS
 62
     0
 10
22.395857657730659
 20
21.221596893411199
 30
0.0
  0
POINT
  5
1264
  8
DEFPOINTS
 62
     0
 10
22.995857657730649
 20
21.471596893411199
 30
0.0
  0
POINT
  5
1265
  8
DEFPOINTS
 62
     0
 10
23.721028972394059
 20
21.471596893411199
 30
0.0
  0
ENDBLK
  5
FD5
  8
0
  0
BLOCK
  8
0
  2
*D10
 70
     1
 10
0.0
 20
0.0
 30
0.0
  3
*D10
  1

  0
LINE
  5
1266
  8
DIMENSIONS
 62
     0
 10
23.058357657730649
 20
19.971596893411199
 30
0.0
 11
23.901028972394059
 21
19.971596893411199
 31
0.0
  0
LINE
  5
1267
  8
DIMENSIONS
 62
     0
 10
22.458357657730659
 20
20.221596893411199
 30
0.0
 11
23.901028972394059
 21
20.221596893411199
 31
0.0
  0
LINE
  5
1268
  8
DIMENSIONS
 62
     0
 10
23.721028972394059
 20
19.846596893411199
 30
0.0
 11
23.721028972394059
 21
19.721596893411199
 31
0.0
  0
LINE
  5
1269
  8
DIMENSIONS
 62
     0
 10
23.721028972394059
 20
20.346596893411199
 30
0.0
 11
23.721028972394059
 21
20.471596893411199
 31
0.0
  0
SOLID
  5
126A
  8
DIMENSIONS
 62
     0
 10
23.70019563906073
 20
19.846596893411199
 30
0.0
 11
23.741862305727391
 21
19.846596893411199
 31
0.0
 12
23.721028972394059
 22
19.971596893411199
 32
0.0
 13
23.721028972394059
 23
19.971596893411199
 33
0.0
  0
SOLID
  5
126B
  8
DIMENSIONS
 62
     0
 10
23.70019563906073
 20
20.346596893411199
 30
0.0
 11
23.741862305727391
 21
20.346596893411199
 31
0.0
 12
23.721028972394059
 22
20.221596893411199
 32
0.0
 13
23.721028972394059
 23
20.221596893411199
 33
0.0
  0
INSERT
  5
126C
  8
CONVERTER
  2
*U57
 10
0.0
 20
0.0
 30
0.0
  0
POINT
  5
126D
  8
DEFPOINTS
 62
     0
 10
22.995857657730649
 20
19.971596893411199
 30
0.0
  0
POINT
  5
126E
  8
DEFPOINTS
 62
     0
 10
22.395857657730659
 20
20.221596893411199
 30
0.0
  0
POINT
  5
126F
  8
DEFPOINTS
 62
     0
 10
23.721028972394059
 20
20.221596893411199
 30
0.0
  0
ENDBLK
  5
FE2
  8
0
  0
BLOCK
  8
0
  2
*D11
 70
     1
 10
0.0
 20
0.0
 30
0.0
  3
*D11
  1

  0
LINE
  5
1215
  8
DIMENSIONS
 62
     0
 10
23.058357657730649
 20
16.800833827817819
 30
0.0
 11
24.134572708857089
 21
16.800833827817812
 31
0.0
  0
LINE
  5
1216
  8
DIMENSIONS
 62
     0
 10
23.058357657730649
 20
17.610833827817821
 30
0.0
 11
24.134572708857089
 21
17.610833827817821
 31
0.0
  0
LINE
  5
1217
  8
DIMENSIONS
 62
     0
 10
23.954572708857089
 20
16.925833827817819
 30
0.0
 11
23.954572708857089
 21
17.03219958056992
 31
0.0
  0
LINE
  5
1218
  8
DIMENSIONS
 62
     0
 10
23.954572708857089
 20
17.485833827817821
 30
0.0
 11
23.954572708857089
 21
17.37387946521304
 31
0.0
  0
SOLID
  5
1219
  8
DIMENSIONS
 62
     0
 10
23.933739375523761
 20
16.925833827817819
 30
0.0
 11
23.975406042190421
 21
16.925833827817819
 31
0.0
 12
23.954572708857089
 22
16.800833827817819
 32
0.0
 13
23.954572708857089
 23
16.800833827817819
 33
0.0
  0
SOLID
  5
121A
  8
DIMENSIONS
 62
     0
 10
23.933739375523761
 20
17.485833827817821
 30
0.0
 11
23.975406042190421
 21
17.485833827817821
 31
0.0
 12
23.954572708857089
 22
17.610833827817821
 32
0.0
 13
23.954572708857089
 23
17.610833827817821
 33
0.0
  0
INSERT
  5
121B
  8
CONVERTER
  2
*U49
 10
0.0
 20
0.0
 30
0.0
  0
POINT
  5
121C
  8
DEFPOINTS
 62
     0
 10
22.995857657730649
 20
16.800833827817819
 30
0.0
  0
POINT
  5
121D
  8
DEFPOINTS
 62
     0
 10
22.995857657730649
 20
17.610833827817821
 30
0.0
  0
POINT
  5
121E
  8
DEFPOINTS
 62
     0
 10
23.954572708857089
 20
17.610833827817821
 30
0.0
  0
ENDBLK
  5
1017
  8
0
  0
BLOCK
  8
0
  2
*D12
 70
     1
 10
0.0
 20
0.0
 30
0.0
  3
*D12
  1

  0
LINE
  5
121F
  8
DIMENSIONS
 62
     0
 10
20.533357657730651
 20
17.610833827817821
 30
0.0
 11
19.796255337618899
 21
17.610833827817821
 31
0.0
  0
LINE
  5
1220
  8
DIMENSIONS
 62
     0
 10
21.11335765773066
 20
17.860833827817821
 30
0.0
 11
19.796255337618899
 21
17.860833827817821
 31
0.0
  0
LINE
  5
1221
  8
DIMENSIONS
 62
     0
 10
19.976255337618898
 20
17.485833827817821
 30
0.0
 11
19.976255337618898
 21
17.360833827817821
 31
0.0
  0
LINE
  5
1222
  8
DIMENSIONS
 62
     0
 10
19.976255337618898
 20
17.985833827817821
 30
0.0
 11
19.976255337618898
 21
18.29738295612513
 31
0.0
  0
LINE
  5
1223
  8
DIMENSIONS
 62
     0
 10
19.976255337618898
 20
18.29738295612513
 30
0.0
 11
20.101255337618898
 21
18.29738295612513
 31
0.0
  0
SOLID
  5
1224
  8
DIMENSIONS
 62
     0
 10
19.955422004285559
 20
17.485833827817821
 30
0.0
 11
19.99708867095223
 21
17.485833827817821
 31
0.0
 12
19.976255337618898
 22
17.610833827817821
 32
0.0
 13
19.976255337618898
 23
17.610833827817821
 33
0.0
  0
SOLID
  5
1225
  8
DIMENSIONS
 62
     0
 10
19.955422004285559
 20
17.985833827817821
 30
0.0
 11
19.99708867095223
 21
17.985833827817821
 31
0.0
 12
19.976255337618898
 22
17.860833827817821
 32
0.0
 13
19.976255337618898
 23
17.860833827817821
 33
0.0
  0
INSERT
  5
1226
  8
CONVERTER
  2
*U50
 10
0.0
 20
0.0
 30
0.0
  0
POINT
  5
1227
  8
DEFPOINTS
 62
     0
 10
20.595857657730662
 20
17.610833827817821
 30
0.0
  0
POINT
  5
1228
  8
DEFPOINTS
 62
     0
 10
21.17585765773066
 20
17.860833827817821
 30
0.0
  0
POINT
  5
1229
  8
DEFPOINTS
 62
     0
 10
19.976255337618898
 20
17.860833827817821
 30
0.0
  0
ENDBLK
  5
1024
  8
0
  0
BLOCK
  8
0
  2
*D13
 70
     1
 10
0.0
 20
0.0
 30
0.0
  3
*D13
  1

  0
LINE
  5
122A
  8
DIMENSIONS
 62
     0
 10
20.595857657730662
 20
21.534096893411199
 30
0.0
 11
20.595857657730662
 21
22.55258422215099
 31
0.0
  0
LINE
  5
122B
  8
DIMENSIONS
 62
     0
 10
22.995857657730649
 20
21.534096893411199
 30
0.0
 11
22.995857657730649
 21
22.55258422215099
 31
0.0
  0
LINE
  5
122C
  8
DIMENSIONS
 62
     0
 10
20.720857657730651
 20
22.372584222150991
 30
0.0
 11
21.276870924502379
 21
22.372584222150991
 31
0.0
  0
LINE
  5
122D
  8
DIMENSIONS
 62
     0
 10
22.870857657730649
 20
22.372584222150991
 30
0.0
 11
22.345209064372611
 21
22.372584222150991
 31
0.0
  0
SOLID
  5
122E
  8
DIMENSIONS
 62
     0
 10
20.720857657730651
 20
22.39341755548433
 30
0.0
 11
20.720857657730651
 21
22.351750888817659
 31
0.0
 12
20.595857657730662
 22
22.372584222150991
 32
0.0
 13
20.595857657730662
 23
22.372584222150991
 33
0.0
  0
SOLID
  5
122F
  8
DIMENSIONS
 62
     0
 10
22.870857657730649
 20
22.39341755548433
 30
0.0
 11
22.870857657730649
 21
22.351750888817659
 31
0.0
 12
22.995857657730649
 22
22.372584222150991
 32
0.0
 13
22.995857657730649
 23
22.372584222150991
 33
0.0
  0
INSERT
  5
1230
  8
CONVERTER
  2
*U51
 10
0.0
 20
0.0
 30
0.0
  0
POINT
  5
1231
  8
DEFPOINTS
 62
     0
 10
20.595857657730662
 20
21.471596893411199
 30
0.0
  0
POINT
  5
1232
  8
DEFPOINTS
 62
     0
 10
22.995857657730649
 20
21.471596893411199
 30
0.0
  0
POINT
  5
1233
  8
DEFPOINTS
 62
     0
 10
22.995857657730649
 20
22.372584222150991
 30
0.0
  0
ENDBLK
  5
1032
  8
0
  0
BLOCK
  8
0
  2
*D14
 70
     1
 10
0.0
 20
0.0
 30
0.0
  3
*D14
  1

  0
LINE
  5
1234
  8
DIMENSIONS
 62
     0
 10
20.533357657730651
 20
21.471596893411199
 30
0.0
 11
18.657003238579978
 21
21.471596893411199
 31
0.0
  0
LINE
  5
1235
  8
DIMENSIONS
 62
     0
 10
20.533357657730651
 20
19.971596893411199
 30
0.0
 11
18.657003238579978
 21
19.971596893411199
 31
0.0
  0
LINE
  5
1236
  8
DIMENSIONS
 62
     0
 10
18.837003238579982
 20
21.346596893411199
 30
0.0
 11
18.837003238579982
 21
20.897666137497609
 31
0.0
  0
LINE
  5
1237
  8
DIMENSIONS
 62
     0
 10
18.837003238579982
 20
20.09659689341121
 30
0.0
 11
18.837003238579982
 21
20.555986252854488
 31
0.0
  0
SOLID
  5
1238
  8
DIMENSIONS
 62
     0
 10
18.81616990524665
 20
21.346596893411199
 30
0.0
 11
18.857836571913321
 21
21.346596893411199
 31
0.0
 12
18.837003238579982
 22
21.471596893411199
 32
0.0
 13
18.837003238579982
 23
21.471596893411199
 33
0.0
  0
SOLID
  5
1239
  8
DIMENSIONS
 62
     0
 10
18.81616990524665
 20
20.09659689341121
 30
0.0
 11
18.857836571913321
 21
20.09659689341121
 31
0.0
 12
18.837003238579982
 22
19.971596893411199
 32
0.0
 13
18.837003238579982
 23
19.971596893411199
 33
0.0
  0
INSERT
  5
123A
  8
CONVERTER
  2
*U52
 10
0.0
 20
0.0
 30
0.0
  0
POINT
  5
123B
  8
DEFPOINTS
 62
     0
 10
20.595857657730662
 20
21.471596893411199
 30
0.0
  0
POINT
  5
123C
  8
DEFPOINTS
 62
     0
 10
20.595857657730662
 20
19.971596893411199
 30
0.0
  0
POINT
  5
123D
  8
DEFPOINTS
 62
     0
 10
18.837003238579982
 20
19.971596893411199
 30
0.0
  0
ENDBLK
  5
103F
  8
0
  0
BLOCK
  8
0
  2
*D15
 70
     1
 10
0.0
 20
0.0
 30
0.0
  3
*D15
  1

  0
LINE
  5
123E
  8
DIMENSIONS
 62
     0
 10
20.595857657730662
 20
21.534096893411199
 30
0.0
 11
20.595857657730662
 21
22.118630287002421
 31
0.0
  0
LINE
  5
123F
  8
DIMENSIONS
 62
     0
 10
21.195857657730659
 20
21.184096893411201
 30
0.0
 11
21.195857657730659
 21
22.118630287002421
 31
0.0
  0
LINE
  5
1240
  8
DIMENSIONS
 62
     0
 10
21.070857657730649
 20
21.938630287002422
 30
0.0
 11
20.720857657730651
 21
21.938630287002422
 31
0.0
  0
LINE
  5
1241
  8
DIMENSIONS
 62
     0
 10
20.595857657730662
 20
21.938630287002422
 30
0.0
 11
20.42471490358502
 21
21.938630287002422
 31
0.0
  0
SOLID
  5
1242
  8
DIMENSIONS
 62
     0
 10
21.070857657730649
 20
21.95946362033575
 30
0.0
 11
21.070857657730649
 21
21.91779695366909
 31
0.0
 12
21.195857657730659
 22
21.938630287002422
 32
0.0
 13
21.195857657730659
 23
21.938630287002422
 33
0.0
  0
SOLID
  5
1243
  8
DIMENSIONS
 62
     0
 10
20.720857657730651
 20
21.95946362033575
 30
0.0
 11
20.720857657730651
 21
21.91779695366909
 31
0.0
 12
20.595857657730662
 22
21.938630287002422
 32
0.0
 13
20.595857657730662
 23
21.938630287002422
 33
0.0
  0
INSERT
  5
1244
  8
CONVERTER
  2
*U53
 10
0.0
 20
0.0
 30
0.0
  0
POINT
  5
1245
  8
DEFPOINTS
 62
     0
 10
20.595857657730662
 20
21.471596893411199
 30
0.0
  0
POINT
  5
1246
  8
DEFPOINTS
 62
     0
 10
21.195857657730659
 20
21.121596893411208
 30
0.0
  0
POINT
  5
1247
  8
DEFPOINTS
 62
     0
 10
21.195857657730659
 20
21.938630287002422
 30
0.0
  0
ENDBLK
  5
104C
  8
0
  0
BLOCK
  8
0
  2
*D16
 70
     1
 10
0.0
 20
0.0
 30
0.0
  3
*D16
  1

  0
LINE
  5
1248
  8
DIMENSIONS
 62
     0
 10
21.195857657730659
 20
21.184096893411201
 30
0.0
 11
21.195857657730659
 21
22.118630287002421
 31
0.0
  0
LINE
  5
1249
  8
DIMENSIONS
 62
     0
 10
22.395857657730659
 20
21.284096893411199
 30
0.0
 11
22.395857657730659
 21
22.118630287002421
 31
0.0
  0
LINE
  5
124A
  8
DIMENSIONS
 62
     0
 10
21.070857657730649
 20
21.938630287002422
 30
0.0
 11
20.945857657730659
 21
21.938630287002422
 31
0.0
  0
LINE
  5
124B
  8
DIMENSIONS
 62
     0
 10
22.520857657730659
 20
21.938630287002422
 30
0.0
 11
22.645857657730659
 21
21.938630287002422
 31
0.0
  0
SOLID
  5
124C
  8
DIMENSIONS
 62
     0
 10
21.070857657730649
 20
21.95946362033575
 30
0.0
 11
21.070857657730649
 21
21.91779695366909
 31
0.0
 12
21.195857657730659
 22
21.938630287002422
 32
0.0
 13
21.195857657730659
 23
21.938630287002422
 33
0.0
  0
SOLID
  5
124D
  8
DIMENSIONS
 62
     0
 10
22.520857657730659
 20
21.95946362033575
 30
0.0
 11
22.520857657730659
 21
21.91779695366909
 31
0.0
 12
22.395857657730659
 22
21.938630287002422
 32
0.0
 13
22.395857657730659
 23
21.938630287002422
 33
0.0
  0
INSERT
  5
124E
  8
CONVERTER
  2
*U54
 10
0.0
 20
0.0
 30
0.0
  0
POINT
  5
124F
  8
DEFPOINTS
 62
     0
 10
21.195857657730659
 20
21.121596893411208
 30
0.0
  0
POINT
  5
1250
  8
DEFPOINTS
 62
     0
 10
22.395857657730659
 20
21.221596893411199
 30
0.0
  0
POINT
  5
1251
  8
DEFPOINTS
 62
     0
 10
22.395857657730659
 20
21.938630287002422
 30
0.0
  0
ENDBLK
  5
1059
  8
0
  0
BLOCK
  8
0
  2
*U18
 70
     1
 10
0.0
 20
0.0
 30
0.0
  3
*U18
  1

  0
TEXT
  5
1381
  8
PINOUT
 10
-0.0030641437731005
 20
-0.0000000038621124
 30
0.0
 40
0.125
  1
PIN #
  0
ENDBLK
  5
1383
  8
0
  0
BLOCK
  8
0
  2
*U19
 70
     1
 10
0.0
 20
0.0
 30
0.0
  3
*U19
  1

  0
TEXT
  5
1385
  8
PINOUT
 10
19.65877789278899
 20
15.290284937919729
 30
0.0
 40
0.125
  1
/A  (ALT. PINOUT)
  0
ENDBLK
  5
1387
  8
0
  0
BLOCK
  8
0
  2
*U20
 70
     1
 10
0.0
 20
0.0
 30
0.0
  3
*U20
  1

  0
TEXT
  5
1389
  8
PINOUT
 10
19.999666501296559
 20
13.8914971497772
 30
0.0
 40
0.125
  1
- OUTPUT
  0
ENDBLK
  5
138B
  8
0
  0
BLOCK
  8
0
  2
*U21
 70
     1
 10
0.0
 20
0.0
 30
0.0
  3
*U21
  1

  0
TEXT
  5
138D
  8
PINOUT
 10
19.980425333308101
 20
14.241982669271369
 30
0.0
 40
0.125
  1
+ OUTPUT
  0
ENDBLK
  5
138F
  8
0
  0
BLOCK
  8
0
  2
*U22
 70
     1
 10
0.0
 20
0.0
 30
0.0
  3
*U22
  1

  0
TEXT
  5
1391
  8
PINOUT
 10
20.091952009587839
 20
14.592468188765549
 30
0.0
 40
0.125
  1
- INPUT
  0
ENDBLK
  5
1393
  8
0
  0
BLOCK
  8
0
  2
*U23
 70
     1
 10
0.0
 20
0.0
 30
0.0
  3
*U23
  1

  0
TEXT
  5
1395
  8
PINOUT
 10
20.07271084159937
 20
14.94295370825972
 30
0.0
 40
0.125
  1
+ INPUT
  0
ENDBLK
  5
1397
  8
0
  0
BLOCK
  8
0
  2
*U24
 70
     1
 10
0.0
 20
0.0
 30
0.0
  3
*U24
  1

  0
TEXT
  5
1399
  8
PINOUT
 10
18.215902878433099
 20
14.94295370825972
 30
0.0
 40
0.125
  1
+ INPUT
  0
ENDBLK
  5
139B
  8
0
  0
BLOCK
  8
0
  2
*U25
 70
     1
 10
0.0
 20
0.0
 30
0.0
  3
*U25
  1

  0
TEXT
  5
139D
  8
PINOUT
 10
18.235144046421571
 20
14.59246818876556
 30
0.0
 40
0.125
  1
- INPUT
  0
ENDBLK
  5
139F
  8
0
  0
BLOCK
  8
0
  2
*U26
 70
     1
 10
0.0
 20
0.0
 30
0.0
  3
*U26
  1

  0
TEXT
  5
13A1
  8
PINOUT
 10
18.142858538130291
 20
14.241982669271369
 30
0.0
 40
0.125
  1
- OUTPUT
  0
ENDBLK
  5
13A3
  8
0
  0
BLOCK
  8
0
  2
*U27
 70
     1
 10
0.0
 20
0.0
 30
0.0
  3
*U27
  1

  0
TEXT
  5
13A5
  8
PINOUT
 10
18.123617370141829
 20
13.891497149777191
 30
0.0
 40
0.125
  1
+ OUTPUT
  0
ENDBLK
  5
13A7
  8
0
  0
BLOCK
  8
0
  2
*U28
 70
     1
 10
0.0
 20
0.0
 30
0.0
  3
*U28
  1

  0
TEXT
  5
13A9
  8
PINOUT
 10
17.39659703804702
 20
13.891497149777191
 30
0.0
 40
0.125
  1
4
  0
ENDBLK
  5
13AB
  8
0
  0
BLOCK
  8
0
  2
*U29
 70
     1
 10
0.0
 20
0.0
 30
0.0
  3
*U29
  1

  0
TEXT
  5
13AD
  8
PINOUT
 10
17.3920007871458
 20
14.241982669271369
 30
0.0
 40
0.125
  1
3
  0
ENDBLK
  5
13AF
  8
0
  0
BLOCK
  8
0
  2
*U30
 70
     1
 10
0.0
 20
0.0
 30
0.0
  3
*U30
  1

  0
TEXT
  5
13B1
  8
PINOUT
 10
17.395515567246729
 20
14.592468188765549
 30
0.0
 40
0.125
  1
2
  0
ENDBLK
  5
13B3
  8
0
  0
BLOCK
  8
0
  2
*U31
 70
     1
 10
0.0
 20
0.0
 30
0.0
  3
*U31
  1

  0
TEXT
  5
13B5
  8
PINOUT
 10
17.37785154417536
 20
14.942953708259729
 30
0.0
 40
0.125
  1
1
  0
ENDBLK
  5
13B7
  8
0
  0
BLOCK
  8
0
  2
*U32
 70
     1
 10
0.0
 20
0.0
 30
0.0
  3
*U32
  1

  0
TEXT
  5
13B9
  8
PINOUT
 10
18.095363945484291
 20
15.29343922775389
 30
0.0
 40
0.125
  1
FUNCTION
  0
ENDBLK
  5
13BB
  8
0
  0
BLOCK
  8
0
  2
*U33
 70
     1
 10
0.0
 20
0.0
 30
0.0
  3
*U33
  1

  0
TEXT
  5
13BD
  8
PINOUT
 10
17.222573095192679
 20
15.2934392277539
 30
0.0
 40
0.125
  1
PIN #
  0
ENDBLK
  5
13BF
  8
0
  0
BLOCK
  8
0
  2
*U34
 70
     1
 10
0.0
 20
0.0
 30
0.0
  3
*U34
  1

  0
TEXT
  5
1403
  8
DIMENSIONS
 10
19.975688917399939
 20
18.47077670446167
 30
0.0
 40
0.125
  1
MIN PIN LENGTH
  0
ENDBLK
  5
1405
  8
0
  0
BLOCK
  8
0
  2
*U35
 70
     1
 10
0.0
 20
0.0
 30
0.0
  3
*U35
  1

  0
TEXT
  5
1407
  8
CONVERTER
 10
21.25571821609195
 20
21.091821623174891
 30
0.0
 40
0.08
  1
1
  0
ENDBLK
  5
1409
  8
0
  0
BLOCK
  8
0
  2
*U36
 70
     1
 10
0.0
 20
0.0
 30
0.0
  3
*U36
  1

  0
TEXT
  5
140B
  8
CONVERTER
 10
21.267023190857628
 20
20.29182162317489
 30
0.0
 40
0.08
  1
2
  0
ENDBLK
  5
140D
  8
0
  0
BLOCK
  8
0
  2
*U37
 70
     1
 10
0.0
 20
0.0
 30
0.0
  3
*U37
  1

  0
TEXT
  5
140F
  8
CONVERTER
 10
22.267186717249679
 20
20.191821623174889
 30
0.0
 40
0.08
  1
4
  0
ENDBLK
  5
1411
  8
0
  0
BLOCK
  8
0
  2
*U38
 70
     1
 10
0.0
 20
0.0
 30
0.0
  3
*U38
  1

  0
TEXT
  5
1413
  8
CONVERTER
 10
22.272896883075209
 20
21.191821623174889
 30
0.0
 40
0.08
  1
3
  0
ENDBLK
  5
1415
  8
0
  0
BLOCK
  8
0
  2
*U39
 70
     1
 10
0.0
 20
0.0
 30
0.0
  3
*U39
  1

  0
SOLID
  5
1417
  8
DIMENSIONS
 10
21.862223424817881
 20
16.692877296117771
 30
0.0
 11
21.79585765773065
 21
16.800833827817819
 31
0.0
 12
21.893649015256418
 22
16.720236816886612
 32
0.0
 13
21.893649015256418
 23
16.720236816886612
 33
0.0
  0
POLYLINE
  5
1418
  8
DIMENSIONS
 66
     1
 10
0.0
 20
0.0
 30
0.0
  0
VERTEX
  5
1419
  8
DIMENSIONS
 10
21.877936220037149
 20
16.706557056502191
 30
0.0
  0
VERTEX
  5
141A
  8
DIMENSIONS
 10
22.186733892347231
 20
16.351867028837422
 30
0.0
  0
VERTEX
  5
141B
  8
DIMENSIONS
 10
22.375184134197109
 20
16.351562312534011
 30
0.0
  0
SEQEND
  5
141C
  8
DIMENSIONS
  0
ENDBLK
  5
141E
  8
0
  0
BLOCK
  8
0
  2
*U40
 70
     1
 10
0.0
 20
0.0
 30
0.0
  3
*U40
  1

  0
TEXT
  5
1420
  8
DIMENSIONS
 10
22.451553260713009
 20
16.304122327166802
 30
0.0
 40
0.125
  1
BLACK PHENOLIC CASE
  0
ENDBLK
  5
1422
  8
0
  0
BLOCK
  8
0
  2
*U41
 70
     1
 10
0.0
 20
0.0
 30
0.0
  3
*U41
  1

  0
SOLID
  5
1424
  8
DIMENSIONS
 10
21.871538463177131
 20
17.71247753625444
 30
0.0
 11
21.79585765773065
 21
17.610833827817821
 31
0.0
 12
21.83448208176814
 22
17.731528407835111
 32
0.0
 13
21.83448208176814
 23
17.731528407835111
 33
0.0
  0
POLYLINE
  5
1425
  8
DIMENSIONS
 66
     1
 10
0.0
 20
0.0
 30
0.0
  0
VERTEX
  5
1426
  8
DIMENSIONS
 10
21.853010272472641
 20
17.72200297204477
 30
0.0
  0
VERTEX
  5
1427
  8
DIMENSIONS
 10
22.402449055530418
 20
18.790731666145291
 30
0.0
  0
VERTEX
  5
1428
  8
DIMENSIONS
 10
22.57569551278177
 20
18.790780170935861
 30
0.0
  0
SEQEND
  5
1429
  8
DIMENSIONS
  0
ENDBLK
  5
142B
  8
0
  0
BLOCK
  8
0
  2
*U42
 70
     1
 10
0.0
 20
0.0
 30
0.0
  3
*U42
  1

  0
TEXT
  5
142D
  8
DIMENSIONS
 10
22.677321356041411
 20
18.73435321939084
 30
0.0
 40
0.125
  1
NONCONDUCTIVE BASE PLATE
  0
ENDBLK
  5
142F
  8
0
  0
BLOCK
  8
0
  2
*U43
 70
     1
 10
0.0
 20
0.0
 30
0.0
  3
*U43
  1

  0
SOLID
  5
1431
  8
DIMENSIONS
 10
22.490122262981771
 20
17.963516816597242
 30
0.0
 11
22.415857657730658
 21
17.860833827817821
 31
0.0
 12
22.45280536903973
 22
17.98205220269061
 32
0.0
 13
22.45280536903973
 23
17.98205220269061
 33
0.0
  0
POLYLINE
  5
1432
  8
DIMENSIONS
 66
     1
 10
0.0
 20
0.0
 30
0.0
  0
VERTEX
  5
1433
  8
DIMENSIONS
 10
22.47146381601075
 20
17.97278450964393
 30
0.0
  0
VERTEX
  5
1434
  8
DIMENSIONS
 10
22.669783590637479
 20
18.37205744407737
 30
0.0
  0
VERTEX
  5
1435
  8
DIMENSIONS
 10
22.914758090559861
 20
18.37174633035562
 30
0.0
  0
SEQEND
  5
1436
  8
DIMENSIONS
  0
ENDBLK
  5
1438
  8
0
  0
BLOCK
  8
0
  2
*U44
 70
     1
 10
0.0
 20
0.0
 30
0.0
  3
*U44
  1

  0
TEXT
  5
143A
  8
DIMENSIONS
 10
22.98117191949617
 20
18.32134004154095
 30
0.0
 40
0.125
  1
PINS -  0.040 [0.11] Dia.
  0
ENDBLK
  5
143C
  8
0
  0
BLOCK
  8
0
  2
*U45
 70
     1
 10
0.0
 20
0.0
 30
0.0
  3
*U45
  1

  0
TEXT
  5
143E
  8
DIMENSIONS
 10
22.956595609546191
 20
18.127630234739328
 30
0.0
 40
0.125
  1
TIN PLATED BRASS, MATTE FINISH
  0
ENDBLK
  5
1440
  8
0
  0
BLOCK
  8
0
  2
*U46
 70
     1
 10
0.0
 20
0.0
 30
0.0
  3
*U46
  1

  0
TEXT
  5
1442
  8
DIMENSIONS
 62
     0
 10
19.541701339089279
 20
21.252436835732759
 30
0.0
 40
0.125
  1
0.35 [8.89]
  0
ENDBLK
  5
1444
  8
0
  0
BLOCK
  8
0
  2
*U47
 70
     1
 10
0.0
 20
0.0
 30
0.0
  3
*U47
  1

  0
TEXT
  5
1446
  8
DIMENSIONS
 62
     0
 10
23.26406249798886
 20
20.67743683573276
 30
0.0
 40
0.125
  1
1.00 [25.40]
  0
ENDBLK
  5
1448
  8
0
  0
BLOCK
  8
0
  2
*U48
 70
     1
 10
0.0
 20
0.0
 30
0.0
  3
*U48
  1

  0
TEXT
  5
144A
  8
DIMENSIONS
 62
     0
 10
19.541701339089279
 20
20.102436835732771
 30
0.0
 40
0.125
  1
0.35 [8.89]
  0
ENDBLK
  5
144C
  8
0
  0
BLOCK
  8
0
  2
*U49
 70
     1
 10
0.0
 20
0.0
 30
0.0
  3
*U49
  1

  0
TEXT
  5
144E
  8
DIMENSIONS
 62
     0
 10
23.50508640748723
 20
17.15887946521304
 30
0.0
 40
0.125
  1
0.81 [20.57]
  0
ENDBLK
  5
1450
  8
0
  0
BLOCK
  8
0
  2
*U50
 70
     1
 10
0.0
 20
0.0
 30
0.0
  3
*U50
  1

  0
TEXT
  5
1452
  8
DIMENSIONS
 62
     0
 10
20.18458626768378
 20
18.25322289844669
 30
0.0
 40
0.125
  1
0.25 [6.35]
  0
ENDBLK
  5
1454
  8
0
  0
BLOCK
  8
0
  2
*U51
 70
     1
 10
0.0
 20
0.0
 30
0.0
  3
*U51
  1

  0
TEXT
  5
1456
  8
DIMENSIONS
 62
     0
 10
21.362905531567989
 20
22.328424164472551
 30
0.0
 40
0.125
  1
2.40 [60.96]
  0
ENDBLK
  5
1458
  8
0
  0
BLOCK
  8
0
  2
*U52
 70
     1
 10
0.0
 20
0.0
 30
0.0
  3
*U52
  1

  0
TEXT
  5
145A
  8
DIMENSIONS
 62
     0
 10
18.38003676417479
 20
20.682666137497609
 30
0.0
 40
0.125
  1
1.50 [38.10]
  0
ENDBLK
  5
145C
  8
0
  0
BLOCK
  8
0
  2
*U53
 70
     1
 10
0.0
 20
0.0
 30
0.0
  3
*U53
  1

  0
TEXT
  5
145E
  8
DIMENSIONS
 62
     0
 10
19.442411370780398
 20
21.894470229323979
 30
0.0
 40
0.125
  1
0.60 [15.24]
  0
ENDBLK
  5
1460
  8
0
  0
BLOCK
  8
0
  2
*U54
 70
     1
 10
0.0
 20
0.0
 30
0.0
  3
*U54
  1

  0
TEXT
  5
1462
  8
DIMENSIONS
 62
     0
 10
21.3171056593321
 20
21.894470229323979
 30
0.0
 40
0.125
  1
1.20 [30.48]
  0
ENDBLK
  5
1464
  8
0
  0
BLOCK
  8
0
  2
*U55
 70
     1
 10
0.0
 20
0.0
 30
0.0
  3
*U55
  1

  0
TEXT
  5
1466
  8
DIMENSIONS
 62
     0
 10
23.25033134194118
 20
21.894470229323979
 30
0.0
 40
0.125
  1
0.60 [15.24]
  0
ENDBLK
  5
1468
  8
0
  0
BLOCK
  8
0
  2
*U56
 70
     1
 10
0.0
 20
0.0
 30
0.0
  3
*U56
  1

  0
TEXT
  5
146A
  8
DIMENSIONS
 62
     0
 10
23.317685425169831
 20
21.30243683573276
 30
0.0
 40
0.125
  1
0.25 [6.35]
  0
ENDBLK
  5
146C
  8
0
  0
BLOCK
  8
0
  2
*U57
 70
     1
 10
0.0
 20
0.0
 30
0.0
  3
*U57
  1

  0
TEXT
  5
146E
  8
DIMENSIONS
 62
     0
 10
23.317685425169831
 20
20.05243683573276
 30
0.0
 40
0.125
  1
0.25 [6.35]
  0
ENDBLK
  5
1470
  8
0
  0
ENDSEC
  0
SECTION
  2
ENTITIES
  0
LINE
  5
C3
  8
FRAME
 10
13.64670945225887
 20
12.6835221097257
 30
0.0
 11
30.646709452258879
 21
12.6835221097257
 31
0.0
  0
TEXT
  5
C4
  8
FRAME_TEXT
 10
28.697352482513882
 20
13.94952683626645
 30
0.0
 40
0.125
  1
American Power Design
 72
     1
 11
29.6045713001058
 21
14.01202683626645
 31
0.0
 73
     2
  0
LINE
  5
C5
  8
FRAME
 10
26.454538981841409
 20
14.218683127061681
 30
0.0
 11
26.454538981841409
 21
12.6835221097257
 31
0.0
  0
LINE
  5
C6
  8
FRAME
 10
27.61771867574598
 20
14.218683127061681
 30
0.0
 11
27.617718675745969
 21
13.39205796388077
 31
0.0
  0
LINE
  5
C7
  8
FRAME
 10
28.562433147952731
 20
14.218683127061681
 30
0.0
 11
28.562433147952731
 21
12.6835221097257
 31
0.0
  0
TEXT
  5
C8
  8
FRAME
 10
26.887472363127781
 20
14.088972929133609
 30
0.0
 40
0.0354267927077533
  1
SPECIFIED
 72
     1
 11
27.016817192451551
 21
14.088972929133609
 31
0.0
  0
TEXT
  5
C9
  8
FRAME_TEXT
 10
28.630759191880859
 20
12.888763681425139
 30
0.0
 40
0.09
  1
1:1
  0
LINE
  5
CA
  8
FRAME
 10
28.562433147952731
 20
13.80537054547122
 30
0.0
 11
30.646709452258879
 21
13.80537054547122
 31
0.0
  0
LINE
  5
CB
  8
FRAME
 10
28.562433147952731
 20
13.114548087670039
 30
0.0
 11
30.646709452258879
 21
13.114548087670039
 31
0.0
  0
LINE
  5
CC
  8
FRAME
 10
28.562433147952731
 20
12.82231545483428
 30
0.0
 11
30.646709452258879
 21
12.82231545483428
 31
0.0
  0
TEXT
  5
CD
  8
FRAME
 10
28.6032962195887
 20
13.739427536150689
 30
0.0
 40
0.0354267927077533
  1
TITLE
  0
TEXT
  5
CE
  8
FRAME
 10
28.594450260706221
 20
13.0499966485282
 30
0.0
 40
0.0354267927077533
  1
SCALE
  0
TEXT
  5
CF
  8
FRAME
 10
28.629053570452399
 20
12.733227845812889
 30
0.0
 40
0.0354267927077533
  1
SHEET       OF       
  0
LINE
  5
D0
  8
FRAME
 10
26.454538981841409
 20
13.39205796388077
 30
0.0
 11
28.562433147952731
 21
13.39205796388077
 31
0.0
  0
LINE
  5
D1
  8
FRAME
 10
26.454538981841409
 20
13.037790036803241
 30
0.0
 11
28.562433147952731
 21
13.037790036803241
 31
0.0
  0
TEXT
  5
D4
  8
FRAME
 10
26.568275042057319
 20
13.98802240839653
 30
0.0
 40
0.0354267927077533
  1
DIMENSIONS IN INCHES [MM]
  0
TEXT
  5
D5
  8
FRAME
 10
26.568275042057319
 20
13.806041506803011
 30
0.0
 40
0.0354267927077533
  1
TOLERANCES
  0
TEXT
  5
D6
  8
FRAME
 10
26.537574361229868
 20
13.67086645534965
 30
0.0
 40
0.0354267927077533
  1
FRAC =                          .XX =
  0
TEXT
  5
D7
  8
FRAME
 10
26.539395588058621
 20
13.514870802896819
 30
0.0
 40
0.0354267927077533
  1
.XXX =                         ANGLE =
  0
TEXT
  5
D8
  8
FRAME
 10
26.48890724986861
 20
13.325860394772301
 30
0.0
 40
0.0354267927077533
  1
MATERIAL
  0
TEXT
  5
D9
  8
FRAME
 10
26.48890724986861
 20
12.97660820187318
 30
0.0
 40
0.0354267927077533
  1
FINISH
  0
LINE
  5
DA
  8
FRAME
 10
27.617718675745969
 20
13.52490843653484
 30
0.0
 11
28.562433147952731
 21
13.52490843653484
 31
0.0
  0
LINE
  5
DB
  8
FRAME
 10
27.617718675745969
 20
13.657758909188921
 30
0.0
 11
28.562433147952731
 21
13.657758909188921
 31
0.0
  0
LINE
  5
DC
  8
FRAME
 10
27.617718675745969
 20
13.790609381842989
 30
0.0
 11
28.562433147952731
 21
13.790609381842989
 31
0.0
  0
LINE
  5
DD
  8
FRAME
 10
27.61771867574598
 20
13.92345985449707
 30
0.0
 11
28.562433147952731
 21
13.92345985449707
 31
0.0
  0
LINE
  5
DE
  8
FRAME
 10
27.61771867574598
 20
14.05631032715114
 30
0.0
 11
28.562433147952731
 21
14.05631032715114
 31
0.0
  0
TEXT
  5
DF
  8
FRAME
 10
27.638586979149011
 20
13.835291201321199
 30
0.0
 40
0.0354267927077533
  1
DWN
  0
TEXT
  5
E0
  8
FRAME
 10
27.642702163862321
 20
13.70275125041884
 30
0.0
 40
0.0354267927077533
  1
CHK
  0
TEXT
  5
E1
  8
FRAME
 10
27.642702163862321
 20
13.57460835949901
 30
0.0
 40
0.0354267927077533
  1
CH DR
  0
TEXT
  5
E2
  8
FRAME
 10
27.64733174666479
 20
13.469707071344059
 30
0.0
 40
0.0354267927077533
  1
COG
  0
TEXT
  5
E3
  8
FRAME
 10
27.64733174666479
 20
13.410662416831141
 30
0.0
 40
0.0354267927077533
  1
ENG
  0
TEXT
  5
E4
  8
FRAME
 10
27.856691768954331
 20
13.96280594081494
 30
0.0
 40
0.0531401890616299
  1
APPROVAL
  0
TEXT
  5
E5
  8
FRAME
 10
28.410184112894239
 20
13.44239314619367
 30
0.0
 40
0.0354267927077533
  1
DATE
  0
TEXT
  5
E6
  8
FRAME
 10
28.410184112894239
 20
13.70809409150182
 30
0.0
 40
0.0354267927077533
  1
DATE
  0
TEXT
  5
E7
  8
FRAME
 10
28.410184112894239
 20
13.57524361884775
 30
0.0
 40
0.0354267927077533
  1
DATE
  0
TEXT
  5
E8
  8
FRAME
 10
28.410184112894239
 20
13.840944564155899
 30
0.0
 40
0.0354267927077533
  1
DATE
  0
TEXT
  5
EA
  8
FRAME_TEXT
 10
28.824888857231709
 20
12.69977944867542
 30
0.0
 40
0.1
  1
1  1
  0
LINE
  5
EB
  8
FRAME
 10
28.857656420517351
 20
13.114548087670039
 30
0.0
 11
28.857656420517351
 21
12.82231545483428
 31
0.0
  0
TEXT
  5
EC
  8
FRAME_TEXT
 10
28.93293827559188
 20
12.84907746336148
 30
0.0
 40
0.1476116362823053
  1
B
  0
TEXT
  5
ED
  8
FRAME
 10
29.158510227095238
 20
13.05031435861466
 30
0.0
 40
0.0354267927077533
  1
FILE
  0
LINE
  5
EE
  8
FRAME
 10
29.123357365825498
 20
13.114548087670039
 30
0.0
 11
29.123357365825491
 21
12.82231545483428
 31
0.0
  0
LINE
  5
EF
  8
FRAME
 10
29.701994980052131
 20
12.82231545483428
 30
0.0
 11
29.701994980052131
 21
12.6835221097257
 31
0.0
  0
TEXT
  5
F0
  8
FRAME
 10
29.86202413351403
 20
12.733227845812889
 30
0.0
 40
0.0354267927077533
  1
DO NOT SCALE PRINT
  0
TEXT
  5
F1
  8
FRAME
 10
30.39096043963437
 20
13.0499966485282
 30
0.0
 40
0.0354267927077533
  1
REV.
  0
LINE
  5
F2
  8
FRAME
 10
30.35148617969428
 20
13.114548087670039
 30
0.0
 11
30.35148617969428
 21
12.82231545483428
 31
0.0
  0
LINE
  5
F3
  8
FRAME
 10
26.45453898184142
 20
14.218683127061681
 30
0.0
 11
30.646709452258879
 21
14.218683127061681
 31
0.0
  0
TEXT
  5
F4
  8
FRAME
 10
27.642702163862321
 20
14.13491943156019
 30
0.0
 40
0.0531401890616299
  1
STANDARD
  0
TEXT
  5
F5
  8
FRAME
 10
26.782217183190891
 20
14.15092639599369
 30
0.0
 40
0.0354267927077533
  1
UNLESS OTHERWISE
 72
     1
 11
27.03867191439651
 21
14.15092639599369
 31
0.0
  0
TEXT
  5
F6
  8
FRAME_TEXT
 10
26.757202096569451
 20
13.50446367242704
 30
0.0
 40
0.05
  1
%%p.005
  0
TEXT
  5
F7
  8
FRAME_TEXT
 10
30.459840987620218
 20
12.887976862917579
 30
0.0
 40
0.12
  1
-
  0
LINE
  5
F8
  8
0
 10
30.646709452258879
 20
12.6835221097257
 30
0.0
 11
30.646709452258879
 21
23.683522109725711
 31
0.0
  0
LINE
  5
F9
  8
0
 10
30.646709452258879
 20
23.683522109725711
 30
0.0
 11
13.64670945225887
 21
23.683522109725711
 31
0.0
  0
LINE
  5
FA
  8
0
 10
13.64670945225887
 20
23.683522109725711
 30
0.0
 11
13.64670945225887
 21
12.6835221097257
 31
0.0
  0
TEXT
  5
126
  8
FRAME_TEXT
 10
29.043107709622749
 20
13.397459316570631
 30
0.0
 40
0.125
  1
P5 Dimensions
 72
     1
 11
29.6045713001058
 21
13.459959316570631
 31
0.0
 73
     2
  0
TEXT
  5
4C9
  8
FRAME_TEXT
 10
27.290374541847552
 20
13.665881946633879
 30
0.0
 40
0.05
  1
%%p.05
  0
TEXT
  5
4D0
  8
FRAME_TEXT
 10
26.771739143223179
 20
13.66141386644885
 30
0.0
 40
0.05
  1
%%p1/64
  0
TEXT
  5
4D9
  8
FRAME_TEXT
 10
27.359125217827842
 20
13.505978030148629
 30
0.0
 40
0.05
  1
%%p1°0
  0
TEXT
  5
4DB
  8
FRAME
 10
28.887688288179579
 20
13.0499966485282
 30
0.0
 40
0.0354267927077533
  1
SIZE
  0
TEXT
  5
5DF
  8
FRAME_TEXT
 10
29.389426745133559
 20
12.90798911704344
 30
0.0
 40
0.1
  1
p5_cadd
  0
TEXT
  5
5E6
  8
FRAME_TEXT
 10
27.810685378734579
 20
13.833699792690499
 30
0.0
 40
0.05
  1
CDL    12/96
  0
TEXT
  5
5EC
  8
FRAME_TEXT
 10
27.810685378734579
 20
13.69941576351696
 30
0.0
 40
0.05
  1
NJN    12/96
  0
LINE
  5
C88
  8
CONVERTER
 10
17.56138853974144
 20
17.610833827817821
 30
0.0
 11
17.56138853974144
 21
16.800833827817819
 31
0.0
  0
LINE
  5
C89
  8
CONVERTER
 10
17.56138853974144
 20
16.800833827817819
 30
0.0
 11
16.06138853974144
 21
16.800833827817819
 31
0.0
  0
LINE
  5
C8A
  8
CONVERTER
 10
16.06138853974144
 20
16.800833827817819
 30
0.0
 11
16.06138853974144
 21
17.610833827817821
 31
0.0
  0
LINE
  5
C8B
  8
CONVERTER
 10
16.06138853974144
 20
17.610833827817821
 30
0.0
 11
17.56138853974144
 21
17.610833827817821
 31
0.0
  0
LINE
  5
C8E
  8
CONVERTER
 10
16.33138853974144
 20
17.860833827817821
 30
0.0
 11
16.33138853974144
 21
17.610833827817821
 31
0.0
  0
LINE
  5
C8F
  8
CONVERTER
 10
16.29138853974144
 20
17.860833827817821
 30
0.0
 11
16.29138853974144
 21
17.610833827817821
 31
0.0
  0
LINE
  5
C90
  8
0
 10
16.29138853974144
 20
17.860833827817821
 30
0.0
 11
16.33138853974144
 21
17.860833827817821
 31
0.0
  0
LINE
  5
C91
  8
0
 10
16.391388539741438
 20
17.860833827817821
 30
0.0
 11
16.431388539741452
 21
17.860833827817821
 31
0.0
  0
LINE
  5
C92
  8
CONVERTER
 10
16.391388539741438
 20
17.860833827817821
 30
0.0
 11
16.391388539741438
 21
17.610833827817821
 31
0.0
  0
LINE
  5
C93
  8
CONVERTER
 10
16.431388539741452
 20
17.860833827817821
 30
0.0
 11
16.431388539741441
 21
17.610833827817821
 31
0.0
  0
LINE
  5
C94
  8
CONVERTER
 10
17.191388539741439
 20
17.860833827817821
 30
0.0
 11
17.191388539741439
 21
17.610833827817821
 31
0.0
  0
LINE
  5
C95
  8
CONVERTER
 10
17.231388539741442
 20
17.860833827817821
 30
0.0
 11
17.231388539741442
 21
17.610833827817821
 31
0.0
  0
LINE
  5
C96
  8
0
 10
17.231388539741442
 20
17.860833827817821
 30
0.0
 11
17.191388539741439
 21
17.860833827817821
 31
0.0
  0
LINE
  5
C97
  8
0
 10
17.33138853974144
 20
17.860833827817821
 30
0.0
 11
17.29138853974144
 21
17.860833827817821
 31
0.0
  0
LINE
  5
C98
  8
CONVERTER
 10
17.33138853974144
 20
17.860833827817821
 30
0.0
 11
17.33138853974144
 21
17.610833827817821
 31
0.0
  0
LINE
  5
C99
  8
CONVERTER
 10
17.29138853974144
 20
17.860833827817821
 30
0.0
 11
17.29138853974144
 21
17.610833827817821
 31
0.0
  0
LINE
  5
D1B
  8
GRID
 10
21.532569527213699
 20
15.525303759093751
 30
0.0
 11
21.532569527213699
 21
13.772876161622859
 31
0.0
  0
INSERT
  5
D1C
  8
CONVERTER
  2
*U19
 10
0.0
 20
0.0
 30
0.0
  0
INSERT
  5
D1D
  8
CONVERTER
  2
*U20
 10
0.0
 20
0.0
 30
0.0
  0
INSERT
  5
D1E
  8
CONVERTER
  2
*U21
 10
0.0
 20
0.0
 30
0.0
  0
INSERT
  5
D1F
  8
CONVERTER
  2
*U22
 10
0.0
 20
0.0
 30
0.0
  0
INSERT
  5
D20
  8
CONVERTER
  2
*U23
 10
0.0
 20
0.0
 30
0.0
  0
INSERT
  5
D21
  8
CONVERTER
  2
*U24
 10
0.0
 20
0.0
 30
0.0
  0
INSERT
  5
D22
  8
CONVERTER
  2
*U25
 10
0.0
 20
0.0
 30
0.0
  0
INSERT
  5
D23
  8
CONVERTER
  2
*U26
 10
0.0
 20
0.0
 30
0.0
  0
INSERT
  5
D24
  8
CONVERTER
  2
*U27
 10
0.0
 20
0.0
 30
0.0
  0
INSERT
  5
D25
  8
CONVERTER
  2
*U28
 10
0.0
 20
0.0
 30
0.0
  0
INSERT
  5
D26
  8
CONVERTER
  2
*U29
 10
0.0
 20
0.0
 30
0.0
  0
INSERT
  5
D27
  8
CONVERTER
  2
*U30
 10
0.0
 20
0.0
 30
0.0
  0
INSERT
  5
D28
  8
CONVERTER
  2
*U31
 10
0.0
 20
0.0
 30
0.0
  0
LINE
  5
D29
  8
GRID
 10
21.532569527213699
 20
13.772876161622859
 30
0.0
 11
17.061754954320339
 21
13.772876161622859
 31
0.0
  0
LINE
  5
D2A
  8
GRID
 10
21.532569527213699
 20
14.123361681117039
 30
0.0
 11
17.061754954320339
 21
14.123361681117039
 31
0.0
  0
LINE
  5
D2B
  8
GRID
 10
21.532569527213699
 20
14.473847200611219
 30
0.0
 11
17.061754954320339
 21
14.47384720061121
 31
0.0
  0
LINE
  5
D2C
  8
GRID
 10
21.532569527213699
 20
14.82433272010539
 30
0.0
 11
17.061754954320339
 21
14.82433272010539
 31
0.0
  0
INSERT
  5
D2D
  8
CONVERTER
  2
*U32
 10
0.0
 20
0.0
 30
0.0
  0
LINE
  5
D2E
  8
GRID
 10
17.818953600881169
 20
15.525303759093751
 30
0.0
 11
17.818953600881169
 21
13.772876161622859
 31
0.0
  0
LINE
  5
D2F
  8
GRID
 10
21.532569527213699
 20
15.174818239599571
 30
0.0
 11
17.061754954320339
 21
15.174818239599571
 31
0.0
  0
INSERT
  5
D30
  8
CONVERTER
  2
*U33
 10
0.0
 20
0.0
 30
0.0
  0
LINE
  5
D31
  8
GRID
 10
17.061754954320339
 20
15.525303759093751
 30
0.0
 11
17.061754954320339
 21
13.772876161622859
 31
0.0
  0
LINE
  5
D32
  8
GRID
 10
19.305263835869681
 20
15.525303759093751
 30
0.0
 11
19.305263835869681
 21
13.772876161622859
 31
0.0
  0
LINE
  5
D33
  8
GRID
 10
17.061754954320339
 20
15.525303759093751
 30
0.0
 11
21.532569527213699
 21
15.525303759093751
 31
0.0
  0
DIMENSION
  5
F2A
  8
DIMENSIONS
  2
*D4
 10
19.945044886313511
 20
20.321596893411211
 30
0.0
 11
19.93958271836776
 21
20.726826195176049
 31
0.0
 70
   128
 13
21.195857657730659
 23
21.121596893411208
 33
0.0
 14
21.195857657730659
 24
20.321596893411211
 34
0.0
 50
90.0
1001
ACAD
1000
DSTYLE
1002
{
1070
   287
1070
     4
1070
   279
1070
     1
1002
}
  0
DIMENSION
  5
F2B
  8
DIMENSIONS
  2
*D5
 10
19.945044886313511
 20
21.121596893411208
 30
0.0
 11
19.945044886313511
 21
21.296596893411209
 31
0.0
 70
     0
 13
20.595857657730662
 23
21.471596893411199
 33
0.0
 14
21.195857657730659
 24
21.121596893411208
 34
0.0
 50
90.0
  0
CIRCLE
  5
F2C
  8
0
 10
21.195857657730659
 20
21.121596893411208
 30
0.0
 40
0.02
  0
CIRCLE
  5
F2D
  8
0
 10
21.195857657730659
 20
20.321596893411211
 30
0.0
 40
0.02
  0
CIRCLE
  5
F2E
  8
0
 10
22.395857657730659
 20
21.221596893411199
 30
0.0
 40
0.02
  0
CIRCLE
  5
F2F
  8
0
 10
22.395857657730659
 20
20.221596893411199
 30
0.0
 40
0.02
  0
LINE
  5
F30
  8
0
 10
22.995857657730649
 20
19.971596893411199
 30
0.0
 11
22.995857657730649
 21
20.221596893411199
 31
0.0
  0
LINE
  5
F31
  8
0
 10
20.595857657730662
 20
19.971596893411199
 30
0.0
 11
20.595857657730662
 21
21.471596893411199
 31
0.0
  0
LINE
  5
F32
  8
0
 10
22.995857657730649
 20
19.971596893411199
 30
0.0
 11
20.595857657730662
 21
19.971596893411199
 31
0.0
  0
LINE
  5
F33
  8
0
 10
22.995857657730649
 20
21.471596893411199
 30
0.0
 11
22.995857657730649
 21
19.971596893411199
 31
0.0
  0
LINE
  5
F34
  8
0
 10
20.595857657730662
 20
21.471596893411199
 30
0.0
 11
22.995857657730649
 21
21.471596893411199
 31
0.0
  0
DIMENSION
  5
F35
  8
DIMENSIONS
  2
*D6
 10
23.721028972394059
 20
20.221596893411199
 30
0.0
 11
23.721028972394059
 21
20.72159689341121
 31
0.0
 70
     0
 13
22.395857657730659
 23
21.221596893411199
 33
0.0
 14
22.395857657730659
 24
20.221596893411199
 34
0.0
 50
90.0
  0
DIMENSION
  5
F36
  8
DIMENSIONS
  2
*D7
 10
19.945044886313511
 20
20.321596893411211
 30
0.0
 11
19.945044886313511
 21
20.146596893411211
 31
0.0
 70
     0
 13
20.595857657730662
 23
19.971596893411199
 33
0.0
 14
21.195857657730659
 24
20.321596893411211
 34
0.0
 50
270.0
  0
LINE
  5
F37
  8
0
 10
22.375857657730659
 20
17.860833827817821
 30
0.0
 11
22.415857657730658
 21
17.860833827817821
 31
0.0
  0
LINE
  5
F38
  8
0
 10
21.17585765773066
 20
17.860833827817821
 30
0.0
 11
21.215857657730659
 21
17.860833827817821
 31
0.0
  0
LINE
  5
F39
  8
CONVERTER
 10
22.415857657730658
 20
17.860833827817821
 30
0.0
 11
22.415857657730658
 21
17.610833827817821
 31
0.0
  0
LINE
  5
F3A
  8
CONVERTER
 10
22.375857657730659
 20
17.860833827817821
 30
0.0
 11
22.375857657730659
 21
17.610833827817821
 31
0.0
  0
LINE
  5
F3B
  8
CONVERTER
 10
21.17585765773066
 20
17.860833827817821
 30
0.0
 11
21.17585765773066
 21
17.610833827817821
 31
0.0
  0
LINE
  5
F3C
  8
CONVERTER
 10
21.215857657730659
 20
17.860833827817821
 30
0.0
 11
21.215857657730648
 21
17.610833827817821
 31
0.0
  0
LINE
  5
F3D
  8
0
 10
20.595857657730662
 20
17.610833827817821
 30
0.0
 11
22.995857657730649
 21
17.610833827817821
 31
0.0
  0
LINE
  5
F3E
  8
0
 10
22.995857657730649
 20
17.610833827817821
 30
0.0
 11
22.995857657730649
 21
16.800833827817819
 31
0.0
  0
LINE
  5
F3F
  8
0
 10
22.995857657730649
 20
16.800833827817819
 30
0.0
 11
20.595857657730662
 21
16.800833827817819
 31
0.0
  0
LINE
  5
F40
  8
0
 10
20.595857657730662
 20
17.610833827817821
 30
0.0
 11
20.595857657730662
 21
16.800833827817819
 31
0.0
  0
DIMENSION
  5
F41
  8
DIMENSIONS
  2
*D11
 10
23.954572708857089
 20
17.610833827817821
 30
0.0
 11
23.954572708857079
 21
17.20303952289148
 31
0.0
 70
   128
 13
22.995857657730649
 23
16.800833827817819
 33
0.0
 14
22.995857657730649
 24
17.610833827817821
 34
0.0
 50
90.0
  0
DIMENSION
  5
F44
  8
DIMENSIONS
  2
*D12
 10
19.976255337618898
 20
17.860833827817821
 30
0.0
 11
20.587929814908009
 21
18.29738295612513
 31
0.0
 70
   128
 13
20.595857657730662
 23
17.610833827817821
 33
0.0
 14
21.17585765773066
 24
17.860833827817821
 34
0.0
 50
90.0
  0
INSERT
  5
F47
  8
CONVERTER
  2
*U34
 10
0.0
 20
0.0
 30
0.0
  0
LINE
  5
F48
  8
CONVERTER
 10
17.56138853974144
 20
17.610833827817821
 30
0.0
 11
17.56138853974144
 21
16.800833827817819
 31
0.0
  0
LINE
  5
F4B
  8
CONVERTER
 10
16.06138853974144
 20
17.610833827817821
 30
0.0
 11
17.56138853974144
 21
17.610833827817821
 31
0.0
  0
LINE
  5
F4C
  8
CONVERTER
 10
16.33138853974144
 20
17.860833827817821
 30
0.0
 11
16.33138853974144
 21
17.610833827817821
 31
0.0
  0
LINE
  5
F4D
  8
CONVERTER
 10
16.291388539741451
 20
17.860833827817821
 30
0.0
 11
16.291388539741451
 21
17.610833827817821
 31
0.0
  0
LINE
  5
F4E
  8
0
 10
16.291388539741451
 20
17.860833827817821
 30
0.0
 11
16.33138853974144
 21
17.860833827817821
 31
0.0
  0
LINE
  5
F4F
  8
0
 10
16.391388539741438
 20
17.860833827817821
 30
0.0
 11
16.431388539741452
 21
17.860833827817821
 31
0.0
  0
LINE
  5
F50
  8
CONVERTER
 10
16.391388539741438
 20
17.860833827817821
 30
0.0
 11
16.391388539741438
 21
17.610833827817821
 31
0.0
  0
LINE
  5
F51
  8
CONVERTER
 10
16.431388539741452
 20
17.860833827817821
 30
0.0
 11
16.431388539741452
 21
17.610833827817821
 31
0.0
  0
LINE
  5
F52
  8
CONVERTER
 10
17.191388539741439
 20
17.860833827817821
 30
0.0
 11
17.191388539741439
 21
17.610833827817821
 31
0.0
  0
LINE
  5
F53
  8
CONVERTER
 10
17.231388539741442
 20
17.860833827817821
 30
0.0
 11
17.231388539741442
 21
17.610833827817821
 31
0.0
  0
LINE
  5
F54
  8
0
 10
17.231388539741442
 20
17.860833827817821
 30
0.0
 11
17.191388539741439
 21
17.860833827817821
 31
0.0
  0
LINE
  5
F55
  8
0
 10
17.33138853974144
 20
17.860833827817821
 30
0.0
 11
17.29138853974144
 21
17.860833827817821
 31
0.0
  0
LINE
  5
F56
  8
CONVERTER
 10
17.33138853974144
 20
17.860833827817821
 30
0.0
 11
17.33138853974144
 21
17.610833827817821
 31
0.0
  0
LINE
  5
F57
  8
CONVERTER
 10
17.29138853974144
 20
17.860833827817821
 30
0.0
 11
17.291388539741451
 21
17.610833827817821
 31
0.0
  0
LINE
  5
F58
  8
CONVERTER
 10
26.300326775719871
 20
17.860833827817821
 30
0.0
 11
26.300326775719871
 21
17.610833827817821
 31
0.0
  0
LINE
  5
F59
  8
CONVERTER
 10
26.260326775719861
 20
17.860833827817821
 30
0.0
 11
26.260326775719861
 21
17.610833827817821
 31
0.0
  0
LINE
  5
F5A
  8
0
 10
26.260326775719861
 20
17.860833827817821
 30
0.0
 11
26.300326775719871
 21
17.860833827817821
 31
0.0
  0
LINE
  5
F5B
  8
0
 10
26.360326775719869
 20
17.860833827817821
 30
0.0
 11
26.400326775719869
 21
17.860833827817821
 31
0.0
  0
LINE
  5
F5C
  8
CONVERTER
 10
26.360326775719869
 20
17.860833827817821
 30
0.0
 11
26.360326775719869
 21
17.610833827817821
 31
0.0
  0
LINE
  5
F5D
  8
CONVERTER
 10
26.400326775719869
 20
17.860833827817821
 30
0.0
 11
26.400326775719861
 21
17.610833827817821
 31
0.0
  0
LINE
  5
F5E
  8
CONVERTER
 10
27.160326775719859
 20
17.860833827817821
 30
0.0
 11
27.16032677571987
 21
17.610833827817821
 31
0.0
  0
LINE
  5
F5F
  8
CONVERTER
 10
27.200326775719859
 20
17.860833827817821
 30
0.0
 11
27.200326775719859
 21
17.610833827817821
 31
0.0
  0
LINE
  5
F60
  8
0
 10
27.200326775719859
 20
17.860833827817821
 30
0.0
 11
27.160326775719859
 21
17.860833827817821
 31
0.0
  0
LINE
  5
F61
  8
0
 10
27.300326775719871
 20
17.860833827817821
 30
0.0
 11
27.260326775719861
 21
17.860833827817821
 31
0.0
  0
LINE
  5
F62
  8
CONVERTER
 10
27.300326775719871
 20
17.860833827817821
 30
0.0
 11
27.300326775719871
 21
17.610833827817821
 31
0.0
  0
LINE
  5
F63
  8
CONVERTER
 10
27.260326775719861
 20
17.860833827817821
 30
0.0
 11
27.260326775719861
 21
17.610833827817821
 31
0.0
  0
LINE
  5
F64
  8
CONVERTER
 10
27.530326775719871
 20
17.610833827817821
 30
0.0
 11
26.030326775719871
 21
17.610833827817821
 31
0.0
  0
LINE
  5
F65
  8
CONVERTER
 10
27.530326775719871
 20
16.800833827817819
 30
0.0
 11
27.530326775719871
 21
17.610833827817821
 31
0.0
  0
LINE
  5
F66
  8
CONVERTER
 10
26.030326775719871
 20
16.800833827817819
 30
0.0
 11
27.530326775719871
 21
16.800833827817819
 31
0.0
  0
LINE
  5
F67
  8
CONVERTER
 10
26.030326775719871
 20
17.610833827817821
 30
0.0
 11
26.030326775719871
 21
16.800833827817819
 31
0.0
  0
INSERT
  5
F68
  8
CONVERTER
  2
*U35
 10
0.0
 20
0.0
 30
0.0
  0
INSERT
  5
F69
  8
CONVERTER
  2
*U36
 10
0.0
 20
0.0
 30
0.0
  0
INSERT
  5
F6A
  8
CONVERTER
  2
*U37
 10
0.0
 20
0.0
 30
0.0
  0
INSERT
  5
F6B
  8
CONVERTER
  2
*U38
 10
0.0
 20
0.0
 30
0.0
  0
INSERT
  5
F6C
  8
CONVERTER
  2
*U39
 10
0.0
 20
0.0
 30
0.0
1001
ACAD
1000
DSTYLE
1002
{
1070
   147
1040
0.09
1070
    77
1070
     0
1002
}
  0
INSERT
  5
F6D
  8
CONVERTER
  2
*U40
 10
0.0
 20
0.0
 30
0.0
  0
INSERT
  5
F6E
  8
CONVERTER
  2
*U41
 10
0.0
 20
0.0
 30
0.0
1001
ACAD
1000
DSTYLE
1002
{
1070
   147
1040
0.09
1070
    77
1070
     0
1002
}
  0
INSERT
  5
F6F
  8
CONVERTER
  2
*U42
 10
0.0
 20
0.0
 30
0.0
  0
INSERT
  5
F70
  8
CONVERTER
  2
*U43
 10
0.0
 20
0.0
 30
0.0
1001
ACAD
1000
DSTYLE
1002
{
1070
   147
1040
0.09
1070
    77
1070
     0
1002
}
  0
INSERT
  5
F71
  8
CONVERTER
  2
*U44
 10
0.0
 20
0.0
 30
0.0
  0
INSERT
  5
F72
  8
CONVERTER
  2
*U45
 10
0.0
 20
0.0
 30
0.0
  0
DIMENSION
  5
F73
  8
DIMENSIONS
  2
*D13
 10
22.995857657730649
 20
22.372584222150991
 30
0.0
 11
21.81103999443749
 21
22.372584222150991
 31
0.0
 70
   128
 13
20.595857657730662
 23
21.471596893411199
 33
0.0
 14
22.995857657730649
 24
21.471596893411199
 34
0.0
  0
DIMENSION
  5
F76
  8
DIMENSIONS
  2
*D14
 10
18.837003238579982
 20
19.971596893411199
 30
0.0
 11
18.837003238579982
 21
20.726826195176049
 31
0.0
 70
   128
 13
20.595857657730662
 23
21.471596893411199
 33
0.0
 14
20.595857657730662
 24
19.971596893411199
 34
0.0
 50
90.0
  0
LINE
  5
F79
  8
CONVERTER
 10
20.635857657730661
 20
21.4315968934112
 30
0.0
 11
22.95585765773065
 21
21.4315968934112
 31
0.0
  0
LINE
  5
F7A
  8
CONVERTER
 10
22.95585765773065
 20
21.4315968934112
 30
0.0
 11
22.95585765773065
 21
20.011596893411198
 31
0.0
  0
LINE
  5
F7B
  8
CONVERTER
 10
22.95585765773065
 20
20.011596893411198
 30
0.0
 11
20.635857657730661
 21
20.011596893411198
 31
0.0
  0
LINE
  5
F7C
  8
CONVERTER
 10
20.635857657730661
 20
20.011596893411198
 30
0.0
 11
20.635857657730661
 21
21.4315968934112
 31
0.0
  0
DIMENSION
  5
F7D
  8
DIMENSIONS
  2
*D15
 10
21.195857657730659
 20
21.938630287002422
 30
0.0
 11
19.891897672150261
 21
21.938630287002422
 31
0.0
 70
   128
 13
20.595857657730662
 23
21.471596893411199
 33
0.0
 14
21.195857657730659
 24
21.121596893411208
 34
0.0
  0
DIMENSION
  5
F80
  8
DIMENSIONS
  2
*D16
 10
22.395857657730659
 20
21.938630287002422
 30
0.0
 11
21.774072133737288
 21
21.938630287002422
 31
0.0
 70
   128
 13
21.195857657730659
 23
21.121596893411208
 33
0.0
 14
22.395857657730659
 24
21.221596893411199
 34
0.0
  0
DIMENSION
  5
F83
  8
DIMENSIONS
  2
*D8
 10
22.995857657730649
 20
21.938630287002422
 30
0.0
 11
23.699817643311039
 21
21.938630287002422
 31
0.0
 70
   128
 13
22.395857657730659
 23
21.221596893411199
 33
0.0
 14
22.995857657730649
 24
21.471596893411199
 34
0.0
  0
DIMENSION
  5
F86
  8
DIMENSIONS
  2
*D9
 10
23.721028972394059
 20
21.471596893411199
 30
0.0
 11
23.721028972394048
 21
21.34659689341121
 31
0.0
 70
   128
 13
22.395857657730659
 23
21.221596893411199
 33
0.0
 14
22.995857657730649
 24
21.471596893411199
 34
0.0
 50
90.0
  0
DIMENSION
  5
F89
  8
DIMENSIONS
  2
*D10
 10
23.721028972394059
 20
20.221596893411199
 30
0.0
 11
23.721028972394048
 21
20.09659689341121
 31
0.0
 70
   128
 13
22.995857657730649
 23
19.971596893411199
 33
0.0
 14
22.395857657730659
 24
20.221596893411199
 34
0.0
 50
90.0
  0
LINE
  5
F8C
  8
0
 10
21.721308597000299
 20
20.72159689341121
 30
0.0
 11
21.870406718461009
 21
20.72159689341121
 31
0.0
  0
LINE
  5
F8D
  8
0
 10
21.79585765773065
 20
20.789453795958199
 30
0.0
 11
21.79585765773065
 21
20.65373999086421
 31
0.0
  0
LINE
  5
F8E
  8
0
 10
21.673868328748298
 20
20.72159689341121
 30
0.0
 11
20.79199264027832
 21
20.72159689341121
 31
0.0
  0
LINE
  5
F8F
  8
0
 10
21.79585765773065
 20
20.836105423278489
 30
0.0
 11
21.79585765773065
 21
21.28685004152106
 31
0.0
  0
LINE
  5
F90
  8
0
 10
21.91784698671302
 20
20.72159689341121
 30
0.0
 11
22.779544850662511
 21
20.72159689341121
 31
0.0
  0
LINE
  5
F91
  8
0
 10
21.79585765773065
 20
20.607088363543919
 30
0.0
 11
21.79585765773065
 21
20.174711724541559
 31
0.0
  0
ENDSEC
  0
EOF
